osu file format v14

[General]
AudioFilename: S.S.H. - Dead Alus.mp3
AudioLeadIn: 0
PreviewTime: 71813
Countdown: 0
SampleSet: Normal
StackLeniency: 0.7
Mode: 1
LetterboxInBreaks: 0
WidescreenStoryboard: 0

[Editor]
DistanceSpacing: 0.6
BeatDivisor: 2
GridSize: 32
TimelineZoom: 1.6

[Metadata]
Title:Daedalus
TitleUnicode:Daedalus
Artist:S.S.H.
ArtistUnicode:S.S.H.
Creator:DarkVortex
Version:Futsuu
Source:デジタル・デビル物語 女神転生
Tags:ssh Saitama Saisyu Heiki Digital Devil Story Megami Tensei
BeatmapID:793429
BeatmapSetID:358799

[Difficulty]
HPDrainRate:7
CircleSize:5
OverallDifficulty:4
ApproachRate:5
SliderMultiplier:1.2
SliderTickRate:1

[Events]
//Background and Video events
0,0,"tiger_fractal_cats_____e_1366x768.jpg",0,0
//Break Periods
//Storyboard Layer 0 (Background)
//Storyboard Layer 1 (Fail)
//Storyboard Layer 2 (Pass)
//Storyboard Layer 3 (Foreground)
//Storyboard Sound Samples

[TimingPoints]
684,277.842093077101,4,1,0,10,1,0
7352,-100,4,1,0,35,0,0
8463,-100,4,1,0,40,0,0
9158,-100,4,1,0,55,0,0
9574,-100,4,1,0,65,0,0
18465,-100,4,1,0,75,0,0
91816,-100,4,1,0,75,0,1
127379,-100,4,1,0,60,0,0
135159,304.568527918782,4,1,0,60,1,0
135159,-90.9090909090909,4,1,0,60,0,0
135615,342.857142857143,4,1,0,60,1,8
135615,-81.0372771474878,4,1,0,60,0,0
135957,375,4,1,0,60,1,8
135957,-74.0740740740741,4,1,0,60,0,0
136144,422.535211267606,4,1,0,60,1,8
136144,-65.7894736842105,4,1,0,60,0,0
136355,535.714285714286,4,1,0,60,1,8
136355,-51.8134715025907,4,1,0,60,0,0
136622,600,4,1,0,60,1,0
136622,-46.2962962962963,4,1,0,60,0,0
136772,-46.2962962962963,4,1,0,30,0,0

[HitObjects]
256,192,7352,12,0,8880,0:0:0:0:
256,192,9158,5,0,0:0:0:0:
256,192,9297,1,0,0:0:0:0:
256,192,9574,1,4,0:0:0:0:
256,192,10686,1,8,0:0:0:0:
256,192,11797,1,4,0:0:0:0:
256,192,12909,1,8,0:0:0:0:
256,192,14020,1,4,0:0:0:0:
256,192,15409,1,8,0:0:0:0:
256,192,15687,1,8,0:0:0:0:
256,192,16243,1,0,0:0:0:0:
256,192,16659,1,8,0:0:0:0:
256,192,17076,1,0,0:0:0:0:
256,192,17354,1,8,0:0:0:0:
256,192,17771,1,8,0:0:0:0:
256,192,18188,1,8,0:0:0:0:
256,192,18326,1,8,0:0:0:0:
256,192,18465,1,4,0:0:0:0:
256,192,18882,1,8,0:0:0:0:
256,192,19577,1,8,0:0:0:0:
256,192,19994,1,8,0:0:0:0:
256,192,20688,1,0,0:0:0:0:
256,192,21105,1,8,0:0:0:0:
256,192,21799,1,8,0:0:0:0:
256,192,22216,1,8,0:0:0:0:
256,192,22911,1,0,0:0:0:0:
256,192,23328,1,8,0:0:0:0:
256,192,24022,1,8,0:0:0:0:
256,192,24439,1,8,0:0:0:0:
256,192,25134,1,0,0:0:0:0:
256,192,25550,1,8,0:0:0:0:
256,192,25967,1,0,0:0:0:0:
256,192,26245,1,8,0:0:0:0:
256,192,26662,1,8,0:0:0:0:
256,192,27078,1,0,0:0:0:0:
256,192,27217,1,0,0:0:0:0:
256,192,27356,1,8,0:0:0:0:
256,192,27773,1,0,0:0:0:0:
256,192,28190,1,8,0:0:0:0:
256,192,28746,1,8,0:0:0:0:
256,192,29023,1,8,0:0:0:0:
256,192,29579,1,8,0:0:0:0:
256,192,29996,1,8,0:0:0:0:
256,192,30413,1,0,0:0:0:0:
256,192,30968,1,8,0:0:0:0:
256,192,31246,1,8,0:0:0:0:
256,192,31802,1,8,0:0:0:0:
256,192,32219,1,0,0:0:0:0:
256,192,32635,1,8,0:0:0:0:
256,192,33191,1,8,0:0:0:0:
256,192,33469,1,8,0:0:0:0:
256,192,34025,1,8,0:0:0:0:
256,192,34441,1,8,0:0:0:0:
256,192,34858,1,0,0:0:0:0:
256,192,35136,1,8,0:0:0:0:
256,192,35553,1,8,0:0:0:0:
256,192,35969,1,8,0:0:0:0:
256,192,36247,1,4,0:0:0:0:
256,192,36664,1,0,0:0:0:0:
256,192,37081,1,0,0:0:0:0:
256,192,37498,1,0,0:0:0:0:
256,192,37914,1,8,0:0:0:0:
256,192,38470,1,8,0:0:0:0:
256,192,38748,1,8,0:0:0:0:
256,192,39026,1,8,0:0:0:0:
256,192,39581,1,0,0:0:0:0:
256,192,39859,1,0,0:0:0:0:
256,192,40137,1,8,0:0:0:0:
256,192,40415,1,8,0:0:0:0:
256,192,40693,1,0,0:0:0:0:
256,192,41110,1,0,0:0:0:0:
256,192,41526,1,0,0:0:0:0:
256,192,41943,1,0,0:0:0:0:
256,192,42360,1,8,0:0:0:0:
256,192,42638,1,0,0:0:0:0:
256,192,42915,1,8,0:0:0:0:
256,192,43471,1,8,0:0:0:0:
256,192,44027,1,0,0:0:0:0:
256,192,44583,1,8,0:0:0:0:
256,192,44860,1,0,0:0:0:0:
256,192,45138,1,0,0:0:0:0:
256,192,45555,1,0,0:0:0:0:
256,192,45972,1,0,0:0:0:0:
256,192,46250,1,8,0:0:0:0:
256,192,46527,1,8,0:0:0:0:
256,192,46805,1,0,0:0:0:0:
256,192,47083,1,0,0:0:0:0:
256,192,47361,1,8,0:0:0:0:
256,192,47917,1,0,0:0:0:0:
256,192,48472,1,8,0:0:0:0:
256,192,48750,1,8,0:0:0:0:
256,192,49028,1,0,0:0:0:0:
256,192,49306,1,0,0:0:0:0:
256,192,49584,1,8,0:0:0:0:
256,192,50000,1,8,0:0:0:0:
256,192,50417,1,8,0:0:0:0:
256,192,50834,1,8,0:0:0:0:
256,192,51251,1,8,0:0:0:0:
256,192,51529,1,8,0:0:0:0:
256,192,51806,1,8,0:0:0:0:
256,192,52223,1,0,0:0:0:0:
256,192,52640,1,8,0:0:0:0:
256,192,52918,1,0,0:0:0:0:
256,192,53335,1,0,0:0:0:0:
256,192,53473,1,8,0:0:0:0:
256,192,53751,1,8,0:0:0:0:
256,192,53890,1,8,0:0:0:0:
256,192,54029,1,0,0:0:0:0:
256,192,54585,1,8,0:0:0:0:
256,192,54863,1,0,0:0:0:0:
256,192,55141,1,8,0:0:0:0:
256,192,55418,1,8,0:0:0:0:
256,192,55696,1,0,0:0:0:0:
256,192,56252,1,0,0:0:0:0:
256,192,56530,1,0,0:0:0:0:
256,192,56808,1,8,0:0:0:0:
256,192,57085,1,0,0:0:0:0:
256,192,57363,1,8,0:0:0:0:
256,192,57641,1,8,0:0:0:0:
256,192,57919,1,0,0:0:0:0:
256,192,58197,1,8,0:0:0:0:
256,192,58336,1,8,0:0:0:0:
256,192,58475,1,0,0:0:0:0:
256,192,59030,1,8,0:0:0:0:
256,192,59308,1,8,0:0:0:0:
256,192,59586,1,0,0:0:0:0:
256,192,59864,1,8,0:0:0:0:
256,192,60142,1,8,0:0:0:0:
256,192,60697,1,8,0:0:0:0:
256,192,60975,1,8,0:0:0:0:
256,192,61253,1,0,0:0:0:0:
256,192,61531,1,8,0:0:0:0:
256,192,61809,1,0,0:0:0:0:
256,192,62087,1,8,0:0:0:0:
256,192,62364,1,8,0:0:0:0:
256,192,62920,1,0,0:0:0:0:
256,192,63198,1,8,0:0:0:0:
256,192,63754,1,8,0:0:0:0:
256,192,64031,1,0,0:0:0:0:
256,192,64309,1,8,0:0:0:0:
256,192,64865,1,8,0:0:0:0:
256,192,65143,1,0,0:0:0:0:
256,192,65421,1,8,0:0:0:0:
256,192,65699,1,0,0:0:0:0:
256,192,65837,1,0,0:0:0:0:
256,192,65976,1,8,0:0:0:0:
256,192,66254,1,0,0:0:0:0:
256,192,66532,1,8,0:0:0:0:
256,192,66671,1,8,0:0:0:0:
256,192,66810,1,0,0:0:0:0:
256,192,67088,1,8,0:0:0:0:
256,192,67366,1,0,0:0:0:0:
256,192,67921,1,8,0:0:0:0:
256,192,68199,1,8,0:0:0:0:
256,192,68338,1,0,0:0:0:0:
256,192,68477,1,0,0:0:0:0:
256,192,68755,1,8,0:0:0:0:
256,192,69033,1,0,0:0:0:0:
256,192,69310,1,8,0:0:0:0:
256,192,69588,1,0,0:0:0:0:
256,192,69866,1,8,0:0:0:0:
256,192,70005,1,0,0:0:0:0:
256,192,70144,1,8,0:0:0:0:
256,192,70422,1,0,0:0:0:0:
256,192,70700,1,8,0:0:0:0:
256,192,71811,1,12,0:0:0:0:
256,192,72089,1,0,0:0:0:0:
256,192,72367,1,8,0:0:0:0:
256,192,72645,1,0,0:0:0:0:
256,192,72784,1,0,0:0:0:0:
256,192,72922,1,8,0:0:0:0:
256,192,73200,1,0,0:0:0:0:
256,192,73478,1,8,0:0:0:0:
256,192,74034,1,8,0:0:0:0:
256,192,74312,1,8,0:0:0:0:
256,192,74589,1,0,0:0:0:0:
256,192,74867,1,0,0:0:0:0:
256,192,75006,1,0,0:0:0:0:
256,192,75145,1,8,0:0:0:0:
256,192,75423,1,8,0:0:0:0:
256,192,75701,1,0,0:0:0:0:
256,192,76257,1,0,0:0:0:0:
256,192,76534,1,0,0:0:0:0:
256,192,76812,1,0,0:0:0:0:
256,192,77090,1,0,0:0:0:0:
256,192,77229,1,0,0:0:0:0:
256,192,77368,1,8,0:0:0:0:
256,192,77646,1,8,0:0:0:0:
256,192,77924,1,8,0:0:0:0:
256,192,78479,1,0,0:0:0:0:
256,192,78757,1,0,0:0:0:0:
256,192,78896,1,0,0:0:0:0:
256,192,79035,1,8,0:0:0:0:
256,192,79313,1,8,0:0:0:0:
256,192,79591,1,8,0:0:0:0:
256,192,80007,1,8,0:0:0:0:
256,192,80424,1,8,0:0:0:0:
256,192,80702,1,0,0:0:0:0:
256,192,80980,1,8,0:0:0:0:
256,192,81258,1,8,0:0:0:0:
256,192,81536,1,8,0:0:0:0:
256,192,81674,1,8,0:0:0:0:
256,192,81813,1,0,0:0:0:0:
256,192,82091,1,0,0:0:0:0:
256,192,82369,1,8,0:0:0:0:
256,192,82925,1,0,0:0:0:0:
256,192,83203,1,0,0:0:0:0:
256,192,83480,1,8,0:0:0:0:
256,192,83758,1,0,0:0:0:0:
256,192,83897,1,8,0:0:0:0:
256,192,84036,1,0,0:0:0:0:
256,192,84314,1,8,0:0:0:0:
256,192,84592,1,0,0:0:0:0:
256,192,85147,1,8,0:0:0:0:
256,192,85425,1,8,0:0:0:0:
256,192,85703,1,8,0:0:0:0:
256,192,85981,1,0,0:0:0:0:
256,192,86259,1,8,0:0:0:0:
256,192,86537,1,8,0:0:0:0:
256,192,86815,1,0,0:0:0:0:
256,192,87092,1,8,0:0:0:0:
256,192,87370,1,0,0:0:0:0:
256,192,87648,1,0,0:0:0:0:
256,192,87926,1,8,0:0:0:0:
256,192,88204,1,0,0:0:0:0:
256,192,88343,1,0,0:0:0:0:
256,192,88482,1,8,0:0:0:0:
256,192,88759,1,0,0:0:0:0:
256,192,88898,1,8,0:0:0:0:
256,192,89176,1,0,0:0:0:0:
256,192,89315,1,8,0:0:0:0:
256,192,89593,1,0,0:0:0:0:
256,192,90704,1,8,0:0:0:0:
256,192,91121,1,8,0:0:0:0:
256,192,91538,1,8,0:0:0:0:
256,192,91816,1,4,0:0:0:0:
256,192,92232,1,8,0:0:0:0:
256,192,92927,1,8,0:0:0:0:
256,192,93344,1,8,0:0:0:0:
256,192,94038,1,0,0:0:0:0:
256,192,94455,1,8,0:0:0:0:
256,192,94872,1,0,0:0:0:0:
256,192,95150,1,8,0:0:0:0:
256,192,95567,1,8,0:0:0:0:
256,192,96261,1,8,0:0:0:0:
256,192,96678,1,0,0:0:0:0:
256,192,97373,1,8,0:0:0:0:
256,192,97789,1,8,0:0:0:0:
256,192,98484,1,8,0:0:0:0:
256,192,98901,1,8,0:0:0:0:
256,192,99317,1,0,0:0:0:0:
256,192,99595,1,8,0:0:0:0:
256,192,100012,1,8,0:0:0:0:
256,192,100429,1,8,0:0:0:0:
256,192,100707,1,0,0:0:0:0:
256,192,101123,1,8,0:0:0:0:
256,192,101818,1,8,0:0:0:0:
256,192,102235,1,8,0:0:0:0:
256,192,102929,1,0,0:0:0:0:
256,192,103346,1,8,0:0:0:0:
256,192,103763,1,0,0:0:0:0:
256,192,104041,1,8,0:0:0:0:
256,192,104458,1,8,0:0:0:0:
256,192,105152,1,8,0:0:0:0:
256,192,105569,1,0,0:0:0:0:
256,192,106263,1,8,0:0:0:0:
256,192,106680,1,8,0:0:0:0:
256,192,107375,1,8,0:0:0:0:
256,192,107792,1,0,0:0:0:0:
256,192,108208,1,0,0:0:0:0:
256,192,108486,1,8,0:0:0:0:
256,192,108903,1,8,0:0:0:0:
256,192,109320,1,8,0:0:0:0:
256,192,109598,1,0,0:0:0:0:
256,192,110014,1,8,0:0:0:0:
256,192,110431,1,0,0:0:0:0:
256,192,110709,1,8,0:0:0:0:
256,192,111126,1,8,0:0:0:0:
256,192,111820,1,0,0:0:0:0:
256,192,112237,1,8,0:0:0:0:
256,192,112654,1,0,0:0:0:0:
256,192,112932,1,8,0:0:0:0:
256,192,113348,1,8,0:0:0:0:
256,192,114043,1,0,0:0:0:0:
256,192,114460,1,8,0:0:0:0:
256,192,114877,1,0,0:0:0:0:
256,192,115154,1,8,0:0:0:0:
256,192,115571,1,8,0:0:0:0:
256,192,116266,1,8,0:0:0:0:
256,192,116683,1,0,0:0:0:0:
256,192,117099,1,8,0:0:0:0:
256,192,117377,1,8,0:0:0:0:
256,192,117794,1,8,0:0:0:0:
256,192,118211,1,8,0:0:0:0:
256,192,118489,1,0,0:0:0:0:
256,192,118905,1,8,0:0:0:0:
256,192,119600,1,8,0:0:0:0:
256,192,120017,1,8,0:0:0:0:
256,192,120711,1,0,0:0:0:0:
256,192,121128,1,8,0:0:0:0:
256,192,121545,1,0,0:0:0:0:
256,192,121823,1,8,0:0:0:0:
256,192,122239,1,8,0:0:0:0:
256,192,122934,1,8,0:0:0:0:
256,192,123351,1,8,0:0:0:0:
256,192,123768,1,0,0:0:0:0:
256,192,124045,1,8,0:0:0:0:
256,192,124462,1,8,0:0:0:0:
256,192,125157,1,8,0:0:0:0:
256,192,125574,1,8,0:0:0:0:
256,192,125990,1,8,0:0:0:0:
256,192,126268,1,8,0:0:0:0:
256,192,126685,1,8,0:0:0:0:
256,192,127102,1,8,0:0:0:0:
256,192,127379,1,4,0:0:0:0:
256,192,128491,1,8,0:0:0:0:
256,192,129602,1,4,0:0:0:0:
256,192,130714,1,8,0:0:0:0:
256,192,131825,1,4,0:0:0:0:
256,192,132936,1,8,0:0:0:0:
256,192,133214,1,8,0:0:0:0:
256,192,133492,1,8,0:0:0:0:
256,192,133770,1,8,0:0:0:0:
256,192,134048,1,0,0:0:0:0:
256,192,134464,1,8,0:0:0:0:
256,192,134881,1,0,0:0:0:0:
256,192,135159,1,8,0:0:0:0:
256,192,135615,1,8,0:0:0:0:
256,192,135957,1,8,0:0:0:0:
256,192,136144,1,0,0:0:0:0:
256,192,136622,1,4,0:0:0:0:
256,192,136922,12,0,138722,0:0:0:0:
