osu file format v14

[General]
AudioFilename: audio.mp3
AudioLeadIn: 0
PreviewTime: -1
Countdown: 1
SampleSet: Normal
StackLeniency: 0.7
Mode: 3
LetterboxInBreaks: 0
SpecialStyle: 1
WidescreenStoryboard: 0

[Editor]
DistanceSpacing: 0.8
BeatDivisor: 3
GridSize: 8
TimelineZoom: 1

[Metadata]
Title:Blue Dragon
TitleUnicode:Blue Dragon
Artist:S.S.H.
ArtistUnicode:S.S.H.
Creator:HybridLiam
Version:Challenge
Source:
Tags:Rock, Metal, Power, Speed, Guitar, Solo, Organ
BeatmapID:1286911
BeatmapSetID:609378

[Difficulty]
HPDrainRate:7
CircleSize:4
OverallDifficulty:7
ApproachRate:5
SliderMultiplier:1.4
SliderTickRate:1

[Events]
//Background and Video events
0,0,"bg.jpg",0,0
//Break Periods
//Storyboard Layer 0 (Background)
//Storyboard Layer 1 (Fail)
//Storyboard Layer 2 (Pass)
//Storyboard Layer 3 (Foreground)
//Storyboard Sound Samples

[TimingPoints]
654,275.232291685764,4,1,0,41,1,0

[HitObjects]
448,192,378,128,0,654:0:0:0:0:
320,192,654,1,0,0:0:0:0:
320,192,791,1,0,0:0:0:0:
448,192,929,1,0,0:0:0:0:
320,192,1066,1,0,0:0:0:0:
320,192,1204,1,0,0:0:0:0:
320,192,1342,1,0,0:0:0:0:
448,192,1342,1,0,0:0:0:0:
448,192,1479,1,0,0:0:0:0:
448,192,1617,1,0,0:0:0:0:
320,192,1754,1,0,0:0:0:0:
448,192,1892,1,0,0:0:0:0:
448,192,2030,1,0,0:0:0:0:
320,192,2167,1,0,0:0:0:0:
448,192,2167,1,0,0:0:0:0:
320,192,2305,1,0,0:0:0:0:
320,192,2443,1,0,0:0:0:0:
448,192,2580,128,0,2855:0:0:0:0:
320,192,2855,1,0,0:0:0:0:
320,192,2993,1,0,0:0:0:0:
448,192,3131,1,0,0:0:0:0:
320,192,3268,1,0,0:0:0:0:
320,192,3406,1,0,0:0:0:0:
448,192,3543,1,0,0:0:0:0:
448,192,3681,1,0,0:0:0:0:
448,192,3819,1,0,0:0:0:0:
320,192,3956,1,0,0:0:0:0:
320,192,4094,1,0,0:0:0:0:
320,192,4232,1,0,0:0:0:0:
320,192,4369,1,0,0:0:0:0:
448,192,4369,1,0,0:0:0:0:
192,192,4507,1,0,0:0:0:0:
64,192,4507,1,0,0:0:0:0:
192,192,4644,1,0,0:0:0:0:
64,192,4644,1,0,0:0:0:0:
64,192,4782,1,0,0:0:0:0:
192,192,4782,1,0,0:0:0:0:
192,192,4920,1,0,0:0:0:0:
64,192,4920,1,0,0:0:0:0:
320,192,5057,1,0,0:0:0:0:
320,192,5195,1,0,0:0:0:0:
448,192,5332,1,0,0:0:0:0:
320,192,5470,1,0,0:0:0:0:
320,192,5608,1,0,0:0:0:0:
448,192,5745,1,0,0:0:0:0:
320,192,5745,1,0,0:0:0:0:
448,192,5883,1,0,0:0:0:0:
448,192,6021,1,0,0:0:0:0:
320,192,6158,1,0,0:0:0:0:
448,192,6296,1,0,0:0:0:0:
448,192,6433,1,0,0:0:0:0:
448,192,6571,1,0,0:0:0:0:
320,192,6571,1,0,0:0:0:0:
320,192,6709,1,0,0:0:0:0:
320,192,6846,1,0,0:0:0:0:
448,192,6984,128,0,7259:0:0:0:0:
320,192,7259,1,0,0:0:0:0:
320,192,7397,1,0,0:0:0:0:
448,192,7534,1,0,0:0:0:0:
320,192,7534,1,0,0:0:0:0:
448,192,7672,1,0,0:0:0:0:
448,192,7810,1,0,0:0:0:0:
320,192,7947,1,0,0:0:0:0:
448,192,7947,1,0,0:0:0:0:
320,192,8085,1,0,0:0:0:0:
320,192,8222,1,0,0:0:0:0:
320,192,8360,1,0,0:0:0:0:
448,192,8360,1,0,0:0:0:0:
192,192,8429,1,0,0:0:0:0:
64,192,8498,1,0,0:0:0:0:
192,192,8635,1,0,0:0:0:0:
320,192,8635,1,0,0:0:0:0:
448,192,8635,1,0,0:0:0:0:
64,192,8773,1,0,0:0:0:0:
448,192,8773,1,0,0:0:0:0:
192,192,8910,1,0,0:0:0:0:
320,192,8910,1,0,0:0:0:0:
320,192,9048,1,0,0:0:0:0:
448,192,9048,1,0,0:0:0:0:
64,192,9186,1,0,0:0:0:0:
192,192,9186,1,0,0:0:0:0:
192,192,9323,1,0,0:0:0:0:
320,192,9323,1,0,0:0:0:0:
448,192,9323,1,0,0:0:0:0:
320,192,9461,1,0,0:0:0:0:
320,192,9599,1,0,0:0:0:0:
448,192,9736,1,0,0:0:0:0:
320,192,9874,1,0,0:0:0:0:
320,192,10011,1,0,0:0:0:0:
320,192,10149,1,0,0:0:0:0:
448,192,10149,1,0,0:0:0:0:
448,192,10287,1,0,0:0:0:0:
448,192,10424,1,0,0:0:0:0:
320,192,10562,1,0,0:0:0:0:
448,192,10699,1,0,0:0:0:0:
448,192,10837,1,0,0:0:0:0:
320,192,10975,1,0,0:0:0:0:
448,192,10975,1,0,0:0:0:0:
320,192,11112,1,0,0:0:0:0:
320,192,11250,1,0,0:0:0:0:
448,192,11388,128,0,11663:0:0:0:0:
320,192,11663,1,0,0:0:0:0:
320,192,11800,1,0,0:0:0:0:
448,192,11938,1,0,0:0:0:0:
320,192,12076,1,0,0:0:0:0:
320,192,12213,1,0,0:0:0:0:
448,192,12351,1,0,0:0:0:0:
448,192,12488,1,0,0:0:0:0:
448,192,12626,1,0,0:0:0:0:
320,192,12764,1,0,0:0:0:0:
320,192,12901,1,0,0:0:0:0:
320,192,13039,1,0,0:0:0:0:
320,192,13177,1,0,0:0:0:0:
448,192,13177,1,0,0:0:0:0:
192,192,13314,1,0,0:0:0:0:
64,192,13314,1,0,0:0:0:0:
192,192,13452,1,0,0:0:0:0:
64,192,13452,1,0,0:0:0:0:
64,192,13589,1,0,0:0:0:0:
192,192,13589,1,0,0:0:0:0:
192,192,13727,1,0,0:0:0:0:
64,192,13727,1,0,0:0:0:0:
320,192,13865,1,0,0:0:0:0:
320,192,14002,1,0,0:0:0:0:
448,192,14140,1,0,0:0:0:0:
320,192,14277,1,0,0:0:0:0:
320,192,14415,1,0,0:0:0:0:
448,192,14553,1,0,0:0:0:0:
320,192,14553,1,0,0:0:0:0:
448,192,14690,1,0,0:0:0:0:
448,192,14828,1,0,0:0:0:0:
320,192,14966,1,0,0:0:0:0:
448,192,15103,1,0,0:0:0:0:
448,192,15241,1,0,0:0:0:0:
448,192,15378,1,0,0:0:0:0:
320,192,15378,1,0,0:0:0:0:
320,192,15516,1,0,0:0:0:0:
320,192,15654,1,0,0:0:0:0:
448,192,15791,128,0,16067:0:0:0:0:
320,192,16067,1,0,0:0:0:0:
320,192,16204,1,0,0:0:0:0:
448,192,16342,1,0,0:0:0:0:
320,192,16342,1,0,0:0:0:0:
448,192,16479,1,0,0:0:0:0:
448,192,16617,1,0,0:0:0:0:
320,192,16755,1,0,0:0:0:0:
448,192,16755,1,0,0:0:0:0:
320,192,16892,1,0,0:0:0:0:
320,192,17030,1,0,0:0:0:0:
320,192,17167,1,0,0:0:0:0:
448,192,17167,1,0,0:0:0:0:
192,192,17236,1,0,0:0:0:0:
64,192,17305,1,0,0:0:0:0:
192,192,17443,1,0,0:0:0:0:
320,192,17443,1,0,0:0:0:0:
448,192,17443,1,0,0:0:0:0:
64,192,17580,1,0,0:0:0:0:
448,192,17580,1,0,0:0:0:0:
192,192,17718,1,0,0:0:0:0:
320,192,17718,1,0,0:0:0:0:
320,192,17856,1,0,0:0:0:0:
448,192,17856,1,0,0:0:0:0:
64,192,17993,1,0,0:0:0:0:
192,192,17993,1,0,0:0:0:0:
192,192,18131,1,0,0:0:0:0:
320,192,18131,1,0,0:0:0:0:
448,192,18131,1,0,0:0:0:0:
64,192,18268,1,0,0:0:0:0:
192,192,18268,1,0,0:0:0:0:
64,192,18406,1,0,0:0:0:0:
320,192,18544,1,0,0:0:0:0:
448,192,18544,128,0,18681:0:0:0:0:
64,192,18681,1,0,0:0:0:0:
192,192,18681,1,0,0:0:0:0:
64,192,18819,1,0,0:0:0:0:
192,192,18956,1,0,0:0:0:0:
320,192,18956,128,0,19094:0:0:0:0:
64,192,19094,1,0,0:0:0:0:
448,192,19094,1,0,0:0:0:0:
64,192,19232,1,0,0:0:0:0:
64,192,19369,1,0,0:0:0:0:
192,192,19369,128,0,19507:0:0:0:0:
64,192,19507,1,0,0:0:0:0:
64,192,19645,1,0,0:0:0:0:
448,192,19645,1,0,0:0:0:0:
192,192,19782,1,0,0:0:0:0:
320,192,19782,128,0,19920:0:0:0:0:
64,192,19920,1,0,0:0:0:0:
64,192,20057,1,0,0:0:0:0:
320,192,20057,1,0,0:0:0:0:
64,192,20195,1,0,0:0:0:0:
192,192,20195,128,0,20470:0:0:0:0:
64,192,20470,1,0,0:0:0:0:
64,192,20608,1,0,0:0:0:0:
320,192,20745,1,0,0:0:0:0:
448,192,20745,128,0,20883:0:0:0:0:
64,192,20883,1,0,0:0:0:0:
192,192,20883,1,0,0:0:0:0:
64,192,21021,1,0,0:0:0:0:
192,192,21158,1,0,0:0:0:0:
320,192,21158,128,0,21296:0:0:0:0:
64,192,21296,1,0,0:0:0:0:
448,192,21296,1,0,0:0:0:0:
64,192,21434,1,0,0:0:0:0:
64,192,21571,1,0,0:0:0:0:
192,192,21571,1,0,0:0:0:0:
320,192,21640,1,0,0:0:0:0:
64,192,21709,1,0,0:0:0:0:
448,192,21709,1,0,0:0:0:0:
320,192,21846,1,0,0:0:0:0:
64,192,21846,128,0,21984:0:0:0:0:
448,192,21984,1,0,0:0:0:0:
192,192,21984,128,0,22122:0:0:0:0:
320,192,22122,1,0,0:0:0:0:
64,192,22122,128,0,22259:0:0:0:0:
320,192,22259,128,0,22397:0:0:0:0:
448,192,22259,1,0,0:0:0:0:
64,192,22397,1,0,0:0:0:0:
192,192,22397,128,0,22534:0:0:0:0:
320,192,22534,1,0,0:0:0:0:
448,192,22534,128,0,22672:0:0:0:0:
64,192,22672,1,0,0:0:0:0:
64,192,22810,1,0,0:0:0:0:
320,192,22947,1,0,0:0:0:0:
448,192,22947,128,0,23085:0:0:0:0:
192,192,23085,1,0,0:0:0:0:
64,192,23085,1,0,0:0:0:0:
64,192,23223,1,0,0:0:0:0:
192,192,23360,1,0,0:0:0:0:
320,192,23360,128,0,23498:0:0:0:0:
448,192,23498,1,0,0:0:0:0:
64,192,23498,1,0,0:0:0:0:
64,192,23635,1,0,0:0:0:0:
64,192,23773,1,0,0:0:0:0:
192,192,23773,128,0,23911:0:0:0:0:
64,192,23911,1,0,0:0:0:0:
448,192,24048,1,0,0:0:0:0:
64,192,24048,1,0,0:0:0:0:
192,192,24186,1,0,0:0:0:0:
320,192,24186,128,0,24323:0:0:0:0:
64,192,24323,1,0,0:0:0:0:
320,192,24461,1,0,0:0:0:0:
64,192,24461,1,0,0:0:0:0:
192,192,24599,128,0,24874:0:0:0:0:
64,192,24599,1,0,0:0:0:0:
64,192,24874,1,0,0:0:0:0:
64,192,25012,1,0,0:0:0:0:
320,192,25149,1,0,0:0:0:0:
448,192,25149,128,0,25287:0:0:0:0:
64,192,25287,1,0,0:0:0:0:
192,192,25287,1,0,0:0:0:0:
64,192,25424,1,0,0:0:0:0:
192,192,25562,1,0,0:0:0:0:
320,192,25562,128,0,25700:0:0:0:0:
64,192,25700,1,0,0:0:0:0:
448,192,25700,1,0,0:0:0:0:
64,192,25837,1,0,0:0:0:0:
64,192,25975,1,0,0:0:0:0:
192,192,25975,1,0,0:0:0:0:
64,192,26112,1,0,0:0:0:0:
320,192,26112,1,0,0:0:0:0:
64,192,26250,1,0,0:0:0:0:
448,192,26250,1,0,0:0:0:0:
192,192,26388,1,0,0:0:0:0:
320,192,26388,1,0,0:0:0:0:
64,192,26388,1,0,0:0:0:0:
320,192,26525,1,0,0:0:0:0:
448,192,26525,1,0,0:0:0:0:
320,192,26617,1,0,0:0:0:0:
448,192,26617,1,0,0:0:0:0:
64,192,26617,1,0,0:0:0:0:
320,192,26709,1,0,0:0:0:0:
448,192,26709,1,0,0:0:0:0:
192,192,26801,1,0,0:0:0:0:
64,192,26801,1,0,0:0:0:0:
64,192,26892,1,0,0:0:0:0:
192,192,26892,1,0,0:0:0:0:
448,192,26892,1,0,0:0:0:0:
192,192,26984,1,0,0:0:0:0:
64,192,26984,1,0,0:0:0:0:
320,192,27076,1,0,0:0:0:0:
448,192,27076,1,0,0:0:0:0:
192,192,27213,1,0,0:0:0:0:
64,192,27213,1,0,0:0:0:0:
448,192,27351,128,0,27489:0:0:0:0:
320,192,27351,128,0,27489:0:0:0:0:
192,192,27489,1,0,0:0:0:0:
64,192,27489,1,0,0:0:0:0:
192,192,27626,128,0,27764:0:0:0:0:
64,192,27626,128,0,27764:0:0:0:0:
320,192,27764,1,0,0:0:0:0:
448,192,27764,1,0,0:0:0:0:
192,192,27901,1,0,0:0:0:0:
64,192,27901,1,0,0:0:0:0:
192,192,28039,1,0,0:0:0:0:
320,192,28039,1,0,0:0:0:0:
320,192,28177,128,0,28314:0:0:0:0:
448,192,28177,128,0,28314:0:0:0:0:
192,192,28314,1,0,0:0:0:0:
64,192,28314,1,0,0:0:0:0:
320,192,28452,1,0,0:0:0:0:
448,192,28452,1,0,0:0:0:0:
192,192,28590,128,0,28727:0:0:0:0:
64,192,28590,128,0,28727:0:0:0:0:
320,192,28727,1,0,0:0:0:0:
448,192,28727,1,0,0:0:0:0:
192,192,28865,1,0,0:0:0:0:
64,192,28865,1,0,0:0:0:0:
320,192,29002,128,0,29140:0:0:0:0:
448,192,29002,128,0,29140:0:0:0:0:
192,192,29140,1,0,0:0:0:0:
64,192,29140,1,0,0:0:0:0:
320,192,29278,1,0,0:0:0:0:
448,192,29278,1,0,0:0:0:0:
192,192,29415,1,0,0:0:0:0:
64,192,29415,1,0,0:0:0:0:
448,192,29553,128,0,29691:0:0:0:0:
320,192,29553,128,0,29691:0:0:0:0:
192,192,29691,1,0,0:0:0:0:
64,192,29691,1,0,0:0:0:0:
192,192,29828,128,0,29966:0:0:0:0:
64,192,29828,128,0,29966:0:0:0:0:
320,192,29966,1,0,0:0:0:0:
448,192,29966,1,0,0:0:0:0:
64,192,30103,1,0,0:0:0:0:
192,192,30172,1,0,0:0:0:0:
320,192,30241,1,0,0:0:0:0:
448,192,30310,1,0,0:0:0:0:
64,192,30379,1,0,0:0:0:0:
192,192,30447,1,0,0:0:0:0:
320,192,30516,1,0,0:0:0:0:
448,192,30585,1,0,0:0:0:0:
64,192,30654,128,0,30791:0:0:0:0:
320,192,30654,1,0,0:0:0:0:
192,192,30791,128,0,30929:0:0:0:0:
448,192,30791,1,0,0:0:0:0:
448,192,30929,128,0,31067:0:0:0:0:
320,192,30929,1,0,0:0:0:0:
64,192,31067,1,0,0:0:0:0:
192,192,31067,128,0,31204:0:0:0:0:
320,192,31204,128,0,31342:0:0:0:0:
448,192,31204,1,0,0:0:0:0:
64,192,31342,128,0,31480:0:0:0:0:
192,192,31342,1,0,0:0:0:0:
320,192,31480,1,0,0:0:0:0:
448,192,31480,1,0,0:0:0:0:
192,192,31617,1,0,0:0:0:0:
64,192,31617,1,0,0:0:0:0:
448,192,31755,128,0,31892:0:0:0:0:
320,192,31755,128,0,31892:0:0:0:0:
192,192,31892,1,0,0:0:0:0:
64,192,31892,1,0,0:0:0:0:
192,192,32030,128,0,32168:0:0:0:0:
64,192,32030,128,0,32168:0:0:0:0:
320,192,32168,1,0,0:0:0:0:
448,192,32168,1,0,0:0:0:0:
192,192,32305,1,0,0:0:0:0:
64,192,32305,1,0,0:0:0:0:
192,192,32443,1,0,0:0:0:0:
320,192,32443,1,0,0:0:0:0:
320,192,32580,128,0,32718:0:0:0:0:
448,192,32580,128,0,32718:0:0:0:0:
192,192,32718,1,0,0:0:0:0:
64,192,32718,1,0,0:0:0:0:
320,192,32856,1,0,0:0:0:0:
448,192,32856,1,0,0:0:0:0:
192,192,32993,128,0,33131:0:0:0:0:
64,192,32993,128,0,33131:0:0:0:0:
320,192,33131,1,0,0:0:0:0:
448,192,33131,1,0,0:0:0:0:
192,192,33269,1,0,0:0:0:0:
64,192,33269,1,0,0:0:0:0:
320,192,33406,128,0,33544:0:0:0:0:
448,192,33406,128,0,33544:0:0:0:0:
192,192,33544,1,0,0:0:0:0:
64,192,33544,1,0,0:0:0:0:
320,192,33681,1,0,0:0:0:0:
448,192,33681,1,0,0:0:0:0:
192,192,33819,1,0,0:0:0:0:
64,192,33819,1,0,0:0:0:0:
448,192,33957,128,0,34094:0:0:0:0:
320,192,33957,128,0,34094:0:0:0:0:
192,192,34094,1,0,0:0:0:0:
64,192,34094,1,0,0:0:0:0:
192,192,34232,128,0,34369:0:0:0:0:
64,192,34232,128,0,34369:0:0:0:0:
320,192,34369,1,0,0:0:0:0:
448,192,34369,1,0,0:0:0:0:
64,192,34507,1,0,0:0:0:0:
192,192,34553,1,0,0:0:0:0:
320,192,34599,1,0,0:0:0:0:
448,192,34645,1,0,0:0:0:0:
64,192,34691,1,0,0:0:0:0:
192,192,34736,1,0,0:0:0:0:
320,192,34782,1,0,0:0:0:0:
448,192,34828,1,0,0:0:0:0:
320,192,34874,1,0,0:0:0:0:
192,192,34920,1,0,0:0:0:0:
64,192,34966,1,0,0:0:0:0:
192,192,35012,1,0,0:0:0:0:
320,192,35058,1,0,0:0:0:0:
448,192,35103,1,0,0:0:0:0:
320,192,35149,1,0,0:0:0:0:
192,192,35195,1,0,0:0:0:0:
64,192,35241,1,0,0:0:0:0:
192,192,35287,1,0,0:0:0:0:
320,192,35333,1,0,0:0:0:0:
448,192,35379,128,0,35791:0:0:0:0:
64,192,35402,1,0,0:0:0:0:
320,192,35470,1,0,0:0:0:0:
64,192,35539,1,0,0:0:0:0:
192,192,35608,1,0,0:0:0:0:
320,192,35677,1,0,0:0:0:0:
192,192,35746,1,0,0:0:0:0:
320,192,35814,1,0,0:0:0:0:
64,192,35883,1,0,0:0:0:0:
448,192,35883,1,0,0:0:0:0:
64,192,36021,1,0,0:0:0:0:
448,192,36021,1,0,0:0:0:0:
64,192,36158,1,0,0:0:0:0:
448,192,36158,1,0,0:0:0:0:
64,192,36296,1,0,0:0:0:0:
448,192,36296,1,0,0:0:0:0:
64,192,36434,1,0,0:0:0:0:
320,192,36434,1,0,0:0:0:0:
448,192,36434,1,0,0:0:0:0:
320,192,36984,1,0,0:0:0:0:
448,192,36984,1,0,0:0:0:0:
64,192,36984,1,0,0:0:0:0:
192,192,37122,1,0,0:0:0:0:
320,192,37122,1,0,0:0:0:0:
64,192,37259,1,0,0:0:0:0:
192,192,37259,1,0,0:0:0:0:
320,192,37397,1,0,0:0:0:0:
448,192,37397,1,0,0:0:0:0:
192,192,37535,1,0,0:0:0:0:
320,192,37535,1,0,0:0:0:0:
192,192,37672,1,0,0:0:0:0:
64,192,37672,1,0,0:0:0:0:
64,192,37810,128,0,37993:0:0:0:0:
192,192,37810,128,0,37993:0:0:0:0:
320,192,38085,1,0,0:0:0:0:
448,192,38085,1,0,0:0:0:0:
320,192,38223,1,0,0:0:0:0:
448,192,38223,1,0,0:0:0:0:
320,192,38360,1,0,0:0:0:0:
448,192,38360,1,0,0:0:0:0:
320,192,38498,1,0,0:0:0:0:
448,192,38498,1,0,0:0:0:0:
320,192,38636,1,0,0:0:0:0:
448,192,38636,1,0,0:0:0:0:
192,192,38636,1,0,0:0:0:0:
320,192,39186,1,0,0:0:0:0:
448,192,39186,1,0,0:0:0:0:
192,192,39278,1,0,0:0:0:0:
64,192,39278,1,0,0:0:0:0:
320,192,39370,1,0,0:0:0:0:
448,192,39370,1,0,0:0:0:0:
192,192,39461,1,0,0:0:0:0:
64,192,39461,1,0,0:0:0:0:
192,192,39599,1,0,0:0:0:0:
320,192,39599,1,0,0:0:0:0:
320,192,39736,128,0,40103:0:0:0:0:
448,192,39736,128,0,40103:0:0:0:0:
64,192,39920,1,0,0:0:0:0:
192,192,39920,1,0,0:0:0:0:
192,192,40103,1,0,0:0:0:0:
64,192,40103,1,0,0:0:0:0:
64,192,40287,128,0,41388:0:0:0:0:
320,192,40287,128,0,41388:0:0:0:0:
192,192,40562,1,0,0:0:0:0:
448,192,40562,1,0,0:0:0:0:
448,192,40837,1,0,0:0:0:0:
192,192,40975,1,0,0:0:0:0:
192,192,41113,1,0,0:0:0:0:
448,192,41113,1,0,0:0:0:0:
192,192,41388,1,0,0:0:0:0:
448,192,41388,1,0,0:0:0:0:
192,192,41525,1,0,0:0:0:0:
448,192,41525,1,0,0:0:0:0:
448,192,41663,1,0,0:0:0:0:
64,192,41663,1,0,0:0:0:0:
192,192,41801,1,0,0:0:0:0:
320,192,41801,1,0,0:0:0:0:
320,192,41938,1,0,0:0:0:0:
192,192,41938,1,0,0:0:0:0:
64,192,42076,1,0,0:0:0:0:
320,192,42076,1,0,0:0:0:0:
64,192,42214,1,0,0:0:0:0:
192,192,42214,1,0,0:0:0:0:
448,192,42214,1,0,0:0:0:0:
64,192,42351,1,0,0:0:0:0:
192,192,42489,128,0,43590:0:0:0:0:
448,192,42489,128,0,43590:0:0:0:0:
320,192,42764,1,0,0:0:0:0:
64,192,42764,1,0,0:0:0:0:
64,192,43039,1,0,0:0:0:0:
320,192,43177,1,0,0:0:0:0:
320,192,43315,1,0,0:0:0:0:
64,192,43315,1,0,0:0:0:0:
64,192,43590,1,0,0:0:0:0:
320,192,43590,1,0,0:0:0:0:
64,192,43727,1,0,0:0:0:0:
320,192,43727,1,0,0:0:0:0:
448,192,43865,1,0,0:0:0:0:
64,192,43865,1,0,0:0:0:0:
192,192,44003,1,0,0:0:0:0:
320,192,44003,1,0,0:0:0:0:
320,192,44140,1,0,0:0:0:0:
192,192,44140,1,0,0:0:0:0:
192,192,44278,1,0,0:0:0:0:
448,192,44278,1,0,0:0:0:0:
64,192,44415,1,0,0:0:0:0:
320,192,44415,1,0,0:0:0:0:
448,192,44415,1,0,0:0:0:0:
448,192,44553,1,0,0:0:0:0:
64,192,44691,128,0,45792:0:0:0:0:
320,192,44691,128,0,45792:0:0:0:0:
192,192,44966,1,0,0:0:0:0:
448,192,44966,1,0,0:0:0:0:
448,192,45241,1,0,0:0:0:0:
192,192,45379,1,0,0:0:0:0:
192,192,45516,1,0,0:0:0:0:
448,192,45516,1,0,0:0:0:0:
192,192,45792,5,0,0:0:0:0:
448,192,45792,1,0,0:0:0:0:
192,192,45929,1,0,0:0:0:0:
448,192,45929,1,0,0:0:0:0:
448,192,46067,1,0,0:0:0:0:
64,192,46067,1,0,0:0:0:0:
192,192,46204,1,0,0:0:0:0:
320,192,46204,1,0,0:0:0:0:
320,192,46342,1,0,0:0:0:0:
192,192,46342,1,0,0:0:0:0:
64,192,46480,1,0,0:0:0:0:
320,192,46480,1,0,0:0:0:0:
64,192,46617,1,0,0:0:0:0:
192,192,46617,1,0,0:0:0:0:
448,192,46617,1,0,0:0:0:0:
64,192,46755,1,0,0:0:0:0:
448,192,46893,128,0,47993:0:0:0:0:
320,192,46893,1,0,0:0:0:0:
64,192,47168,1,0,0:0:0:0:
192,192,47168,1,0,0:0:0:0:
64,192,47443,1,0,0:0:0:0:
192,192,47535,1,0,0:0:0:0:
320,192,47626,1,0,0:0:0:0:
64,192,47718,1,0,0:0:0:0:
192,192,47810,1,0,0:0:0:0:
320,192,47902,1,0,0:0:0:0:
64,192,47993,1,0,0:0:0:0:
192,192,47993,1,0,0:0:0:0:
320,192,48131,1,0,0:0:0:0:
192,192,48131,1,0,0:0:0:0:
448,192,48269,1,0,0:0:0:0:
320,192,48269,1,0,0:0:0:0:
64,192,48406,1,0,0:0:0:0:
448,192,48406,1,0,0:0:0:0:
320,192,48544,1,0,0:0:0:0:
448,192,48544,1,0,0:0:0:0:
192,192,48682,1,0,0:0:0:0:
320,192,48682,1,0,0:0:0:0:
64,192,48819,1,0,0:0:0:0:
192,192,48819,1,0,0:0:0:0:
192,192,48957,1,0,0:0:0:0:
64,192,48957,1,0,0:0:0:0:
192,192,49094,1,0,0:0:0:0:
64,192,49163,1,0,0:0:0:0:
192,192,49232,1,0,0:0:0:0:
320,192,49301,1,0,0:0:0:0:
448,192,49370,128,0,50195:0:0:0:0:
320,192,50195,1,0,0:0:0:0:
192,192,50264,1,0,0:0:0:0:
320,192,50333,1,0,0:0:0:0:
192,192,50402,1,0,0:0:0:0:
64,192,50471,1,0,0:0:0:0:
192,192,50539,1,0,0:0:0:0:
320,192,50608,1,0,0:0:0:0:
448,192,50677,128,0,51159:0:0:0:0:
64,192,51159,1,0,0:0:0:0:
192,192,51204,1,0,0:0:0:0:
320,192,51250,1,0,0:0:0:0:
448,192,51296,1,0,0:0:0:0:
320,192,51342,1,0,0:0:0:0:
192,192,51388,1,0,0:0:0:0:
320,192,51434,1,0,0:0:0:0:
192,192,51480,1,0,0:0:0:0:
64,192,51526,1,0,0:0:0:0:
448,192,51571,1,0,0:0:0:0:
320,192,51617,1,0,0:0:0:0:
192,192,51663,1,0,0:0:0:0:
64,192,51709,1,0,0:0:0:0:
192,192,51755,1,0,0:0:0:0:
64,192,51801,1,0,0:0:0:0:
448,192,51847,1,0,0:0:0:0:
320,192,51893,1,0,0:0:0:0:
448,192,51938,1,0,0:0:0:0:
320,192,51984,1,0,0:0:0:0:
192,192,52030,1,0,0:0:0:0:
320,192,52076,1,0,0:0:0:0:
192,192,52122,1,0,0:0:0:0:
64,192,52168,1,0,0:0:0:0:
448,192,52214,1,0,0:0:0:0:
320,192,52260,1,0,0:0:0:0:
192,192,52305,1,0,0:0:0:0:
64,192,52351,1,0,0:0:0:0:
320,192,52397,1,0,0:0:0:0:
448,192,52443,1,0,0:0:0:0:
320,192,52489,1,0,0:0:0:0:
192,192,52535,1,0,0:0:0:0:
64,192,52581,1,0,0:0:0:0:
192,192,52672,1,0,0:0:0:0:
448,192,52718,1,0,0:0:0:0:
320,192,52764,1,0,0:0:0:0:
192,192,52810,1,0,0:0:0:0:
64,192,52856,1,0,0:0:0:0:
320,192,52902,1,0,0:0:0:0:
448,192,52948,1,0,0:0:0:0:
320,192,52994,1,0,0:0:0:0:
192,192,53039,1,0,0:0:0:0:
448,192,53085,1,0,0:0:0:0:
192,192,53131,1,0,0:0:0:0:
64,192,53177,1,0,0:0:0:0:
448,192,53223,1,0,0:0:0:0:
320,192,53269,1,0,0:0:0:0:
64,192,53315,1,0,0:0:0:0:
320,192,53360,1,0,0:0:0:0:
192,192,53406,1,0,0:0:0:0:
64,192,53452,1,0,0:0:0:0:
448,192,53498,128,0,53636:0:0:0:0:
320,192,53636,128,0,53773:0:0:0:0:
192,192,53773,128,0,53911:0:0:0:0:
64,192,53911,128,0,54049:0:0:0:0:
192,192,54049,128,0,55149:0:0:0:0:
448,192,55149,1,0,0:0:0:0:
320,192,55218,1,0,0:0:0:0:
192,192,55287,1,0,0:0:0:0:
64,192,55356,1,0,0:0:0:0:
320,192,55425,1,0,0:0:0:0:
192,192,55494,1,0,0:0:0:0:
64,192,55562,1,0,0:0:0:0:
192,192,55631,1,0,0:0:0:0:
320,192,55700,1,0,0:0:0:0:
448,192,55769,1,0,0:0:0:0:
320,192,55838,1,0,0:0:0:0:
192,192,55906,1,0,0:0:0:0:
320,192,55975,128,0,56801:0:0:0:0:
64,192,56801,1,0,0:0:0:0:
192,192,56801,1,0,0:0:0:0:
64,192,56939,1,0,0:0:0:0:
320,192,56939,1,0,0:0:0:0:
192,192,57076,1,0,0:0:0:0:
320,192,57076,1,0,0:0:0:0:
192,192,57214,1,0,0:0:0:0:
448,192,57214,1,0,0:0:0:0:
64,192,57351,1,0,0:0:0:0:
320,192,57351,1,0,0:0:0:0:
192,192,57489,1,0,0:0:0:0:
320,192,57489,1,0,0:0:0:0:
192,192,57627,1,0,0:0:0:0:
448,192,57627,1,0,0:0:0:0:
320,192,57764,1,0,0:0:0:0:
448,192,57764,1,0,0:0:0:0:
192,192,57902,1,0,0:0:0:0:
320,192,57948,1,0,0:0:0:0:
448,192,57994,1,0,0:0:0:0:
192,192,58039,1,0,0:0:0:0:
320,192,58085,1,0,0:0:0:0:
448,192,58131,1,0,0:0:0:0:
192,192,58177,1,0,0:0:0:0:
320,192,58223,1,0,0:0:0:0:
448,192,58269,1,0,0:0:0:0:
192,192,58315,1,0,0:0:0:0:
320,192,58361,1,0,0:0:0:0:
448,192,58406,1,0,0:0:0:0:
64,192,58452,1,0,0:0:0:0:
320,192,58498,1,0,0:0:0:0:
448,192,58544,1,0,0:0:0:0:
64,192,58590,1,0,0:0:0:0:
320,192,58636,1,0,0:0:0:0:
448,192,58682,1,0,0:0:0:0:
64,192,58728,1,0,0:0:0:0:
320,192,58773,1,0,0:0:0:0:
448,192,58819,1,0,0:0:0:0:
64,192,58865,1,0,0:0:0:0:
320,192,58911,1,0,0:0:0:0:
448,192,58957,1,0,0:0:0:0:
64,192,59003,1,0,0:0:0:0:
192,192,59049,1,0,0:0:0:0:
448,192,59094,1,0,0:0:0:0:
64,192,59140,1,0,0:0:0:0:
192,192,59186,1,0,0:0:0:0:
448,192,59232,1,0,0:0:0:0:
64,192,59278,1,0,0:0:0:0:
192,192,59324,1,0,0:0:0:0:
448,192,59370,1,0,0:0:0:0:
64,192,59416,1,0,0:0:0:0:
192,192,59461,1,0,0:0:0:0:
448,192,59507,1,0,0:0:0:0:
64,192,59553,1,0,0:0:0:0:
192,192,59599,1,0,0:0:0:0:
320,192,59645,1,0,0:0:0:0:
64,192,59691,1,0,0:0:0:0:
192,192,59737,1,0,0:0:0:0:
320,192,59783,1,0,0:0:0:0:
64,192,59828,1,0,0:0:0:0:
192,192,59874,1,0,0:0:0:0:
320,192,59920,1,0,0:0:0:0:
64,192,59966,1,0,0:0:0:0:
192,192,60012,1,0,0:0:0:0:
320,192,60058,1,0,0:0:0:0:
448,192,60104,128,0,60241:0:0:0:0:
320,192,60241,128,0,60379:0:0:0:0:
64,192,60379,128,0,60517:0:0:0:0:
192,192,60517,128,0,60654:0:0:0:0:
320,192,60654,128,0,61205:0:0:0:0:
64,192,61205,1,0,0:0:0:0:
192,192,61205,1,0,0:0:0:0:
64,192,61342,1,0,0:0:0:0:
320,192,61342,1,0,0:0:0:0:
192,192,61480,1,0,0:0:0:0:
320,192,61480,1,0,0:0:0:0:
192,192,61617,1,0,0:0:0:0:
448,192,61617,1,0,0:0:0:0:
320,192,61755,1,0,0:0:0:0:
64,192,61755,1,0,0:0:0:0:
192,192,61893,1,0,0:0:0:0:
320,192,61893,1,0,0:0:0:0:
192,192,62030,1,0,0:0:0:0:
448,192,62030,1,0,0:0:0:0:
320,192,62168,1,0,0:0:0:0:
448,192,62168,1,0,0:0:0:0:
64,192,62306,128,0,63406:0:0:0:0:
192,192,63131,1,0,0:0:0:0:
320,192,63200,1,0,0:0:0:0:
448,192,63269,1,0,0:0:0:0:
192,192,63338,1,0,0:0:0:0:
320,192,63406,128,0,63682:0:0:0:0:
448,192,63544,1,0,0:0:0:0:
192,192,63613,1,0,0:0:0:0:
64,192,63682,1,0,0:0:0:0:
192,192,63751,1,0,0:0:0:0:
320,192,63819,128,0,64095:0:0:0:0:
448,192,63957,1,0,0:0:0:0:
192,192,64026,1,0,0:0:0:0:
64,192,64095,1,0,0:0:0:0:
192,192,64163,1,0,0:0:0:0:
320,192,64232,128,0,64507:0:0:0:0:
448,192,64370,1,0,0:0:0:0:
192,192,64439,1,0,0:0:0:0:
64,192,64507,1,0,0:0:0:0:
192,192,64576,1,0,0:0:0:0:
320,192,64645,128,0,64920:0:0:0:0:
448,192,64783,1,0,0:0:0:0:
192,192,64851,1,0,0:0:0:0:
64,192,64920,1,0,0:0:0:0:
192,192,64989,1,0,0:0:0:0:
320,192,65058,128,0,65608:0:0:0:0:
192,192,65608,1,0,0:0:0:0:
64,192,65608,1,0,0:0:0:0:
64,192,65746,1,0,0:0:0:0:
320,192,65746,1,0,0:0:0:0:
192,192,65884,1,0,0:0:0:0:
320,192,65884,1,0,0:0:0:0:
192,192,66021,1,0,0:0:0:0:
448,192,66021,1,0,0:0:0:0:
64,192,66159,1,0,0:0:0:0:
320,192,66159,1,0,0:0:0:0:
448,192,66159,1,0,0:0:0:0:
192,192,66296,1,0,0:0:0:0:
64,192,66342,1,0,0:0:0:0:
448,192,66342,1,0,0:0:0:0:
320,192,66434,1,0,0:0:0:0:
64,192,66526,1,0,0:0:0:0:
192,192,66526,1,0,0:0:0:0:
448,192,66572,1,0,0:0:0:0:
64,192,66709,1,0,0:0:0:0:
192,192,66709,1,0,0:0:0:0:
64,192,66847,1,0,0:0:0:0:
320,192,66984,1,0,0:0:0:0:
448,192,66984,128,0,67122:0:0:0:0:
64,192,67122,1,0,0:0:0:0:
192,192,67122,1,0,0:0:0:0:
64,192,67260,1,0,0:0:0:0:
192,192,67397,1,0,0:0:0:0:
320,192,67397,128,0,67535:0:0:0:0:
64,192,67535,1,0,0:0:0:0:
448,192,67535,1,0,0:0:0:0:
64,192,67673,1,0,0:0:0:0:
64,192,67810,1,0,0:0:0:0:
192,192,67810,128,0,67948:0:0:0:0:
64,192,67948,1,0,0:0:0:0:
64,192,68085,1,0,0:0:0:0:
448,192,68085,1,0,0:0:0:0:
192,192,68223,1,0,0:0:0:0:
320,192,68223,128,0,68361:0:0:0:0:
64,192,68361,1,0,0:0:0:0:
64,192,68498,1,0,0:0:0:0:
320,192,68498,1,0,0:0:0:0:
64,192,68636,1,0,0:0:0:0:
192,192,68636,128,0,68911:0:0:0:0:
64,192,68911,1,0,0:0:0:0:
64,192,69049,1,0,0:0:0:0:
320,192,69186,1,0,0:0:0:0:
448,192,69186,128,0,69324:0:0:0:0:
64,192,69324,1,0,0:0:0:0:
192,192,69324,1,0,0:0:0:0:
64,192,69462,1,0,0:0:0:0:
192,192,69599,1,0,0:0:0:0:
320,192,69599,128,0,69737:0:0:0:0:
64,192,69737,1,0,0:0:0:0:
448,192,69737,1,0,0:0:0:0:
64,192,69874,1,0,0:0:0:0:
64,192,70012,1,0,0:0:0:0:
192,192,70012,1,0,0:0:0:0:
320,192,70081,1,0,0:0:0:0:
64,192,70150,1,0,0:0:0:0:
448,192,70150,1,0,0:0:0:0:
320,192,70287,1,0,0:0:0:0:
64,192,70287,128,0,70425:0:0:0:0:
448,192,70425,1,0,0:0:0:0:
192,192,70425,128,0,70563:0:0:0:0:
320,192,70563,1,0,0:0:0:0:
64,192,70563,128,0,70700:0:0:0:0:
320,192,70700,128,0,70838:0:0:0:0:
448,192,70700,1,0,0:0:0:0:
64,192,70838,1,0,0:0:0:0:
192,192,70838,128,0,70975:0:0:0:0:
320,192,70975,1,0,0:0:0:0:
448,192,70975,128,0,71113:0:0:0:0:
64,192,71113,1,0,0:0:0:0:
64,192,71251,1,0,0:0:0:0:
320,192,71388,1,0,0:0:0:0:
448,192,71388,128,0,71526:0:0:0:0:
192,192,71526,1,0,0:0:0:0:
64,192,71526,1,0,0:0:0:0:
64,192,71663,1,0,0:0:0:0:
192,192,71801,1,0,0:0:0:0:
320,192,71801,128,0,71939:0:0:0:0:
448,192,71939,1,0,0:0:0:0:
64,192,71939,1,0,0:0:0:0:
64,192,72076,1,0,0:0:0:0:
64,192,72214,1,0,0:0:0:0:
192,192,72214,128,0,72352:0:0:0:0:
64,192,72352,1,0,0:0:0:0:
448,192,72489,1,0,0:0:0:0:
64,192,72489,1,0,0:0:0:0:
192,192,72627,1,0,0:0:0:0:
320,192,72627,128,0,72764:0:0:0:0:
64,192,72764,1,0,0:0:0:0:
320,192,72902,1,0,0:0:0:0:
64,192,72902,1,0,0:0:0:0:
192,192,73040,128,0,73315:0:0:0:0:
64,192,73040,1,0,0:0:0:0:
64,192,73315,1,0,0:0:0:0:
64,192,73452,1,0,0:0:0:0:
320,192,73590,1,0,0:0:0:0:
448,192,73590,128,0,73728:0:0:0:0:
64,192,73728,1,0,0:0:0:0:
192,192,73728,1,0,0:0:0:0:
64,192,73865,1,0,0:0:0:0:
192,192,74003,1,0,0:0:0:0:
320,192,74003,128,0,74141:0:0:0:0:
64,192,74141,1,0,0:0:0:0:
448,192,74141,1,0,0:0:0:0:
64,192,74278,1,0,0:0:0:0:
64,192,74416,1,0,0:0:0:0:
192,192,74416,1,0,0:0:0:0:
64,192,74553,1,0,0:0:0:0:
320,192,74553,1,0,0:0:0:0:
64,192,74691,1,0,0:0:0:0:
448,192,74691,1,0,0:0:0:0:
192,192,74829,1,0,0:0:0:0:
320,192,74829,1,0,0:0:0:0:
64,192,74829,1,0,0:0:0:0:
320,192,74966,1,0,0:0:0:0:
448,192,74966,1,0,0:0:0:0:
320,192,75058,1,0,0:0:0:0:
448,192,75058,1,0,0:0:0:0:
64,192,75058,1,0,0:0:0:0:
320,192,75150,1,0,0:0:0:0:
448,192,75150,1,0,0:0:0:0:
192,192,75241,1,0,0:0:0:0:
64,192,75241,1,0,0:0:0:0:
64,192,75333,1,0,0:0:0:0:
192,192,75333,1,0,0:0:0:0:
448,192,75333,1,0,0:0:0:0:
192,192,75425,1,0,0:0:0:0:
64,192,75425,1,0,0:0:0:0:
320,192,75517,1,0,0:0:0:0:
448,192,75517,1,0,0:0:0:0:
192,192,75654,1,0,0:0:0:0:
320,192,75654,1,0,0:0:0:0:
192,192,75792,1,0,0:0:0:0:
64,192,75792,1,0,0:0:0:0:
192,192,75930,1,0,0:0:0:0:
320,192,75930,1,0,0:0:0:0:
64,192,76067,128,0,76618:0:0:0:0:
448,192,76067,128,0,76618:0:0:0:0:
320,192,76618,128,0,76755:0:0:0:0:
192,192,76755,128,0,76893:0:0:0:0:
64,192,76893,128,0,77030:0:0:0:0:
192,192,77030,128,0,77306:0:0:0:0:
448,192,77030,1,0,0:0:0:0:
448,192,77306,128,0,77443:0:0:0:0:
320,192,77306,1,0,0:0:0:0:
320,192,77443,128,0,77581:0:0:0:0:
192,192,77581,128,0,77719:0:0:0:0:
64,192,77581,1,0,0:0:0:0:
320,192,77719,128,0,77856:0:0:0:0:
448,192,77856,128,0,77994:0:0:0:0:
64,192,77994,128,0,78131:0:0:0:0:
192,192,78131,128,0,78407:0:0:0:0:
320,192,78269,1,0,0:0:0:0:
448,192,78407,1,0,0:0:0:0:
320,192,78475,1,0,0:0:0:0:
192,192,78544,1,0,0:0:0:0:
64,192,78682,1,0,0:0:0:0:
448,192,78819,1,0,0:0:0:0:
320,192,78957,1,0,0:0:0:0:
192,192,79095,1,0,0:0:0:0:
64,192,79186,1,0,0:0:0:0:
448,192,79278,1,0,0:0:0:0:
320,192,79370,1,0,0:0:0:0:
192,192,79462,1,0,0:0:0:0:
64,192,79553,1,0,0:0:0:0:
448,192,79645,1,0,0:0:0:0:
320,192,79714,1,0,0:0:0:0:
192,192,79783,1,0,0:0:0:0:
64,192,79852,1,0,0:0:0:0:
320,192,79920,1,0,0:0:0:0:
448,192,79920,1,0,0:0:0:0:
320,192,80058,1,0,0:0:0:0:
192,192,80058,1,0,0:0:0:0:
192,192,80196,1,0,0:0:0:0:
64,192,80196,1,0,0:0:0:0:
320,192,80333,1,0,0:0:0:0:
192,192,80333,1,0,0:0:0:0:
448,192,80471,128,0,81021:0:0:0:0:
320,192,80471,1,0,0:0:0:0:
64,192,80608,128,0,81021:0:0:0:0:
192,192,81021,128,0,81159:0:0:0:0:
320,192,81159,128,0,81297:0:0:0:0:
64,192,81297,128,0,81434:0:0:0:0:
192,192,81434,1,0,0:0:0:0:
320,192,81503,1,0,0:0:0:0:
448,192,81572,1,0,0:0:0:0:
64,192,81709,1,0,0:0:0:0:
192,192,81778,1,0,0:0:0:0:
320,192,81847,1,0,0:0:0:0:
448,192,81985,128,0,82122:0:0:0:0:
192,192,82122,128,0,82260:0:0:0:0:
64,192,82260,128,0,82397:0:0:0:0:
320,192,82397,128,0,82535:0:0:0:0:
192,192,82535,128,0,82673:0:0:0:0:
448,192,82673,128,0,82810:0:0:0:0:
320,192,82810,128,0,82948:0:0:0:0:
64,192,82948,128,0,83086:0:0:0:0:
448,192,83086,128,0,83223:0:0:0:0:
192,192,83223,128,0,83361:0:0:0:0:
320,192,83361,128,0,84324:0:0:0:0:
448,192,83361,1,0,0:0:0:0:
192,192,83430,1,0,0:0:0:0:
64,192,83430,1,0,0:0:0:0:
192,192,83567,1,0,0:0:0:0:
64,192,83567,1,0,0:0:0:0:
448,192,83636,1,0,0:0:0:0:
64,192,83705,1,0,0:0:0:0:
192,192,83774,1,0,0:0:0:0:
448,192,83842,1,0,0:0:0:0:
64,192,83911,1,0,0:0:0:0:
192,192,83980,1,0,0:0:0:0:
448,192,84049,1,0,0:0:0:0:
64,192,84118,1,0,0:0:0:0:
192,192,84187,1,0,0:0:0:0:
448,192,84255,1,0,0:0:0:0:
64,192,84324,128,0,86526:0:0:0:0:
320,192,86526,128,0,86664:0:0:0:0:
192,192,86664,128,0,86801:0:0:0:0:
64,192,86801,128,0,86939:0:0:0:0:
448,192,86939,1,0,0:0:0:0:
320,192,87008,1,0,0:0:0:0:
448,192,87076,128,0,87214:0:0:0:0:
320,192,87214,128,0,87352:0:0:0:0:
192,192,87352,128,0,87489:0:0:0:0:
64,192,87489,128,0,87627:0:0:0:0:
192,192,87627,1,0,0:0:0:0:
320,192,87696,1,0,0:0:0:0:
448,192,87765,128,0,87902:0:0:0:0:
192,192,87902,128,0,88040:0:0:0:0:
448,192,88040,128,0,88315:0:0:0:0:
320,192,88315,128,0,88453:0:0:0:0:
192,192,88453,128,0,88590:0:0:0:0:
64,192,88590,128,0,88728:0:0:0:0:
192,192,88728,128,0,88865:0:0:0:0:
448,192,88865,1,0,0:0:0:0:
320,192,88934,1,0,0:0:0:0:
64,192,89003,1,0,0:0:0:0:
192,192,89072,1,0,0:0:0:0:
320,192,89141,1,0,0:0:0:0:
192,192,89209,1,0,0:0:0:0:
320,192,89278,128,0,89416:0:0:0:0:
64,192,89416,1,0,0:0:0:0:
192,192,89485,1,0,0:0:0:0:
448,192,89554,1,0,0:0:0:0:
320,192,89622,1,0,0:0:0:0:
192,192,89691,1,0,0:0:0:0:
320,192,89760,1,0,0:0:0:0:
192,192,89829,128,0,89966:0:0:0:0:
448,192,89966,1,0,0:0:0:0:
320,192,90035,1,0,0:0:0:0:
64,192,90104,128,0,90242:0:0:0:0:
192,192,90242,1,0,0:0:0:0:
448,192,90310,1,0,0:0:0:0:
320,192,90379,128,0,90517:0:0:0:0:
64,192,90517,1,0,0:0:0:0:
192,192,90586,1,0,0:0:0:0:
448,192,90654,128,0,90746:0:0:0:0:
320,192,90746,128,0,90838:0:0:0:0:
192,192,90838,128,0,90930:0:0:0:0:
64,192,90930,128,0,91067:0:0:0:0:
320,192,91067,128,0,91205:0:0:0:0:
192,192,91205,128,0,91343:0:0:0:0:
448,192,91343,1,0,0:0:0:0:
448,192,91480,128,0,91618:0:0:0:0:
320,192,91618,128,0,91755:0:0:0:0:
192,192,91755,128,0,91893:0:0:0:0:
64,192,91893,128,0,92031:0:0:0:0:
192,192,92031,128,0,92581:0:0:0:0:
448,192,92581,1,0,0:0:0:0:
320,192,92627,1,0,0:0:0:0:
64,192,92673,1,0,0:0:0:0:
448,192,92719,1,0,0:0:0:0:
320,192,92765,1,0,0:0:0:0:
64,192,92810,1,0,0:0:0:0:
192,192,92856,1,0,0:0:0:0:
320,192,92902,1,0,0:0:0:0:
448,192,92948,1,0,0:0:0:0:
64,192,92994,1,0,0:0:0:0:
192,192,93040,1,0,0:0:0:0:
320,192,93086,1,0,0:0:0:0:
448,192,93132,1,0,0:0:0:0:
64,192,93200,1,0,0:0:0:0:
192,192,93269,1,0,0:0:0:0:
320,192,93338,1,0,0:0:0:0:
192,192,93407,1,0,0:0:0:0:
64,192,93476,1,0,0:0:0:0:
448,192,93544,1,0,0:0:0:0:
320,192,93613,1,0,0:0:0:0:
192,192,93682,1,0,0:0:0:0:
448,192,93751,1,0,0:0:0:0:
64,192,93820,1,0,0:0:0:0:
192,192,93888,1,0,0:0:0:0:
64,192,93957,1,0,0:0:0:0:
448,192,94026,1,0,0:0:0:0:
320,192,94095,1,0,0:0:0:0:
192,192,94164,1,0,0:0:0:0:
64,192,94232,1,0,0:0:0:0:
192,192,94301,1,0,0:0:0:0:
64,192,94370,1,0,0:0:0:0:
192,192,94439,1,0,0:0:0:0:
320,192,94508,1,0,0:0:0:0:
64,192,94577,1,0,0:0:0:0:
448,192,94645,1,0,0:0:0:0:
320,192,94714,1,0,0:0:0:0:
448,192,94783,1,0,0:0:0:0:
192,192,94852,1,0,0:0:0:0:
64,192,94921,1,0,0:0:0:0:
192,192,94989,1,0,0:0:0:0:
64,192,95058,1,0,0:0:0:0:
448,192,95127,1,0,0:0:0:0:
320,192,95196,1,0,0:0:0:0:
192,192,95265,1,0,0:0:0:0:
64,192,95333,1,0,0:0:0:0:
192,192,95379,1,0,0:0:0:0:
320,192,95425,1,0,0:0:0:0:
192,192,95471,1,0,0:0:0:0:
320,192,95517,1,0,0:0:0:0:
448,192,95563,1,0,0:0:0:0:
64,192,95609,1,0,0:0:0:0:
192,192,95655,1,0,0:0:0:0:
320,192,95700,1,0,0:0:0:0:
448,192,95746,1,0,0:0:0:0:
64,192,95792,1,0,0:0:0:0:
192,192,95838,1,0,0:0:0:0:
320,192,95884,1,0,0:0:0:0:
64,192,95930,1,0,0:0:0:0:
192,192,95976,1,0,0:0:0:0:
320,192,96021,1,0,0:0:0:0:
448,192,96067,1,0,0:0:0:0:
320,192,96113,1,0,0:0:0:0:
192,192,96159,1,0,0:0:0:0:
64,192,96205,1,0,0:0:0:0:
192,192,96251,1,0,0:0:0:0:
320,192,96297,1,0,0:0:0:0:
448,192,96343,1,0,0:0:0:0:
192,192,96388,1,0,0:0:0:0:
320,192,96434,1,0,0:0:0:0:
448,192,96480,1,0,0:0:0:0:
320,192,96572,1,0,0:0:0:0:
192,192,96641,1,0,0:0:0:0:
64,192,96710,1,0,0:0:0:0:
448,192,96778,1,0,0:0:0:0:
320,192,96847,1,0,0:0:0:0:
192,192,96916,1,0,0:0:0:0:
64,192,96985,1,0,0:0:0:0:
320,192,97054,1,0,0:0:0:0:
64,192,97122,1,0,0:0:0:0:
320,192,97191,1,0,0:0:0:0:
192,192,97260,1,0,0:0:0:0:
64,192,97329,1,0,0:0:0:0:
448,192,97398,1,0,0:0:0:0:
320,192,97466,1,0,0:0:0:0:
64,192,97535,1,0,0:0:0:0:
192,192,97581,1,0,0:0:0:0:
320,192,97627,1,0,0:0:0:0:
448,192,97673,1,0,0:0:0:0:
64,192,97719,1,0,0:0:0:0:
192,192,97765,1,0,0:0:0:0:
320,192,97810,1,0,0:0:0:0:
192,192,97856,1,0,0:0:0:0:
320,192,97902,1,0,0:0:0:0:
448,192,97948,1,0,0:0:0:0:
64,192,97994,1,0,0:0:0:0:
320,192,98040,1,0,0:0:0:0:
192,192,98086,128,0,98155:0:0:0:0:
64,192,98155,128,0,98223:0:0:0:0:
448,192,98223,128,0,98292:0:0:0:0:
320,192,98292,128,0,98361:0:0:0:0:
192,192,98361,128,0,98430:0:0:0:0:
64,192,98430,128,0,98499:0:0:0:0:
448,192,98499,128,0,98567:0:0:0:0:
320,192,98567,128,0,98636:0:0:0:0:
192,192,98636,128,0,98705:0:0:0:0:
320,192,98705,128,0,98774:0:0:0:0:
192,192,98774,128,0,98843:0:0:0:0:
64,192,98843,128,0,98911:0:0:0:0:
448,192,98911,128,0,98980:0:0:0:0:
320,192,98980,128,0,99049:0:0:0:0:
192,192,99049,128,0,99118:0:0:0:0:
64,192,99118,128,0,99187:0:0:0:0:
320,192,99187,128,0,99255:0:0:0:0:
64,192,99255,128,0,99324:0:0:0:0:
192,192,99324,128,0,99393:0:0:0:0:
448,192,99393,128,0,99462:0:0:0:0:
64,192,99462,128,0,99531:0:0:0:0:
192,192,99531,128,0,99600:0:0:0:0:
320,192,99600,128,0,99668:0:0:0:0:
448,192,99668,128,0,99737:0:0:0:0:
64,192,99737,1,0,0:0:0:0:
192,192,99806,1,0,0:0:0:0:
320,192,99875,1,0,0:0:0:0:
64,192,99944,1,0,0:0:0:0:
192,192,100012,1,0,0:0:0:0:
320,192,100081,1,0,0:0:0:0:
448,192,100150,1,0,0:0:0:0:
320,192,100219,1,0,0:0:0:0:
448,192,100288,1,0,0:0:0:0:
64,192,100356,1,0,0:0:0:0:
192,192,100425,1,0,0:0:0:0:
320,192,100494,1,0,0:0:0:0:
448,192,100563,1,0,0:0:0:0:
320,192,100632,1,0,0:0:0:0:
192,192,100700,1,0,0:0:0:0:
320,192,100769,1,0,0:0:0:0:
448,192,100838,128,0,101939:0:0:0:0:
64,192,101389,1,0,0:0:0:0:
320,192,101526,1,0,0:0:0:0:
192,192,101595,1,0,0:0:0:0:
64,192,101664,1,0,0:0:0:0:
320,192,101733,1,0,0:0:0:0:
192,192,101801,1,0,0:0:0:0:
64,192,101870,1,0,0:0:0:0:
192,192,101939,1,0,0:0:0:0:
320,192,101985,1,0,0:0:0:0:
448,192,102031,1,0,0:0:0:0:
320,192,102077,1,0,0:0:0:0:
192,192,102122,1,0,0:0:0:0:
64,192,102168,1,0,0:0:0:0:
192,192,102214,1,0,0:0:0:0:
320,192,102260,1,0,0:0:0:0:
448,192,102306,1,0,0:0:0:0:
320,192,102352,1,0,0:0:0:0:
192,192,102421,1,0,0:0:0:0:
64,192,102489,1,0,0:0:0:0:
64,192,102558,1,0,0:0:0:0:
192,192,102627,1,0,0:0:0:0:
320,192,102696,1,0,0:0:0:0:
448,192,102765,1,0,0:0:0:0:
320,192,102833,1,0,0:0:0:0:
192,192,102902,1,0,0:0:0:0:
64,192,102971,1,0,0:0:0:0:
320,192,103040,1,0,0:0:0:0:
448,192,103040,1,0,0:0:0:0:
192,192,103109,1,0,0:0:0:0:
64,192,103178,1,0,0:0:0:0:
192,192,103246,1,0,0:0:0:0:
448,192,103315,1,0,0:0:0:0:
320,192,103384,1,0,0:0:0:0:
192,192,103453,1,0,0:0:0:0:
64,192,103522,1,0,0:0:0:0:
192,192,103590,1,0,0:0:0:0:
320,192,103659,1,0,0:0:0:0:
192,192,103728,1,0,0:0:0:0:
64,192,103797,1,0,0:0:0:0:
448,192,103866,128,0,104003:0:0:0:0:
320,192,104003,128,0,104141:0:0:0:0:
192,192,104141,1,0,0:0:0:0:
64,192,104210,1,0,0:0:0:0:
448,192,104278,1,0,0:0:0:0:
320,192,104347,1,0,0:0:0:0:
192,192,104416,1,0,0:0:0:0:
64,192,104485,1,0,0:0:0:0:
448,192,104554,1,0,0:0:0:0:
320,192,104622,1,0,0:0:0:0:
192,192,104691,128,0,104829:0:0:0:0:
64,192,104829,128,0,104967:0:0:0:0:
192,192,104967,128,0,105104:0:0:0:0:
320,192,105104,128,0,105242:0:0:0:0:
192,192,105242,128,0,105655:0:0:0:0:
320,192,105655,128,0,105792:0:0:0:0:
64,192,105792,1,0,0:0:0:0:
192,192,105861,1,0,0:0:0:0:
320,192,105930,1,0,0:0:0:0:
448,192,105999,1,0,0:0:0:0:
64,192,106067,1,0,0:0:0:0:
192,192,106136,1,0,0:0:0:0:
320,192,106205,1,0,0:0:0:0:
448,192,106274,1,0,0:0:0:0:
64,192,106343,1,0,0:0:0:0:
448,192,106412,1,0,0:0:0:0:
64,192,106480,1,0,0:0:0:0:
320,192,106549,1,0,0:0:0:0:
192,192,106618,128,0,106756:0:0:0:0:
448,192,106756,128,0,107031:0:0:0:0:
320,192,107031,1,0,0:0:0:0:
192,192,107100,1,0,0:0:0:0:
448,192,107168,128,0,107306:0:0:0:0:
320,192,107306,1,0,0:0:0:0:
192,192,107375,1,0,0:0:0:0:
64,192,107444,128,0,107581:0:0:0:0:
448,192,107581,128,0,107719:0:0:0:0:
320,192,107719,1,0,0:0:0:0:
192,192,107811,1,0,0:0:0:0:
64,192,107902,128,0,107994:0:0:0:0:
448,192,107994,128,0,108178:0:0:0:0:
192,192,108178,1,0,0:0:0:0:
64,192,108269,128,0,108407:0:0:0:0:
192,192,108407,1,0,0:0:0:0:
320,192,108476,1,0,0:0:0:0:
448,192,108545,128,0,108682:0:0:0:0:
320,192,108682,128,0,108820:0:0:0:0:
192,192,108820,128,0,108957:0:0:0:0:
64,192,108957,1,0,0:0:0:0:
192,192,109026,1,0,0:0:0:0:
448,192,109095,128,0,109233:0:0:0:0:
192,192,109233,128,0,109370:0:0:0:0:
320,192,109370,128,0,109508:0:0:0:0:
192,192,109508,128,0,109645:0:0:0:0:
64,192,109645,128,0,110746:0:0:0:0:
448,192,109921,1,0,0:0:0:0:
320,192,109921,1,0,0:0:0:0:
192,192,110334,1,0,0:0:0:0:
320,192,110334,1,0,0:0:0:0:
448,192,110471,1,0,0:0:0:0:
320,192,110540,1,0,0:0:0:0:
192,192,110609,1,0,0:0:0:0:
320,192,110678,1,0,0:0:0:0:
448,192,110746,128,0,111159:0:0:0:0:
320,192,111159,1,0,0:0:0:0:
192,192,111228,1,0,0:0:0:0:
320,192,111297,1,0,0:0:0:0:
192,192,111366,1,0,0:0:0:0:
64,192,111434,1,0,0:0:0:0:
448,192,111503,1,0,0:0:0:0:
320,192,111572,1,0,0:0:0:0:
192,192,111641,1,0,0:0:0:0:
64,192,111710,1,0,0:0:0:0:
192,192,111779,1,0,0:0:0:0:
64,192,111847,1,0,0:0:0:0:
448,192,111916,1,0,0:0:0:0:
320,192,111985,1,0,0:0:0:0:
192,192,112054,1,0,0:0:0:0:
448,192,112123,1,0,0:0:0:0:
64,192,112191,1,0,0:0:0:0:
448,192,112260,1,0,0:0:0:0:
64,192,112329,1,0,0:0:0:0:
192,192,112398,1,0,0:0:0:0:
320,192,112467,1,0,0:0:0:0:
192,192,112535,1,0,0:0:0:0:
64,192,112604,1,0,0:0:0:0:
448,192,112673,1,0,0:0:0:0:
320,192,112742,1,0,0:0:0:0:
192,192,112811,1,0,0:0:0:0:
64,192,112879,1,0,0:0:0:0:
192,192,112948,1,0,0:0:0:0:
320,192,113017,1,0,0:0:0:0:
448,192,113086,1,0,0:0:0:0:
64,192,113155,1,0,0:0:0:0:
448,192,113224,1,0,0:0:0:0:
192,192,113292,1,0,0:0:0:0:
320,192,113361,1,0,0:0:0:0:
448,192,113430,1,0,0:0:0:0:
64,192,113499,1,0,0:0:0:0:
192,192,113568,1,0,0:0:0:0:
320,192,113636,1,0,0:0:0:0:
448,192,113705,1,0,0:0:0:0:
64,192,113774,1,0,0:0:0:0:
320,192,113843,1,0,0:0:0:0:
192,192,113912,1,0,0:0:0:0:
448,192,113980,1,0,0:0:0:0:
64,192,114049,1,0,0:0:0:0:
192,192,114118,1,0,0:0:0:0:
320,192,114187,1,0,0:0:0:0:
448,192,114256,1,0,0:0:0:0:
64,192,114324,1,0,0:0:0:0:
320,192,114393,1,0,0:0:0:0:
192,192,114462,1,0,0:0:0:0:
448,192,114531,1,0,0:0:0:0:
64,192,114600,1,0,0:0:0:0:
448,192,114668,1,0,0:0:0:0:
192,192,114737,1,0,0:0:0:0:
320,192,114806,1,0,0:0:0:0:
192,192,114875,1,0,0:0:0:0:
64,192,114944,1,0,0:0:0:0:
448,192,115013,1,0,0:0:0:0:
192,192,115081,1,0,0:0:0:0:
320,192,115150,1,0,0:0:0:0:
448,192,115219,1,0,0:0:0:0:
192,192,115288,1,0,0:0:0:0:
64,192,115357,1,0,0:0:0:0:
192,192,115425,1,0,0:0:0:0:
448,192,115494,1,0,0:0:0:0:
320,192,115563,1,0,0:0:0:0:
64,192,115632,1,0,0:0:0:0:
320,192,115701,1,0,0:0:0:0:
448,192,115769,1,0,0:0:0:0:
192,192,115838,1,0,0:0:0:0:
64,192,115907,1,0,0:0:0:0:
448,192,115976,1,0,0:0:0:0:
320,192,116045,1,0,0:0:0:0:
192,192,116113,1,0,0:0:0:0:
64,192,116182,1,0,0:0:0:0:
192,192,116251,1,0,0:0:0:0:
320,192,116320,1,0,0:0:0:0:
192,192,116389,1,0,0:0:0:0:
64,192,116457,1,0,0:0:0:0:
448,192,116526,1,0,0:0:0:0:
192,192,116595,1,0,0:0:0:0:
320,192,116664,1,0,0:0:0:0:
448,192,116733,1,0,0:0:0:0:
64,192,116802,1,0,0:0:0:0:
320,192,116870,1,0,0:0:0:0:
192,192,116939,1,0,0:0:0:0:
64,192,117008,1,0,0:0:0:0:
448,192,117077,1,0,0:0:0:0:
192,192,117146,1,0,0:0:0:0:
320,192,117214,1,0,0:0:0:0:
448,192,117283,1,0,0:0:0:0:
192,192,117352,1,0,0:0:0:0:
320,192,117421,1,0,0:0:0:0:
192,192,117490,1,0,0:0:0:0:
64,192,117558,1,0,0:0:0:0:
192,192,117627,1,0,0:0:0:0:
320,192,117696,1,0,0:0:0:0:
192,192,117765,1,0,0:0:0:0:
64,192,117834,1,0,0:0:0:0:
448,192,117902,1,0,0:0:0:0:
320,192,117971,1,0,0:0:0:0:
192,192,118040,1,0,0:0:0:0:
320,192,118109,1,0,0:0:0:0:
448,192,118178,1,0,0:0:0:0:
64,192,118246,1,0,0:0:0:0:
192,192,118315,1,0,0:0:0:0:
320,192,118384,1,0,0:0:0:0:
64,192,118453,1,0,0:0:0:0:
448,192,118453,128,0,119554:0:0:0:0:
320,192,118591,1,0,0:0:0:0:
192,192,118728,1,0,0:0:0:0:
320,192,118728,1,0,0:0:0:0:
64,192,119003,1,0,0:0:0:0:
192,192,119141,1,0,0:0:0:0:
320,192,119141,1,0,0:0:0:0:
64,192,119210,1,0,0:0:0:0:
320,192,119279,1,0,0:0:0:0:
192,192,119347,1,0,0:0:0:0:
64,192,119416,1,0,0:0:0:0:
320,192,119485,1,0,0:0:0:0:
64,192,119554,1,0,0:0:0:0:
192,192,119554,1,0,0:0:0:0:
64,192,119691,1,0,0:0:0:0:
192,192,119691,1,0,0:0:0:0:
64,192,119829,1,0,0:0:0:0:
192,192,119829,1,0,0:0:0:0:
64,192,119967,1,0,0:0:0:0:
192,192,119967,1,0,0:0:0:0:
64,192,120104,1,0,0:0:0:0:
320,192,120104,1,0,0:0:0:0:
192,192,120104,1,0,0:0:0:0:
320,192,120655,1,0,0:0:0:0:
448,192,120655,1,0,0:0:0:0:
64,192,120655,1,0,0:0:0:0:
192,192,120792,1,0,0:0:0:0:
320,192,120792,1,0,0:0:0:0:
64,192,120930,1,0,0:0:0:0:
192,192,120930,1,0,0:0:0:0:
320,192,121068,1,0,0:0:0:0:
448,192,121068,1,0,0:0:0:0:
192,192,121205,1,0,0:0:0:0:
320,192,121205,1,0,0:0:0:0:
192,192,121343,1,0,0:0:0:0:
64,192,121343,1,0,0:0:0:0:
64,192,121480,128,0,121664:0:0:0:0:
192,192,121480,128,0,121664:0:0:0:0:
320,192,121756,1,0,0:0:0:0:
448,192,121756,1,0,0:0:0:0:
320,192,121893,1,0,0:0:0:0:
448,192,121893,1,0,0:0:0:0:
320,192,122031,1,0,0:0:0:0:
448,192,122031,1,0,0:0:0:0:
320,192,122169,1,0,0:0:0:0:
448,192,122169,1,0,0:0:0:0:
320,192,122306,1,0,0:0:0:0:
448,192,122306,1,0,0:0:0:0:
192,192,122306,1,0,0:0:0:0:
320,192,122857,1,0,0:0:0:0:
448,192,122857,1,0,0:0:0:0:
192,192,122948,1,0,0:0:0:0:
64,192,122948,1,0,0:0:0:0:
320,192,123040,1,0,0:0:0:0:
448,192,123040,1,0,0:0:0:0:
192,192,123132,1,0,0:0:0:0:
64,192,123132,1,0,0:0:0:0:
192,192,123269,1,0,0:0:0:0:
320,192,123269,1,0,0:0:0:0:
320,192,123407,128,0,123774:0:0:0:0:
448,192,123407,128,0,123774:0:0:0:0:
64,192,123591,1,0,0:0:0:0:
192,192,123591,1,0,0:0:0:0:
192,192,123774,1,0,0:0:0:0:
64,192,123774,1,0,0:0:0:0:
64,192,123958,128,0,125058:0:0:0:0:
320,192,123958,128,0,125058:0:0:0:0:
192,192,124233,1,0,0:0:0:0:
448,192,124233,1,0,0:0:0:0:
448,192,124508,1,0,0:0:0:0:
192,192,124646,1,0,0:0:0:0:
192,192,124783,1,0,0:0:0:0:
448,192,124783,1,0,0:0:0:0:
192,192,125058,1,0,0:0:0:0:
448,192,125058,1,0,0:0:0:0:
192,192,125196,1,0,0:0:0:0:
448,192,125196,1,0,0:0:0:0:
448,192,125334,1,0,0:0:0:0:
64,192,125334,1,0,0:0:0:0:
192,192,125471,1,0,0:0:0:0:
320,192,125471,1,0,0:0:0:0:
320,192,125609,1,0,0:0:0:0:
192,192,125609,1,0,0:0:0:0:
64,192,125747,1,0,0:0:0:0:
320,192,125747,1,0,0:0:0:0:
64,192,125884,1,0,0:0:0:0:
192,192,125884,1,0,0:0:0:0:
448,192,125884,1,0,0:0:0:0:
64,192,126022,1,0,0:0:0:0:
192,192,126159,128,0,127260:0:0:0:0:
448,192,126159,128,0,127260:0:0:0:0:
320,192,126435,1,0,0:0:0:0:
64,192,126435,1,0,0:0:0:0:
64,192,126710,1,0,0:0:0:0:
320,192,126848,1,0,0:0:0:0:
320,192,126985,1,0,0:0:0:0:
64,192,126985,1,0,0:0:0:0:
64,192,127260,1,0,0:0:0:0:
320,192,127260,1,0,0:0:0:0:
64,192,127398,1,0,0:0:0:0:
320,192,127398,1,0,0:0:0:0:
448,192,127536,1,0,0:0:0:0:
64,192,127536,1,0,0:0:0:0:
192,192,127673,1,0,0:0:0:0:
320,192,127673,1,0,0:0:0:0:
320,192,127811,1,0,0:0:0:0:
192,192,127811,1,0,0:0:0:0:
192,192,127948,1,0,0:0:0:0:
448,192,127948,1,0,0:0:0:0:
64,192,128086,1,0,0:0:0:0:
320,192,128086,1,0,0:0:0:0:
448,192,128086,1,0,0:0:0:0:
448,192,128224,1,0,0:0:0:0:
64,192,128361,128,0,129462:0:0:0:0:
320,192,128361,128,0,129462:0:0:0:0:
192,192,128637,1,0,0:0:0:0:
448,192,128637,1,0,0:0:0:0:
448,192,128912,1,0,0:0:0:0:
192,192,129049,1,0,0:0:0:0:
192,192,129187,1,0,0:0:0:0:
448,192,129187,1,0,0:0:0:0:
192,192,129462,5,0,0:0:0:0:
448,192,129462,1,0,0:0:0:0:
192,192,129600,1,0,0:0:0:0:
448,192,129600,1,0,0:0:0:0:
448,192,129737,1,0,0:0:0:0:
64,192,129737,1,0,0:0:0:0:
192,192,129875,1,0,0:0:0:0:
320,192,129875,1,0,0:0:0:0:
320,192,130013,1,0,0:0:0:0:
192,192,130013,1,0,0:0:0:0:
64,192,130150,1,0,0:0:0:0:
320,192,130150,1,0,0:0:0:0:
64,192,130288,1,0,0:0:0:0:
192,192,130288,1,0,0:0:0:0:
448,192,130288,1,0,0:0:0:0:
64,192,130426,1,0,0:0:0:0:
448,192,130563,128,0,131664:0:0:0:0:
320,192,130563,1,0,0:0:0:0:
64,192,130838,1,0,0:0:0:0:
192,192,130838,1,0,0:0:0:0:
64,192,131114,1,0,0:0:0:0:
192,192,131205,1,0,0:0:0:0:
320,192,131297,1,0,0:0:0:0:
64,192,131389,1,0,0:0:0:0:
192,192,131481,1,0,0:0:0:0:
320,192,131572,1,0,0:0:0:0:
64,192,131664,1,0,0:0:0:0:
192,192,131664,1,0,0:0:0:0:
320,192,131802,1,0,0:0:0:0:
192,192,131802,1,0,0:0:0:0:
448,192,131939,1,0,0:0:0:0:
320,192,131939,1,0,0:0:0:0:
64,192,132077,1,0,0:0:0:0:
448,192,132077,1,0,0:0:0:0:
320,192,132215,1,0,0:0:0:0:
448,192,132215,1,0,0:0:0:0:
192,192,132352,1,0,0:0:0:0:
320,192,132352,1,0,0:0:0:0:
64,192,132490,1,0,0:0:0:0:
320,192,132559,1,0,0:0:0:0:
192,192,132627,1,0,0:0:0:0:
320,192,132696,1,0,0:0:0:0:
448,192,132765,128,0,133178:0:0:0:0:
320,192,133178,128,0,133591:0:0:0:0:
192,192,133591,128,0,133866:0:0:0:0:
64,192,133866,1,0,0:0:0:0:
448,192,133935,1,0,0:0:0:0:
320,192,134004,128,0,134141:0:0:0:0:
192,192,134141,128,0,134279:0:0:0:0:
320,192,134279,128,0,134554:0:0:0:0:
192,192,134554,128,0,134692:0:0:0:0:
64,192,134692,128,0,134967:0:0:0:0:
320,192,134967,1,0,0:0:0:0:
448,192,134967,1,0,0:0:0:0:
192,192,135104,1,0,0:0:0:0:
64,192,135150,1,0,0:0:0:0:
448,192,135196,1,0,0:0:0:0:
192,192,135242,1,0,0:0:0:0:
320,192,135242,1,0,0:0:0:0:
64,192,135380,1,0,0:0:0:0:
448,192,135426,1,0,0:0:0:0:
320,192,135471,1,0,0:0:0:0:
192,192,135517,1,0,0:0:0:0:
64,192,135517,1,0,0:0:0:0:
448,192,135655,1,0,0:0:0:0:
64,192,135701,1,0,0:0:0:0:
192,192,135747,1,0,0:0:0:0:
320,192,135793,1,0,0:0:0:0:
448,192,135793,1,0,0:0:0:0:
64,192,135930,1,0,0:0:0:0:
192,192,135999,1,0,0:0:0:0:
320,192,136068,1,0,0:0:0:0:
192,192,136137,1,0,0:0:0:0:
64,192,136137,1,0,0:0:0:0:
320,192,136205,1,0,0:0:0:0:
448,192,136205,1,0,0:0:0:0:
192,192,136274,1,0,0:0:0:0:
64,192,136274,1,0,0:0:0:0:
448,192,136343,1,0,0:0:0:0:
64,192,136412,1,0,0:0:0:0:
320,192,136412,1,0,0:0:0:0:
192,192,136481,1,0,0:0:0:0:
448,192,136481,1,0,0:0:0:0:
64,192,136549,1,0,0:0:0:0:
320,192,136549,1,0,0:0:0:0:
192,192,136618,1,0,0:0:0:0:
320,192,136687,1,0,0:0:0:0:
448,192,136687,1,0,0:0:0:0:
192,192,136756,1,0,0:0:0:0:
64,192,136756,1,0,0:0:0:0:
320,192,136825,1,0,0:0:0:0:
448,192,136825,1,0,0:0:0:0:
64,192,136893,1,0,0:0:0:0:
192,192,136962,1,0,0:0:0:0:
448,192,136962,1,0,0:0:0:0:
320,192,137031,1,0,0:0:0:0:
64,192,137031,1,0,0:0:0:0:
192,192,137100,1,0,0:0:0:0:
448,192,137100,1,0,0:0:0:0:
320,192,137169,1,0,0:0:0:0:
448,192,137215,128,0,137306:0:0:0:0:
320,192,137306,128,0,137444:0:0:0:0:
192,192,137444,128,0,137582:0:0:0:0:
64,192,137582,128,0,137719:0:0:0:0:
192,192,137719,128,0,138132:0:0:0:0:
448,192,138132,1,0,0:0:0:0:
320,192,138201,1,0,0:0:0:0:
64,192,138270,128,0,138407:0:0:0:0:
192,192,138407,128,0,138545:0:0:0:0:
320,192,138545,128,0,138682:0:0:0:0:
448,192,138682,128,0,138820:0:0:0:0:
192,192,138820,1,0,0:0:0:0:
320,192,138889,1,0,0:0:0:0:
448,192,138958,1,0,0:0:0:0:
64,192,139027,1,0,0:0:0:0:
192,192,139095,1,0,0:0:0:0:
320,192,139164,1,0,0:0:0:0:
192,192,139233,1,0,0:0:0:0:
64,192,139302,1,0,0:0:0:0:
192,192,139371,1,0,0:0:0:0:
320,192,139439,1,0,0:0:0:0:
192,192,139508,1,0,0:0:0:0:
64,192,139577,1,0,0:0:0:0:
192,192,139646,128,0,139783:0:0:0:0:
64,192,139783,128,0,140059:0:0:0:0:
192,192,140059,128,0,140334:0:0:0:0:
320,192,140334,128,0,140472:0:0:0:0:
192,192,140472,128,0,140884:0:0:0:0:
64,192,140884,1,0,0:0:0:0:
192,192,140953,1,0,0:0:0:0:
64,192,141022,128,0,141160:0:0:0:0:
192,192,141160,128,0,141366:0:0:0:0:
320,192,141366,128,0,141572:0:0:0:0:
448,192,141572,128,0,141710:0:0:0:0:
64,192,141710,1,0,0:0:0:0:
192,192,141779,1,0,0:0:0:0:
320,192,141848,128,0,141985:0:0:0:0:
448,192,141985,1,0,0:0:0:0:
64,192,142054,1,0,0:0:0:0:
192,192,142123,128,0,142261:0:0:0:0:
320,192,142261,1,0,0:0:0:0:
448,192,142329,1,0,0:0:0:0:
64,192,142398,128,0,142536:0:0:0:0:
192,192,142536,1,0,0:0:0:0:
320,192,142605,1,0,0:0:0:0:
448,192,142673,1,0,0:0:0:0:
192,192,142742,1,0,0:0:0:0:
320,192,142811,1,0,0:0:0:0:
64,192,142880,1,0,0:0:0:0:
448,192,142949,1,0,0:0:0:0:
64,192,143017,1,0,0:0:0:0:
320,192,143086,1,0,0:0:0:0:
192,192,143155,1,0,0:0:0:0:
448,192,143224,1,0,0:0:0:0:
192,192,143293,1,0,0:0:0:0:
320,192,143361,1,0,0:0:0:0:
64,192,143430,1,0,0:0:0:0:
448,192,143499,1,0,0:0:0:0:
64,192,143568,1,0,0:0:0:0:
320,192,143637,1,0,0:0:0:0:
192,192,143705,1,0,0:0:0:0:
448,192,143774,128,0,143912:0:0:0:0:
320,192,143912,128,0,144050:0:0:0:0:
192,192,144050,128,0,144187:0:0:0:0:
64,192,144187,128,0,144325:0:0:0:0:
192,192,144325,128,0,144738:0:0:0:0:
64,192,144738,1,0,0:0:0:0:
192,192,144806,1,0,0:0:0:0:
320,192,144875,128,0,145059:0:0:0:0:
192,192,145059,128,0,145242:0:0:0:0:
320,192,145242,128,0,145426:0:0:0:0:
448,192,145426,128,0,145609:0:0:0:0:
320,192,145609,128,0,145793:0:0:0:0:
192,192,145793,128,0,145976:0:0:0:0:
64,192,145976,128,0,146527:0:0:0:0:
192,192,146527,1,0,0:0:0:0:
320,192,146595,1,0,0:0:0:0:
448,192,146664,1,0,0:0:0:0:
64,192,146733,1,0,0:0:0:0:
192,192,146802,1,0,0:0:0:0:
320,192,146871,1,0,0:0:0:0:
448,192,146939,1,0,0:0:0:0:
64,192,147008,1,0,0:0:0:0:
448,192,147077,128,0,147215:0:0:0:0:
320,192,147215,128,0,147352:0:0:0:0:
192,192,147352,128,0,147490:0:0:0:0:
448,192,147490,128,0,147628:0:0:0:0:
320,192,147628,128,0,147765:0:0:0:0:
192,192,147765,128,0,147903:0:0:0:0:
448,192,147903,128,0,148040:0:0:0:0:
320,192,148040,128,0,148178:0:0:0:0:
192,192,148178,128,0,148316:0:0:0:0:
448,192,148316,128,0,148453:0:0:0:0:
320,192,148453,128,0,148591:0:0:0:0:
192,192,148591,128,0,148728:0:0:0:0:
448,192,148728,128,0,148866:0:0:0:0:
320,192,148866,128,0,149004:0:0:0:0:
192,192,149004,128,0,149141:0:0:0:0:
448,192,149141,128,0,149554:0:0:0:0:
192,192,149279,1,0,0:0:0:0:
64,192,149279,1,0,0:0:0:0:
64,192,149417,1,0,0:0:0:0:
320,192,149417,1,0,0:0:0:0:
320,192,149554,1,0,0:0:0:0:
192,192,149554,1,0,0:0:0:0:
448,192,149692,1,0,0:0:0:0:
192,192,149692,1,0,0:0:0:0:
64,192,149829,1,0,0:0:0:0:
320,192,149829,1,0,0:0:0:0:
192,192,149829,1,0,0:0:0:0:
64,192,150013,1,0,0:0:0:0:
320,192,150013,1,0,0:0:0:0:
448,192,150013,1,0,0:0:0:0:
192,192,150196,1,0,0:0:0:0:
320,192,150196,1,0,0:0:0:0:
448,192,150196,1,0,0:0:0:0:
64,192,150380,1,0,0:0:0:0:
192,192,150380,1,0,0:0:0:0:
64,192,150517,1,0,0:0:0:0:
320,192,150655,1,0,0:0:0:0:
448,192,150655,128,0,150793:0:0:0:0:
64,192,150793,1,0,0:0:0:0:
192,192,150793,1,0,0:0:0:0:
64,192,150930,1,0,0:0:0:0:
192,192,151068,1,0,0:0:0:0:
320,192,151068,128,0,151206:0:0:0:0:
64,192,151206,1,0,0:0:0:0:
448,192,151206,1,0,0:0:0:0:
64,192,151343,1,0,0:0:0:0:
64,192,151481,1,0,0:0:0:0:
192,192,151481,128,0,151618:0:0:0:0:
64,192,151618,1,0,0:0:0:0:
64,192,151756,1,0,0:0:0:0:
448,192,151756,1,0,0:0:0:0:
192,192,151894,1,0,0:0:0:0:
320,192,151894,128,0,152031:0:0:0:0:
64,192,152031,1,0,0:0:0:0:
64,192,152169,1,0,0:0:0:0:
320,192,152169,1,0,0:0:0:0:
64,192,152306,1,0,0:0:0:0:
192,192,152306,128,0,152582:0:0:0:0:
64,192,152582,1,0,0:0:0:0:
64,192,152719,1,0,0:0:0:0:
320,192,152857,1,0,0:0:0:0:
448,192,152857,128,0,152995:0:0:0:0:
64,192,152995,1,0,0:0:0:0:
192,192,152995,1,0,0:0:0:0:
64,192,153132,1,0,0:0:0:0:
192,192,153270,1,0,0:0:0:0:
320,192,153270,128,0,153407:0:0:0:0:
64,192,153407,1,0,0:0:0:0:
448,192,153407,1,0,0:0:0:0:
64,192,153545,1,0,0:0:0:0:
64,192,153683,1,0,0:0:0:0:
192,192,153683,1,0,0:0:0:0:
320,192,153751,1,0,0:0:0:0:
64,192,153820,1,0,0:0:0:0:
448,192,153820,1,0,0:0:0:0:
320,192,153958,1,0,0:0:0:0:
64,192,153958,128,0,154096:0:0:0:0:
448,192,154096,1,0,0:0:0:0:
192,192,154096,128,0,154233:0:0:0:0:
320,192,154233,1,0,0:0:0:0:
64,192,154233,128,0,154371:0:0:0:0:
320,192,154371,128,0,154508:0:0:0:0:
448,192,154371,1,0,0:0:0:0:
64,192,154508,1,0,0:0:0:0:
192,192,154508,128,0,154646:0:0:0:0:
320,192,154646,1,0,0:0:0:0:
448,192,154646,128,0,154784:0:0:0:0:
64,192,154784,1,0,0:0:0:0:
64,192,154921,1,0,0:0:0:0:
320,192,155059,1,0,0:0:0:0:
448,192,155059,128,0,155196:0:0:0:0:
192,192,155196,1,0,0:0:0:0:
64,192,155196,1,0,0:0:0:0:
64,192,155334,1,0,0:0:0:0:
192,192,155472,1,0,0:0:0:0:
320,192,155472,128,0,155609:0:0:0:0:
448,192,155609,1,0,0:0:0:0:
64,192,155609,1,0,0:0:0:0:
64,192,155747,1,0,0:0:0:0:
64,192,155885,1,0,0:0:0:0:
192,192,155885,128,0,156022:0:0:0:0:
64,192,156022,1,0,0:0:0:0:
448,192,156160,1,0,0:0:0:0:
64,192,156160,1,0,0:0:0:0:
192,192,156297,1,0,0:0:0:0:
320,192,156297,128,0,156435:0:0:0:0:
64,192,156435,1,0,0:0:0:0:
320,192,156573,1,0,0:0:0:0:
64,192,156573,1,0,0:0:0:0:
192,192,156710,128,0,156985:0:0:0:0:
64,192,156710,1,0,0:0:0:0:
64,192,156985,1,0,0:0:0:0:
64,192,157123,1,0,0:0:0:0:
320,192,157261,1,0,0:0:0:0:
448,192,157261,128,0,157398:0:0:0:0:
64,192,157398,1,0,0:0:0:0:
192,192,157398,1,0,0:0:0:0:
64,192,157536,1,0,0:0:0:0:
192,192,157674,1,0,0:0:0:0:
320,192,157674,128,0,157811:0:0:0:0:
64,192,157811,1,0,0:0:0:0:
448,192,157811,1,0,0:0:0:0:
64,192,157949,1,0,0:0:0:0:
64,192,158086,1,0,0:0:0:0:
192,192,158086,1,0,0:0:0:0:
64,192,158224,1,0,0:0:0:0:
320,192,158224,1,0,0:0:0:0:
64,192,158362,1,0,0:0:0:0:
448,192,158362,1,0,0:0:0:0:
192,192,158499,1,0,0:0:0:0:
320,192,158499,1,0,0:0:0:0:
64,192,158499,1,0,0:0:0:0:
64,192,158637,1,0,0:0:0:0:
320,192,158637,1,0,0:0:0:0:
192,192,158729,1,0,0:0:0:0:
448,192,158729,1,0,0:0:0:0:
320,192,158820,1,0,0:0:0:0:
64,192,158912,1,0,0:0:0:0:
192,192,158912,1,0,0:0:0:0:
320,192,159004,1,0,0:0:0:0:
448,192,159004,1,0,0:0:0:0:
192,192,159096,1,0,0:0:0:0:
64,192,159187,128,0,159463:0:0:0:0:
192,192,159463,128,0,159600:0:0:0:0:
64,192,159600,128,0,159875:0:0:0:0:
320,192,159875,128,0,160013:0:0:0:0:
64,192,160013,128,0,160288:0:0:0:0:
448,192,160288,128,0,160426:0:0:0:0:
64,192,160426,128,0,160701:0:0:0:0:
192,192,160701,128,0,160839:0:0:0:0:
64,192,160839,128,0,160976:0:0:0:0:
320,192,160976,128,0,161114:0:0:0:0:
64,192,161114,128,0,161252:0:0:0:0:
192,192,161252,128,0,161389:0:0:0:0:
320,192,161389,128,0,161664:0:0:0:0:
192,192,161664,128,0,161756:0:0:0:0:
64,192,161756,128,0,161848:0:0:0:0:
448,192,161848,128,0,161940:0:0:0:0:
320,192,161940,128,0,162031:0:0:0:0:
448,192,162031,128,0,162123:0:0:0:0:
320,192,162123,128,0,162215:0:0:0:0:
192,192,162215,128,0,162307:0:0:0:0:
64,192,162307,128,0,162398:0:0:0:0:
448,192,162398,128,0,162490:0:0:0:0:
64,192,162490,1,0,0:0:0:0:
192,192,162490,128,0,162559:0:0:0:0:
448,192,162559,128,0,162628:0:0:0:0:
320,192,162628,1,0,0:0:0:0:
64,192,162628,128,0,162765:0:0:0:0:
192,192,162765,1,0,0:0:0:0:
320,192,162765,128,0,162903:0:0:0:0:
448,192,162903,1,0,0:0:0:0:
192,192,162903,128,0,163041:0:0:0:0:
320,192,163041,1,0,0:0:0:0:
64,192,163041,128,0,163178:0:0:0:0:
192,192,163178,1,0,0:0:0:0:
320,192,163178,128,0,163316:0:0:0:0:
448,192,163316,1,0,0:0:0:0:
192,192,163316,128,0,163453:0:0:0:0:
320,192,163453,1,0,0:0:0:0:
448,192,163453,128,0,163591:0:0:0:0:
64,192,163591,128,0,163866:0:0:0:0:
320,192,163866,1,0,0:0:0:0:
448,192,163935,1,0,0:0:0:0:
192,192,164004,1,0,0:0:0:0:
64,192,164073,1,0,0:0:0:0:
192,192,164141,1,0,0:0:0:0:
320,192,164210,1,0,0:0:0:0:
448,192,164279,1,0,0:0:0:0:
64,192,164279,1,0,0:0:0:0:
192,192,164348,1,0,0:0:0:0:
320,192,164417,1,0,0:0:0:0:
448,192,164486,1,0,0:0:0:0:
192,192,164554,1,0,0:0:0:0:
64,192,164623,1,0,0:0:0:0:
192,192,164692,1,0,0:0:0:0:
320,192,164761,1,0,0:0:0:0:
448,192,164830,1,0,0:0:0:0:
64,192,164830,1,0,0:0:0:0:
192,192,164898,1,0,0:0:0:0:
448,192,164967,128,0,165059:0:0:0:0:
320,192,165059,128,0,165151:0:0:0:0:
64,192,165151,128,0,165242:0:0:0:0:
448,192,165242,128,0,165334:0:0:0:0:
192,192,165334,128,0,165426:0:0:0:0:
64,192,165426,128,0,165518:0:0:0:0:
320,192,165518,128,0,165609:0:0:0:0:
192,192,165609,128,0,165701:0:0:0:0:
64,192,165701,128,0,165793:0:0:0:0:
448,192,165793,128,0,165885:0:0:0:0:
320,192,165885,128,0,165976:0:0:0:0:
192,192,165976,128,0,166068:0:0:0:0:
320,192,166068,128,0,166160:0:0:0:0:
192,192,166160,128,0,166252:0:0:0:0:
64,192,166252,128,0,166343:0:0:0:0:
448,192,166343,128,0,166435:0:0:0:0:
320,192,166435,128,0,166527:0:0:0:0:
64,192,166527,128,0,166619:0:0:0:0:
448,192,166619,128,0,166710:0:0:0:0:
320,192,166710,128,0,166802:0:0:0:0:
192,192,166802,128,0,166894:0:0:0:0:
448,192,166894,128,0,166986:0:0:0:0:
192,192,166986,128,0,167077:0:0:0:0:
64,192,167077,128,0,167169:0:0:0:0:
192,192,167169,128,0,167261:0:0:0:0:
320,192,167261,128,0,167353:0:0:0:0:
448,192,167353,128,0,167444:0:0:0:0:
320,192,167444,128,0,167536:0:0:0:0:
192,192,167536,128,0,167628:0:0:0:0:
64,192,167628,128,0,167720:0:0:0:0:
320,192,167720,128,0,167811:0:0:0:0:
192,192,167811,128,0,167903:0:0:0:0:
448,192,167903,128,0,167995:0:0:0:0:
320,192,167995,128,0,168086:0:0:0:0:
192,192,168086,128,0,168178:0:0:0:0:
64,192,168178,128,0,168270:0:0:0:0:
320,192,168270,1,0,0:0:0:0:
448,192,168316,1,0,0:0:0:0:
192,192,168362,1,0,0:0:0:0:
64,192,168408,1,0,0:0:0:0:
320,192,168453,1,0,0:0:0:0:
448,192,168499,1,0,0:0:0:0:
192,192,168545,1,0,0:0:0:0:
64,192,168591,1,0,0:0:0:0:
320,192,168637,1,0,0:0:0:0:
448,192,168683,1,0,0:0:0:0:
192,192,168729,1,0,0:0:0:0:
64,192,168775,1,0,0:0:0:0:
320,192,168820,1,0,0:0:0:0:
448,192,168866,1,0,0:0:0:0:
192,192,168912,1,0,0:0:0:0:
64,192,168958,1,0,0:0:0:0:
320,192,169004,1,0,0:0:0:0:
448,192,169050,1,0,0:0:0:0:
192,192,169096,1,0,0:0:0:0:
64,192,169142,1,0,0:0:0:0:
320,192,169187,1,0,0:0:0:0:
448,192,169233,1,0,0:0:0:0:
192,192,169279,1,0,0:0:0:0:
64,192,169325,1,0,0:0:0:0:
320,192,169371,1,0,0:0:0:0:
448,192,169417,1,0,0:0:0:0:
192,192,169463,1,0,0:0:0:0:
64,192,169509,1,0,0:0:0:0:
320,192,169554,1,0,0:0:0:0:
448,192,169600,1,0,0:0:0:0:
64,192,169646,1,0,0:0:0:0:
192,192,169692,1,0,0:0:0:0:
320,192,169738,1,0,0:0:0:0:
448,192,169784,1,0,0:0:0:0:
320,192,169830,1,0,0:0:0:0:
192,192,169875,1,0,0:0:0:0:
448,192,169921,1,0,0:0:0:0:
320,192,169967,1,0,0:0:0:0:
192,192,170013,1,0,0:0:0:0:
64,192,170059,1,0,0:0:0:0:
448,192,170105,1,0,0:0:0:0:
320,192,170151,1,0,0:0:0:0:
448,192,170197,1,0,0:0:0:0:
320,192,170242,1,0,0:0:0:0:
192,192,170288,1,0,0:0:0:0:
64,192,170334,1,0,0:0:0:0:
192,192,170380,1,0,0:0:0:0:
64,192,170426,1,0,0:0:0:0:
448,192,170472,1,0,0:0:0:0:
320,192,170518,1,0,0:0:0:0:
192,192,170564,1,0,0:0:0:0:
64,192,170609,1,0,0:0:0:0:
448,192,170655,1,0,0:0:0:0:
320,192,170701,1,0,0:0:0:0:
448,192,170747,1,0,0:0:0:0:
320,192,170793,1,0,0:0:0:0:
192,192,170839,1,0,0:0:0:0:
64,192,170885,1,0,0:0:0:0:
192,192,170931,1,0,0:0:0:0:
64,192,170976,1,0,0:0:0:0:
448,192,171022,1,0,0:0:0:0:
320,192,171068,1,0,0:0:0:0:
192,192,171114,1,0,0:0:0:0:
64,192,171160,1,0,0:0:0:0:
448,192,171206,1,0,0:0:0:0:
64,192,171252,1,0,0:0:0:0:
192,192,171298,1,0,0:0:0:0:
320,192,171343,1,0,0:0:0:0:
448,192,171389,1,0,0:0:0:0:
64,192,171435,1,0,0:0:0:0:
192,192,171481,1,0,0:0:0:0:
320,192,171527,1,0,0:0:0:0:
448,192,171573,1,0,0:0:0:0:
64,192,171619,1,0,0:0:0:0:
192,192,171664,1,0,0:0:0:0:
320,192,171710,1,0,0:0:0:0:
448,192,171756,1,0,0:0:0:0:
64,192,171802,1,0,0:0:0:0:
320,192,171848,1,0,0:0:0:0:
192,192,171894,1,0,0:0:0:0:
448,192,171940,1,0,0:0:0:0:
64,192,171986,1,0,0:0:0:0:
320,192,172031,1,0,0:0:0:0:
192,192,172077,1,0,0:0:0:0:
448,192,172123,1,0,0:0:0:0:
64,192,172169,1,0,0:0:0:0:
320,192,172215,1,0,0:0:0:0:
192,192,172261,1,0,0:0:0:0:
448,192,172307,1,0,0:0:0:0:
64,192,172398,1,0,0:0:0:0:
320,192,172467,1,0,0:0:0:0:
192,192,172536,128,0,172674:0:0:0:0:
448,192,172674,128,0,172811:0:0:0:0:
64,192,172811,128,0,172949:0:0:0:0:
320,192,172949,128,0,173087:0:0:0:0:
448,192,173087,128,0,173224:0:0:0:0:
320,192,173224,128,0,173362:0:0:0:0:
192,192,173362,128,0,173499:0:0:0:0:
448,192,173499,128,0,173637:0:0:0:0:
320,192,173637,1,0,0:0:0:0:
192,192,173683,1,0,0:0:0:0:
64,192,173729,1,0,0:0:0:0:
320,192,173775,128,0,173912:0:0:0:0:
192,192,173912,1,0,0:0:0:0:
64,192,173958,1,0,0:0:0:0:
448,192,174004,1,0,0:0:0:0:
192,192,174050,128,0,174142:0:0:0:0:
320,192,174142,128,0,174233:0:0:0:0:
448,192,174233,128,0,174325:0:0:0:0:
64,192,174325,128,0,174417:0:0:0:0:
192,192,174417,128,0,174509:0:0:0:0:
320,192,174509,128,0,174600:0:0:0:0:
448,192,174600,128,0,174692:0:0:0:0:
320,192,174692,128,0,174784:0:0:0:0:
192,192,174784,128,0,174876:0:0:0:0:
320,192,174876,128,0,174967:0:0:0:0:
64,192,174967,128,0,175059:0:0:0:0:
192,192,175059,128,0,175151:0:0:0:0:
448,192,175151,128,0,175243:0:0:0:0:
320,192,175243,128,0,175334:0:0:0:0:
192,192,175334,128,0,175426:0:0:0:0:
448,192,175426,128,0,175518:0:0:0:0:
64,192,175518,128,0,175609:0:0:0:0:
320,192,175609,128,0,175701:0:0:0:0:
192,192,175701,1,0,0:0:0:0:
64,192,175701,1,0,0:0:0:0:
64,192,175839,1,0,0:0:0:0:
320,192,175839,1,0,0:0:0:0:
192,192,175976,1,0,0:0:0:0:
320,192,175976,1,0,0:0:0:0:
192,192,176114,1,0,0:0:0:0:
448,192,176114,1,0,0:0:0:0:
64,192,176252,1,0,0:0:0:0:
320,192,176252,1,0,0:0:0:0:
192,192,176389,1,0,0:0:0:0:
320,192,176389,1,0,0:0:0:0:
192,192,176527,1,0,0:0:0:0:
448,192,176527,1,0,0:0:0:0:
320,192,176665,1,0,0:0:0:0:
448,192,176665,1,0,0:0:0:0:
64,192,176802,1,0,0:0:0:0:
448,192,176871,1,0,0:0:0:0:
320,192,176940,1,0,0:0:0:0:
192,192,177009,1,0,0:0:0:0:
320,192,177077,1,0,0:0:0:0:
448,192,177146,1,0,0:0:0:0:
192,192,177215,1,0,0:0:0:0:
64,192,177284,1,0,0:0:0:0:
448,192,177353,1,0,0:0:0:0:
320,192,177421,1,0,0:0:0:0:
192,192,177490,1,0,0:0:0:0:
64,192,177559,1,0,0:0:0:0:
320,192,177628,1,0,0:0:0:0:
448,192,177697,1,0,0:0:0:0:
192,192,177765,1,0,0:0:0:0:
64,192,177834,1,0,0:0:0:0:
192,192,177903,1,0,0:0:0:0:
448,192,177972,1,0,0:0:0:0:
320,192,178041,1,0,0:0:0:0:
64,192,178110,1,0,0:0:0:0:
192,192,178178,1,0,0:0:0:0:
320,192,178247,1,0,0:0:0:0:
192,192,178316,1,0,0:0:0:0:
64,192,178385,1,0,0:0:0:0:
320,192,178454,1,0,0:0:0:0:
448,192,178522,1,0,0:0:0:0:
192,192,178591,1,0,0:0:0:0:
64,192,178660,1,0,0:0:0:0:
192,192,178729,1,0,0:0:0:0:
448,192,178798,1,0,0:0:0:0:
320,192,178866,1,0,0:0:0:0:
64,192,178935,1,0,0:0:0:0:
448,192,179004,1,0,0:0:0:0:
320,192,179073,1,0,0:0:0:0:
192,192,179142,1,0,0:0:0:0:
448,192,179210,1,0,0:0:0:0:
320,192,179279,1,0,0:0:0:0:
192,192,179348,1,0,0:0:0:0:
64,192,179417,1,0,0:0:0:0:
320,192,179486,1,0,0:0:0:0:
192,192,179554,1,0,0:0:0:0:
64,192,179623,1,0,0:0:0:0:
192,192,179692,1,0,0:0:0:0:
448,192,179761,1,0,0:0:0:0:
320,192,179830,1,0,0:0:0:0:
192,192,179899,1,0,0:0:0:0:
64,192,179967,1,0,0:0:0:0:
320,192,180036,1,0,0:0:0:0:
192,192,180105,1,0,0:0:0:0:
64,192,180174,1,0,0:0:0:0:
192,192,180243,1,0,0:0:0:0:
448,192,180311,1,0,0:0:0:0:
320,192,180380,1,0,0:0:0:0:
192,192,180449,1,0,0:0:0:0:
64,192,180518,1,0,0:0:0:0:
448,192,180587,1,0,0:0:0:0:
192,192,180655,1,0,0:0:0:0:
320,192,180724,1,0,0:0:0:0:
64,192,180793,1,0,0:0:0:0:
448,192,180862,1,0,0:0:0:0:
320,192,180931,1,0,0:0:0:0:
192,192,180999,1,0,0:0:0:0:
64,192,181068,1,0,0:0:0:0:
448,192,181137,1,0,0:0:0:0:
64,192,181206,1,0,0:0:0:0:
192,192,181206,1,0,0:0:0:0:
448,192,181343,1,0,0:0:0:0:
320,192,181412,1,0,0:0:0:0:
192,192,181481,1,0,0:0:0:0:
64,192,181481,1,0,0:0:0:0:
320,192,181619,1,0,0:0:0:0:
448,192,181688,1,0,0:0:0:0:
192,192,181756,1,0,0:0:0:0:
64,192,181756,1,0,0:0:0:0:
64,192,181894,1,0,0:0:0:0:
192,192,181963,1,0,0:0:0:0:
320,192,182032,1,0,0:0:0:0:
448,192,182032,1,0,0:0:0:0:
192,192,182169,1,0,0:0:0:0:
64,192,182238,1,0,0:0:0:0:
448,192,182307,1,0,0:0:0:0:
320,192,182376,1,0,0:0:0:0:
192,192,182444,1,0,0:0:0:0:
64,192,182513,1,0,0:0:0:0:
192,192,182582,1,0,0:0:0:0:
320,192,182651,1,0,0:0:0:0:
448,192,182720,1,0,0:0:0:0:
320,192,182788,1,0,0:0:0:0:
192,192,182857,1,0,0:0:0:0:
64,192,182926,1,0,0:0:0:0:
192,192,182995,1,0,0:0:0:0:
320,192,183064,1,0,0:0:0:0:
448,192,183133,1,0,0:0:0:0:
64,192,183201,1,0,0:0:0:0:
320,192,183270,1,0,0:0:0:0:
192,192,183339,1,0,0:0:0:0:
448,192,183408,1,0,0:0:0:0:
64,192,183477,1,0,0:0:0:0:
320,192,183545,1,0,0:0:0:0:
192,192,183614,1,0,0:0:0:0:
64,192,183683,1,0,0:0:0:0:
320,192,183752,1,0,0:0:0:0:
192,192,183821,1,0,0:0:0:0:
64,192,183889,1,0,0:0:0:0:
448,192,183958,1,0,0:0:0:0:
320,192,184027,1,0,0:0:0:0:
192,192,184096,1,0,0:0:0:0:
320,192,184165,1,0,0:0:0:0:
64,192,184233,1,0,0:0:0:0:
192,192,184302,1,0,0:0:0:0:
320,192,184371,1,0,0:0:0:0:
192,192,184440,1,0,0:0:0:0:
64,192,184509,1,0,0:0:0:0:
448,192,184577,1,0,0:0:0:0:
192,192,184646,1,0,0:0:0:0:
320,192,184715,1,0,0:0:0:0:
64,192,184784,128,0,184922:0:0:0:0:
448,192,184922,128,0,185059:0:0:0:0:
64,192,185059,128,0,185610:0:0:0:0:
448,192,185334,128,0,185472:0:0:0:0:
192,192,185472,128,0,185610:0:0:0:0:
320,192,185610,128,0,186711:0:0:0:0:
448,192,185610,1,0,0:0:0:0:
64,192,187811,1,0,0:0:0:0:
192,192,187811,1,0,0:0:0:0:
320,192,187811,1,0,0:0:0:0:
448,192,187811,1,0,0:0:0:0:
320,192,187949,1,0,0:0:0:0:
192,192,187949,1,0,0:0:0:0:
64,192,187949,1,0,0:0:0:0:
448,192,187949,1,0,0:0:0:0:
192,192,188912,128,0,190013:0:0:0:0:
320,192,188912,128,0,190013:0:0:0:0:
448,192,188912,1,0,0:0:0:0:
64,192,189050,1,0,0:0:0:0:
448,192,189188,1,0,0:0:0:0:
64,192,189325,1,0,0:0:0:0:
448,192,189463,1,0,0:0:0:0:
64,192,189600,1,0,0:0:0:0:
448,192,189738,1,0,0:0:0:0:
64,192,189876,1,0,0:0:0:0:
448,192,190013,128,0,191114:0:0:0:0:
64,192,190013,1,0,0:0:0:0:
320,192,191114,128,0,191665:0:0:0:0:
192,192,191665,128,0,191940:0:0:0:0:
64,192,191940,128,0,192215:0:0:0:0:
448,192,192215,128,0,192353:0:0:0:0:
320,192,192353,128,0,192490:0:0:0:0:
192,192,192490,128,0,193041:0:0:0:0:
448,192,193041,128,0,193178:0:0:0:0:
64,192,193178,128,0,193316:0:0:0:0:
320,192,193316,1,0,0:0:0:0:
192,192,193408,1,0,0:0:0:0:
320,192,193500,1,0,0:0:0:0:
448,192,193591,1,0,0:0:0:0:
64,192,193683,1,0,0:0:0:0:
448,192,193775,1,0,0:0:0:0:
320,192,193867,1,0,0:0:0:0:
192,192,193958,1,0,0:0:0:0:
320,192,194050,1,0,0:0:0:0:
448,192,194142,1,0,0:0:0:0:
64,192,194234,1,0,0:0:0:0:
448,192,194325,1,0,0:0:0:0:
320,192,194417,128,0,196344:0:0:0:0:
64,192,194417,1,0,0:0:0:0:
192,192,194555,1,0,0:0:0:0:
448,192,194692,1,0,0:0:0:0:
64,192,194692,1,0,0:0:0:0:
192,192,194830,1,0,0:0:0:0:
64,192,194967,1,0,0:0:0:0:
192,192,195105,1,0,0:0:0:0:
448,192,195105,1,0,0:0:0:0:
64,192,195243,1,0,0:0:0:0:
192,192,195380,1,0,0:0:0:0:
64,192,195518,1,0,0:0:0:0:
448,192,195518,1,0,0:0:0:0:
192,192,195656,1,0,0:0:0:0:
64,192,195793,1,0,0:0:0:0:
192,192,195931,1,0,0:0:0:0:
448,192,195931,1,0,0:0:0:0:
64,192,196068,1,0,0:0:0:0:
192,192,196206,1,0,0:0:0:0:
448,192,196206,1,0,0:0:0:0:
64,192,196344,1,0,0:0:0:0:
192,192,196344,1,0,0:0:0:0:
64,192,196619,1,0,0:0:0:0:
192,192,196619,1,0,0:0:0:0:
320,192,196688,1,0,0:0:0:0:
448,192,196688,1,0,0:0:0:0:
64,192,196757,1,0,0:0:0:0:
320,192,196894,1,0,0:0:0:0:
448,192,196894,1,0,0:0:0:0:
192,192,197032,1,0,0:0:0:0:
64,192,197032,1,0,0:0:0:0:
448,192,197169,1,0,0:0:0:0:
192,192,197169,1,0,0:0:0:0:
64,192,197307,1,0,0:0:0:0:
320,192,197307,1,0,0:0:0:0:
192,192,197445,1,0,0:0:0:0:
320,192,197445,1,0,0:0:0:0:
64,192,197582,1,0,0:0:0:0:
448,192,197582,1,0,0:0:0:0:
64,192,197720,128,0,198270:0:0:0:0:
192,192,197720,128,0,199188:0:0:0:0:
320,192,197720,128,0,199188:0:0:0:0:
448,192,197720,128,0,198270:0:0:0:0:
64,192,198477,1,0,0:0:0:0:
448,192,198546,1,0,0:0:0:0:
64,192,198637,1,0,0:0:0:0:
448,192,198729,1,0,0:0:0:0:
64,192,198821,128,0,199188:0:0:0:0:
