osu file format v14

[General]
AudioFilename: audio.mp3
AudioLeadIn: 0
PreviewTime: 222
Countdown: 0
SampleSet: Normal
StackLeniency: 1
Mode: 1
LetterboxInBreaks: 0
WidescreenStoryboard: 1

[Editor]
Bookmarks: 425,13397,26370,39343,52316,65289
DistanceSpacing: 1
BeatDivisor: 2
GridSize: 32
TimelineZoom: 0.5000006

[Metadata]
Title:BassTest
TitleUnicode:BassTest
Artist:S.S.H.
ArtistUnicode:S.S.H.
Creator:Ak1o
Version:KANTAN
Source:
Tags:埼玉最終兵器 Saitama Saisyu Heiki SSH
BeatmapID:1603298
BeatmapSetID:666764

[Difficulty]
HPDrainRate:8
CircleSize:2
OverallDifficulty:3
ApproachRate:10
SliderMultiplier:1.4
SliderTickRate:1

[Events]
//Background and Video events
0,0,"bass-guitar-2149880_640.jpg",0,0
//Break Periods
//Storyboard Layer 0 (Background)
//Storyboard Layer 1 (Fail)
//Storyboard Layer 2 (Pass)
//Storyboard Layer 3 (Foreground)
//Storyboard Sound Samples

[TimingPoints]
425,405.405405405405,4,1,0,50,1,0
13093,-100,4,1,0,60,0,0
26370,-100,4,1,0,70,0,0
39343,-100,4,1,0,75,0,1
52316,-100,4,1,0,70,0,0

[HitObjects]
256,192,425,5,4,0:0:0:0:
256,192,1235,1,0,0:0:0:0:
256,192,1641,1,8,0:0:0:0:
256,192,2046,1,0,0:0:0:0:
256,192,3262,1,8,0:0:0:0:
256,192,3668,1,0,0:0:0:0:
256,192,4479,1,8,0:0:0:0:
256,192,4884,1,0,0:0:0:0:
256,192,5289,1,0,0:0:0:0:
256,192,6506,1,8,0:0:0:0:
256,192,6911,1,4,0:0:0:0:
256,192,7722,1,8,0:0:0:0:
256,192,8127,1,8,0:0:0:0:
256,192,8533,1,0,0:0:0:0:
256,192,9749,1,8,0:0:0:0:
256,192,10154,1,0,0:0:0:0:
256,192,10965,1,0,0:0:0:0:
256,192,11370,1,8,0:0:0:0:
256,192,11776,1,12,0:0:0:0:
256,192,13397,1,4,0:0:0:0:
256,192,14208,1,0,0:0:0:0:
256,192,14614,1,8,0:0:0:0:
256,192,15019,1,0,0:0:0:0:
256,192,16235,1,0,0:0:0:0:
256,192,16641,1,8,0:0:0:0:
256,192,17452,1,8,0:0:0:0:
256,192,17857,1,0,0:0:0:0:
256,192,18262,1,0,0:0:0:0:
256,192,18870,1,0,0:0:0:0:
256,192,19479,1,8,0:0:0:0:
256,192,19884,1,4,0:0:0:0:
256,192,20695,1,0,0:0:0:0:
256,192,21100,1,0,0:0:0:0:
256,192,21506,1,0,0:0:0:0:
256,192,22722,1,0,0:0:0:0:
256,192,23127,1,8,0:0:0:0:
256,192,23938,1,0,0:0:0:0:
256,192,24749,1,12,0:0:0:0:
256,192,25154,1,4,0:0:0:0:
256,192,25560,1,12,0:0:0:0:
256,192,26370,1,4,0:0:0:0:
256,192,27181,1,0,0:0:0:0:
256,192,27587,1,8,0:0:0:0:
256,192,27992,1,0,0:0:0:0:
256,192,29208,1,8,0:0:0:0:
256,192,29614,1,0,0:0:0:0:
256,192,30424,1,8,0:0:0:0:
256,192,30830,1,8,0:0:0:0:
256,192,31235,1,0,0:0:0:0:
256,192,31843,1,0,0:0:0:0:
256,192,32452,1,8,0:0:0:0:
256,192,32857,1,4,0:0:0:0:
256,192,33668,1,8,0:0:0:0:
256,192,34073,1,8,0:0:0:0:
256,192,34479,1,0,0:0:0:0:
256,192,35695,1,8,0:0:0:0:
256,192,36100,1,0,0:0:0:0:
256,192,36911,1,0,0:0:0:0:
256,192,37722,1,12,0:0:0:0:
256,192,38127,1,4,0:0:0:0:
256,192,38533,1,12,0:0:0:0:
256,192,39343,1,4,0:0:0:0:
256,192,40154,1,0,0:0:0:0:
256,192,40560,1,8,0:0:0:0:
256,192,40965,1,0,0:0:0:0:
256,192,42181,1,12,0:0:0:0:
256,192,42587,1,4,0:0:0:0:
256,192,43397,1,8,0:0:0:0:
256,192,43803,1,0,0:0:0:0:
256,192,44208,1,8,0:0:0:0:
256,192,45424,1,0,0:0:0:0:
256,192,45830,1,12,0:0:0:0:
256,192,46641,1,8,0:0:0:0:
256,192,47046,1,8,0:0:0:0:
256,192,47452,1,0,0:0:0:0:
256,192,48668,1,12,0:0:0:0:
256,192,49073,1,4,0:0:0:0:
256,192,49884,1,4,0:0:0:0:
256,192,50695,1,12,0:0:0:0:
256,192,51100,1,12,0:0:0:0:
256,192,51506,1,12,0:0:0:0:
256,192,52316,1,4,0:0:0:0:
256,192,53127,1,0,0:0:0:0:
256,192,53533,1,8,0:0:0:0:
256,192,53938,1,0,0:0:0:0:
256,192,55154,1,0,0:0:0:0:
256,192,55560,1,8,0:0:0:0:
256,192,56370,1,0,0:0:0:0:
256,192,56776,1,0,0:0:0:0:
256,192,57587,1,8,0:0:0:0:
256,192,58397,1,4,0:0:0:0:
256,192,58803,1,12,0:0:0:0:
256,192,59614,1,8,0:0:0:0:
256,192,60019,1,8,0:0:0:0:
256,192,60424,1,0,0:0:0:0:
256,192,61641,1,0,0:0:0:0:
256,192,62046,1,8,0:0:0:0:
256,192,62857,1,0,0:0:0:0:
256,192,63262,1,12,0:0:0:0:
256,192,63668,1,12,0:0:0:0:
256,192,64479,1,4,0:0:0:0:
256,192,64884,1,12,0:0:0:0:
