osu file format v14

[General]
AudioFilename: audio.mp3
AudioLeadIn: 1600
PreviewTime: 37438
Countdown: 0
SampleSet: Normal
StackLeniency: 0.7
Mode: 0
LetterboxInBreaks: 0
WidescreenStoryboard: 1

[Editor]
Bookmarks: 26818,42747,43278,52172,58942,60535,81110,84163,85491,92934,106740,107536,113111,113908,133023,135412,136607,141518,168333,177094,187448,191695,197536,200058
DistanceSpacing: 1
BeatDivisor: 2
GridSize: 32
TimelineZoom: 2.6

[Metadata]
Title:The Decisive Battle with the Fugitives
TitleUnicode:The Decisive Battle with the Fugitives
Artist:S.S.H
ArtistUnicode:S.S.H
Creator:Nat3
Version:Hard
Source:
Tags:Crea-Tech kamisamaaa Aakiha Kawaiwkyik SSH final fantasy vi Metal Max series
BeatmapID:2254750
BeatmapSetID:1052773

[Difficulty]
HPDrainRate:6
CircleSize:4
OverallDifficulty:6
ApproachRate:8
SliderMultiplier:1.4
SliderTickRate:2

[Events]
//Background and Video events
0,0,"full.jpg",0,0
//Break Periods
2,156054,207937
2,213000,218556
2,221895,227052
//Storyboard Layer 0 (Background)
//Storyboard Layer 1 (Fail)
//Storyboard Layer 2 (Pass)
//Storyboard Layer 3 (Foreground)
//Storyboard Layer 4 (Overlay)
//Storyboard Sound Samples

[TimingPoints]
1332,265.486725663717,4,1,1,50,1,0
1730,-100,4,2,2,50,0,0
3455,-100,4,1,1,50,0,0
3854,-100,4,2,2,50,0,0
4783,-100,4,1,1,50,0,0
5712,-100,4,2,2,50,0,0
7703,-100,4,1,2,50,0,0
7969,-100,4,2,2,50,0,0
8101,-100,4,1,2,50,0,0
8367,-100,4,2,2,50,0,0
8500,-100,4,1,1,50,0,0
8765,-100,4,1,1,60,0,0
36376,-100,4,1,1,50,0,0
36907,-100,4,1,1,50,0,0
37438,-100,4,1,1,60,0,1
54429,-100,4,1,1,50,0,0
55026,-100,4,1,2,5,0,0
55093,-100,4,1,2,50,0,0
55424,-100,4,1,2,5,0,0
55491,-100,4,1,2,50,0,0
55889,-100,4,1,2,50,0,0
57150,-100,4,1,2,5,0,0
57216,-100,4,1,2,50,0,0
57548,-100,4,1,2,5,0,0
57615,-100,4,1,2,50,0,0
69628,-100,4,1,2,5,0,0
69694,-100,4,1,2,50,0,0
70026,-100,4,1,2,5,0,0
70093,-100,4,1,2,50,0,0
70690,-100,4,1,2,5,0,0
70756,-100,4,1,2,50,0,0
71088,-100,4,1,2,5,0,0
71155,-100,4,1,2,50,0,0
88411,-100,4,3,0,60,0,0
90811,265.486725663717,4,1,1,60,1,0
133288,-100,4,1,2,50,0,0
163355,-100,4,1,2,5,0,0
163421,-100,4,1,2,50,0,0
163753,-100,4,1,2,5,0,0
163819,-100,4,1,2,50,0,0
164417,-100,4,1,2,5,0,0
164483,-100,4,1,2,50,0,0
164815,-100,4,1,2,5,0,0
164881,-100,4,1,2,50,0,0
191695,-100,4,1,1,55,0,0
208687,-100,4,1,1,60,0,1
229926,-100,4,1,2,60,0,1
232049,-200,4,1,2,50,0,0
235245,260.869565217391,4,1,2,50,1,0
235245,-133.333333333333,4,1,2,50,0,0
236298,264.900662251656,4,1,2,50,1,0
236298,-133.333333333333,4,1,2,50,0,0
237432,303.030303030303,4,1,2,50,1,0
237432,-200,4,1,2,50,0,0
238681,333.333333333333,4,1,2,50,1,0
238681,-200,4,1,2,50,0,0
239766,535.714285714286,4,1,2,50,1,0
240837,-100,4,1,2,40,0,0
241908,-100,4,1,2,30,0,0
242980,-100,4,1,2,20,0,0
243516,-100,4,1,2,10,0,0
244051,-100,4,1,2,5,0,0

[Colours]
Combo1 : 255,255,128
Combo2 : 39,155,0
Combo3 : 250,180,220
Combo4 : 0,0,198

[HitObjects]
256,192,270,5,0,2:0:0:0:
116,192,535,1,0,2:0:0:0:
115,332,801,1,0,2:0:0:0:
254,332,1066,1,0,2:0:0:0:
352,235,1331,5,0,0:0:0:0:
352,235,1464,1,0,0:0:0:0:
352,235,1597,2,0,P|418:248|322:128,1,420,12|2,0:0|0:0,0:0:0:0:
399,164,2924,1,2,0:0:0:0:
268,249,3455,5,0,0:0:0:0:
268,249,3588,1,0,0:0:0:0:
268,249,3721,2,0,P|202:262|298:142,1,420,12|2,0:0|0:0,0:0:0:0:
433,106,4783,6,0,P|457:209|396:317,2,210,0|2|0,0:0|0:0|0:0,0:0:0:0:
292,108,5845,1,0,0:0:0:0:
294,354,6376,1,2,0:0:0:0:
110,142,6907,1,2,0:0:0:0:
389,150,7438,1,2,0:0:0:0:
264,212,7703,6,0,B|186:212|186:212|186:278,1,140,4|2,0:0|0:2,0:0:0:0:
255,283,8101,2,0,B|255:347|255:347|155:347,1,140,4|2,0:0|0:2,0:0:0:0:
108,345,8500,2,0,B|111:194,1,140,4|2,0:0|0:2,0:0:0:0:
192,91,9031,6,0,L|165:24,1,70
238,77,9296,2,0,L|238:5,1,70
284,82,9562,1,0,0:0:0:0:
397,163,9827,5,0,0:0:0:0:
397,163,9960,2,0,L|397:233,1,70
258,214,10358,2,0,L|312:279,1,70,10|0,0:0|0:0,0:0:0:0:
398,370,10756,1,0,0:0:0:0:
398,370,10889,1,0,0:0:0:0:
257,370,11155,6,0,L|173:370,1,70,2|0,0:0|0:0,0:0:0:0:
240,324,11420,2,0,L|158:302,1,70,2|0,0:0|0:0,0:0:0:0:
235,274,11685,2,0,L|162:232,1,70,2|0,0:0|0:0,0:0:0:0:
164,97,12084,6,0,B|201:88|201:88|225:62,1,70,2|0,0:0|0:0,0:0:0:0:
362,90,12482,2,0,B|371:127|371:127|397:151,1,70,2|0,0:0|0:0,0:0:0:0:
352,284,12880,2,0,L|285:226,1,70,2|0,0:0|0:0,0:0:0:0:
175,301,13278,5,0,0:0:0:0:
175,301,13411,1,0,0:0:0:0:
67,219,13677,1,0,0:0:0:0:
67,219,13810,2,0,L|-20:146,2,70,2|0|0,0:0|0:0|0:0,0:0:0:0:
124,179,14208,6,0,P|160:164|209:164,1,70,2|0,0:0|0:0,0:0:0:0:
319,217,14606,2,0,P|287:231|252:234,1,70,2|0,0:0|0:0,0:0:0:0:
339,344,15004,2,0,B|341:347|341:347|263:344,1,70,2|0,0:0|0:0,0:0:0:0:
168,350,15402,2,0,L|92:350,3,70,2|0|0|0,0:0|0:0|0:0|0:0,0:0:0:0:
96,279,15933,2,0,L|37:218,1,70,2|0,0:0|0:0,0:0:0:0:
171,162,16332,5,10,0:0:0:0:
171,162,16464,1,0,0:0:0:0:
171,21,16730,1,10,0:0:0:0:
171,21,16862,1,0,0:0:0:0:
285,101,17128,1,0,0:0:0:0:
256,192,17261,12,0,18323,0:0:0:0:
254,190,18588,5,8,0:0:0:0:
135,115,18854,2,0,B|206:88|206:88|273:105,1,140,2|8,0:0|0:0,0:0:0:0:
356,127,19252,2,0,B|382:198|382:198|365:265,1,140,2|0,0:0|0:0,0:0:0:0:
280,290,19650,2,0,L|179:281,1,70,8|0,0:0|0:0,0:0:0:0:
211,191,19916,2,0,L|280:197,1,70,2|0,0:0|0:0,0:0:0:0:
281,105,20181,2,0,L|211:98,1,70,8|0,0:0|0:0,0:0:0:0:
120,114,20447,6,0,L|50:120,1,70,2|0,0:0|0:0,0:0:0:0:
49,211,20712,1,10,0:0:0:0:
147,364,20978,1,2,0:0:0:0:
211,191,21243,1,10,0:0:0:0:
211,191,21376,2,0,B|276:168|276:168|357:168,1,140,2|0,0:0|0:0,0:0:0:0:
438,171,21774,6,0,L|446:264,1,70,8|0,0:0|0:0,0:0:0:0:
404,322,22039,2,0,L|310:330,1,70,8|0,0:0|0:0,0:0:0:0:
253,283,22305,2,0,L|159:274,1,70,8|0,0:0|0:0,0:0:0:0:
172,185,22570,5,2,0:0:0:0:
209,6,22836,1,10,0:0:0:0:
340,131,23101,1,2,0:0:0:0:
162,87,23367,1,10,0:0:0:0:
106,14,23500,2,0,P|78:78|93:151,1,140,2|0,0:0|0:0,0:0:0:0:
132,225,23898,5,10,0:0:0:0:
311,253,24163,1,2,0:0:0:0:
248,81,24429,1,10,0:0:0:0:
311,253,24694,6,0,L|322:323,1,70,2|0,0:0|0:0,0:0:0:0:
234,293,24960,1,10,0:0:0:0:
179,119,25225,1,2,0:0:0:0:
361,123,25491,1,10,0:0:0:0:
403,42,25624,2,0,P|369:32|262:87,1,140,2|0,0:0|0:0,0:0:0:0:
267,158,26022,5,8,0:0:0:0:
119,51,26287,2,0,L|70:51,4,35,0|0|0|0|8,0:0|0:0|0:0|0:0|0:0,0:0:0:0:
131,140,26685,5,0,0:0:0:0:
131,140,26818,2,0,L|121:279,1,140,2|8,0:0|0:0,0:0:0:0:
223,128,27349,2,0,L|218:197,1,70,2|0,0:0|0:0,0:0:0:0:
341,63,27747,5,0,0:0:0:0:
405,233,28013,2,0,L|322:233,1,70,2|8,0:0|0:0,0:0:0:0:
242,75,28411,1,2,0:0:0:0:
413,138,28677,1,8,0:0:0:0:
234,172,28942,6,0,L|151:172,2,70,2|0|0,0:0|0:0|0:0,0:0:0:0:
307,225,29340,2,0,L|377:225,2,70,2|0|0,0:0|0:0|0:0,0:0:0:0:
228,259,29739,2,0,L|145:259,2,70,2|0|0,0:0|0:0|0:0,0:0:0:0:
293,319,30137,2,0,L|363:319,2,70,2|0|0,0:0|0:0|0:0,0:0:0:0:
207,348,30535,2,0,L|78:348,1,70
72,282,30801,2,0,L|69:184,1,70
86,122,31066,6,0,L|144:63,2,70,2|0|0,0:0|0:0|0:0,0:0:0:0:
157,178,31464,2,0,L|234:149,2,70,2|0|0,0:0|0:0|0:0,0:0:0:0:
221,242,31862,2,0,L|303:249,2,70,2|0|0,0:0|0:0|0:0,0:0:0:0:
222,333,32260,2,0,L|293:374,2,70,2|0|0,0:0|0:0|0:0,0:0:0:0:
141,289,32659,2,0,L|24:234,1,70
44,173,32925,2,0,L|96:58,1,70
169,142,33190,6,0,P|216:187|295:183,1,140,2|8,0:0|0:0,0:0:0:0:
302,4,33721,2,0,L|271:68,1,70,2|0,0:0|0:0,0:0:0:0:
89,66,34119,1,0,0:0:0:0:
41,242,34385,1,0,0:0:0:0:
184,353,34650,1,0,0:0:0:0:
315,226,34916,1,0,0:0:0:0:
315,226,35048,2,0,B|346:103,1,70,10|0,0:0|0:0,0:0:0:0:
246,123,35314,6,0,P|150:103|274:255,1,490
170,210,36376,2,0,B|198:210|198:210|204:206|204:206|212:210|212:210|341:210|341:210|351:213|351:213|361:209|361:209|433:210,1,210,8|0,0:0|0:0,0:0:0:0:
397,315,36907,2,0,B|369:315|369:315|363:319|363:319|355:315|355:315|226:315|226:315|216:312|216:312|206:316|206:316|191:316,1,210,8|0,0:0|0:0,0:0:0:0:
101,303,37438,6,0,L|96:232,1,70,6|0,0:0|0:0,0:0:0:0:
24,176,37703,2,0,L|30:99,1,70,10|0,0:0|0:0,0:0:0:0:
106,56,37969,2,0,L|183:50,1,70,2|0,0:0|0:0,0:0:0:0:
147,137,38234,2,0,L|216:142,1,70,10|0,0:0|0:0,0:0:0:0:
315,157,38500,5,2,0:0:0:0:
315,157,38632,1,2,0:0:0:0:
315,157,38765,2,0,L|308:228,1,70,10|0,0:0|0:0,0:0:0:0:
390,287,39031,5,2,0:0:0:0:
390,287,39163,1,2,0:0:0:0:
390,287,39296,2,0,L|396:215,1,70,10|0,0:0|0:0,0:0:0:0:
309,360,39562,6,0,L|392:360,1,70,2|0,0:0|0:0,0:0:0:0:
470,358,39827,2,0,L|470:288,1,70,10|0,0:0|0:0,0:0:0:0:
468,196,40093,2,0,L|398:196,1,70,2|0,0:0|0:0,0:0:0:0:
306,193,40358,2,0,L|306:123,1,70,10|0,0:0|0:0,0:0:0:0:
304,38,40624,5,2,0:0:0:0:
304,38,40756,1,2,0:0:0:0:
304,38,40889,2,0,L|230:62,1,70,10|0,0:0|0:0,0:0:0:0:
208,151,41155,5,2,0:0:0:0:
208,151,41287,1,2,0:0:0:0:
208,151,41420,2,0,L|282:127,1,70,10|0,0:0|0:0,0:0:0:0:
361,102,41685,6,0,P|368:136|366:170,1,70,6|0,0:0|0:0,0:0:0:0:
286,216,41951,2,0,P|283:250|291:284,1,70,10|0,0:0|0:0,0:0:0:0:
362,341,42216,2,0,P|392:348|431:345,1,70,6|0,0:0|0:0,0:0:0:0:
505,292,42482,2,0,P|512:262|509:222,1,70,10|0,0:0|0:0,0:0:0:0:
474,139,42747,6,0,L|418:83,1,70,2|0,0:0|0:0,0:0:0:0:
370,163,43013,2,0,L|296:136,1,70,10|0,0:0|0:0,0:0:0:0:
284,228,43278,2,0,L|206:234,1,70,2|0,0:0|0:0,0:0:0:0:
235,323,43544,2,0,L|167:361,1,70,10|0,0:0|0:0,0:0:0:0:
84,343,43809,6,0,P|83:303|95:274,1,70,10|0,0:0|0:0,0:0:0:0:
33,206,44075,2,0,P|60:177|89:165,1,70,10|0,0:0|0:0,0:0:0:0:
73,75,44340,2,0,P|112:74|141:86,1,70,10|0,0:0|0:0,0:0:0:0:
209,23,44606,2,0,P|237:50|249:79,1,70,10|0,0:0|0:0,0:0:0:0:
268,167,44871,6,0,L|277:223,6,35,2|0|0|0|0|0|0,0:0|0:0|0:0|0:0|0:0|0:0|0:0,0:0:0:0:
337,108,45402,2,0,L|362:245,1,140,6|8,0:0|0:0,0:0:0:0:
198,325,45933,6,0,P|165:310|133:281,1,70,2|0,0:0|0:0,0:0:0:0:
148,197,46199,2,0,P|181:212|213:241,1,70,10|0,0:0|0:0,0:0:0:0:
290,269,46464,2,0,P|323:254|355:225,1,70,2|0,0:0|0:0,0:0:0:0:
344,140,46730,2,0,P|311:155|279:184,1,70,10|0,0:0|0:0,0:0:0:0:
219,129,46995,5,2,0:0:0:0:
219,129,47127,1,2,0:0:0:0:
219,129,47260,2,0,L|172:73,1,70,10|0,0:0|0:0,0:0:0:0:
253,25,47526,5,2,0:0:0:0:
253,25,47658,1,2,0:0:0:0:
253,25,47792,2,0,L|299:80,1,70,10|0,0:0|0:0,0:0:0:0:
357,148,48057,6,0,L|357:218,1,70,2|0,0:0|0:0,0:0:0:0:
438,260,48323,2,0,L|438:190,1,70,10|0,0:0|0:0,0:0:0:0:
437,98,48588,2,0,P|408:64|371:44,1,70,2|0,0:0|0:0,0:0:0:0:
295,49,48854,2,0,P|261:78|241:115,1,70,2|0,0:0|0:0,0:0:0:0:
205,182,49119,5,2,0:0:0:0:
205,182,49251,1,2,0:0:0:0:
205,182,49384,2,0,L|205:265,1,70,10|0,0:0|0:0,0:0:0:0:
297,294,49650,5,2,0:0:0:0:
297,294,49782,1,2,0:0:0:0:
297,294,49915,2,0,L|297:211,1,70,10|0,0:0|0:0,0:0:0:0:
360,157,50181,6,0,L|428:151,1,70,6|0,0:0|0:0,0:0:0:0:
420,60,50447,2,0,L|306:68,1,70,10|0,0:0|0:0,0:0:0:0:
267,102,50712,2,0,P|260:72|262:32,1,70,6|0,0:0|0:0,0:0:0:0:
170,28,50978,2,0,P|163:58|165:97,1,70,10|0,0:0|0:0,0:0:0:0:
78,126,51243,6,0,P|94:152|123:178,1,70,2|0,0:0|0:0,0:0:0:0:
197,231,51508,2,0,P|173:257|144:276,1,70,10|0,0:0|0:0,0:0:0:0:
64,230,51774,2,0,P|52:263|51:297,1,70,2|0,0:0|0:0,0:0:0:0:
116,361,52039,2,0,P|146:362|185:353,1,70,10|0,0:0|0:0,0:0:0:0:
274,335,52305,6,0,P|302:307|314:278,1,70,10|0,0:0|0:0,0:0:0:0:
407,275,52571,2,0,P|407:235|395:206,1,70,10|0,0:0|0:0,0:0:0:0:
472,154,52836,2,0,P|444:125|415:113,1,70,10|0,0:0|0:0,0:0:0:0:
412,21,53102,2,0,P|372:20|343:32,1,70,10|0,0:0|0:0,0:0:0:0:
268,81,53367,6,0,L|222:114,6,35,2|0|0|0|0|0|0,0:0|0:0|0:0|0:0|0:0|0:0|0:0,0:0:0:0:
189,34,53898,2,0,L|73:113,1,140,6|8,0:0|0:0,0:0:0:0:
216,242,54429,5,0,0:0:0:0:
216,242,54562,1,0,0:0:0:0:
216,242,54694,2,0,P|270:267|342:240,1,140,4|0,0:0|0:0,0:0:0:0:
273,179,55093,2,0,P|335:152|398:177,1,140,4|0,0:0|0:0,0:0:0:0:
427,264,55491,2,0,P|384:322|309:351,2,140,4|0|0,0:0|0:0|0:0,0:0:0:0:
216,242,56287,1,8,0:0:0:0:
18,262,56818,6,0,P|64:300|141:292,1,140,6|0,0:0|0:0,0:0:0:0:
93,213,57217,2,0,P|162:202|216:243,1,140,6|0,0:0|0:0,0:0:0:0:
229,332,57615,2,0,P|291:286|295:206,1,140
330,48,58146,2,0,P|269:93|265:173,1,140
93,213,58677,6,0,B|129:209|141:177|141:177|171:203|178:243|178:243|202:201|245:195|245:195|256:253|311:269|311:269|302:211|367:144,1,420,6|8,0:0|0:0,0:0:0:0:
213,35,59739,2,0,P|150:22|78:77,1,140,2|0,0:0|0:0,0:0:0:0:
42,138,60137,2,0,P|105:151|177:96,1,140,2|0,0:0|0:0,0:0:0:0:
241,166,60535,2,8,B|264:137|258:100|258:100|292:118|337:121,1,140,10|8,0:0|0:0,0:0:0:0:
476,221,61066,5,8,0:0:0:0:
300,227,61332,1,0,0:0:0:0:
300,227,61464,1,0,0:0:0:0:
300,227,61597,1,0,0:0:0:0:
297,45,61862,2,0,P|207:73|210:183,1,210,2|0,0:0|0:0,0:0:0:0:
174,262,62393,2,0,P|264:234|270:122,1,210,2|0,0:0|0:0,0:0:0:0:
366,131,62924,6,0,B|366:174|366:174|412:224|412:224|368:269|368:269|368:324,2,210,2|2|10,0:0|0:0|0:0,0:0:0:0:
183,127,63986,2,0,B|183:170|183:170|137:220|137:220|181:265|181:265|181:301,2,210,2|2|10,0:0|0:0|0:0,0:0:0:0:
256,192,65048,12,0,66907,0:0:0:0:
154,86,67172,6,0,B|69:145|69:145|88:219|88:219|61:306|61:306|149:315|149:315|171:227,1,420,6|8,0:0|0:0,0:0:0:0:
310,147,68234,2,0,P|322:83|272:28,1,140,2|0,0:0|0:0,0:0:0:0:
234,110,68632,2,0,P|220:173|261:232,1,140,2|0,0:0|0:0,0:0:0:0:
350,214,69031,1,0,0:0:0:0:
225,345,69296,6,0,L|80:345,1,140,6|0,0:0|0:0,0:0:0:0:
52,259,69694,2,0,L|197:259,1,140,6|0,0:0|0:0,0:0:0:0:
192,167,70093,1,12,0:0:0:0:
370,134,70358,6,0,L|370:279,1,140,6|0,0:0|0:0,0:0:0:0:
284,307,70756,2,0,L|284:162,1,140,6|0,0:0|0:0,0:0:0:0:
192,167,71155,1,12,0:0:0:0:
51,52,71420,6,0,P|41:122|83:186,1,140,2|0,0:0|0:0,0:0:0:0:
142,348,71951,2,0,P|176:288|165:220,1,140,2|0,0:0|0:0,0:0:0:0:
222,48,72482,6,0,L|252:110,1,70,2|0,0:0|0:0,0:0:0:0:
329,62,72747,2,0,L|359:125,1,70,2|0,0:0|0:0,0:0:0:0:
293,189,73013,2,0,L|323:251,1,70,2|0,0:0|0:0,0:0:0:0:
400,203,73278,2,0,L|430:266,1,70,2|0,0:0|0:0,0:0:0:0:
365,331,73544,2,0,P|297:341|243:300,1,140,2|0,0:0|0:0,0:0:0:0:
93,196,74075,6,0,L|86:126,2,70
273,178,74606,2,0,P|283:245|242:299,1,140,2|0,0:0|0:0,0:0:0:0:
165,134,75137,2,0,L|171:64,2,70
344,194,75668,6,0,B|413:126|413:126|413:-9,2,210,6|0|8,0:0|0:0|0:0,0:0:0:0:
161,190,76730,2,0,B|92:122|92:122|92:-13,2,210,6|0|8,0:0|0:0|0:0,0:0:0:0:
256,34,77792,2,0,L|256:255,2,210,6|0|0,0:0|0:0|3:0,0:0:0:0:
256,192,78854,12,0,80181,0:0:0:0:
400,38,80712,5,0,0:0:0:0:
120,35,81243,1,0,0:0:0:0:
257,192,81641,2,0,L|330:192,2,70
257,192,82039,5,0,0:0:0:0:
150,100,82305,1,2,0:0:0:0:
256,358,82836,1,2,0:0:0:0:
256,77,83367,1,2,0:0:0:0:
465,78,83765,2,0,L|479:43,6,35
406,205,84429,5,8,0:0:0:0:
153,84,84960,2,0,L|153:154,1,70,8|0,0:0|0:0,0:0:0:0:
326,273,85491,2,0,L|326:203,1,70,8|0,0:0|0:0,0:0:0:0:
187,222,85889,5,0,0:0:0:0:
131,265,86022,1,0,0:0:0:0:
88,209,86155,1,0,0:0:0:0:
142,166,86287,1,0,0:0:0:0:
254,82,86553,5,0,0:0:0:0:
256,362,87084,1,0,0:0:0:0:
256,192,87349,12,0,88411,0:0:0:0:
255,318,88809,6,0,L|185:311,1,70,2|0,0:0|0:0,0:0:0:0:
298,227,89208,2,0,L|253:173,1,70,2|0,0:0|0:0,0:0:0:0:
393,173,89606,1,0,0:0:0:0:
393,173,89739,2,0,L|393:139,8,35,8|0|0|0|0|0|0|0|0,0:0|0:0|0:0|0:0|0:0|0:0|0:0|0:0|0:0,0:0:0:0:
394,322,90535,6,0,L|394:389,2,35
491,306,90811,2,0,P|394:221|296:305,1,280,6|8,0:0|0:0,0:0:0:0:
389,148,91607,1,0,0:0:0:0:
296,305,91872,2,0,P|223:253|308:110,1,280,6|8,0:0|0:0,0:0:0:0:
479,109,92669,1,0,0:0:0:0:
296,111,92934,6,0,L|207:116,1,70,2|0,0:0|0:0,0:0:0:0:
178,193,93200,2,0,L|89:198,1,70,2|0,0:0|0:0,0:0:0:0:
49,127,93465,2,0,L|44:46,2,70,2|0|8,0:0|0:0|0:0,0:0:0:0:
160,283,93996,5,2,0:0:0:0:
160,283,94129,1,0,0:0:0:0:
160,283,94262,2,0,P|186:316|263:331,1,70,8|0,0:0|0:0,0:0:0:0:
236,241,94527,2,0,P|269:249|304:243,1,70,8|0,0:0|0:3,0:0:0:0:
258,163,94793,2,0,P|287:145|308:116,1,70,8|0,0:0|0:3,0:0:0:0:
225,78,95058,6,0,L|156:62,2,70
167,149,95457,1,0,0:0:0:0:
167,149,95589,2,0,L|87:163,2,70
205,237,95987,1,0,0:0:0:0:
205,237,96119,2,0,L|288:254,2,70
131,289,96518,1,0,0:0:0:0:
131,289,96650,2,0,L|57:317,2,70
208,337,97049,5,0,0:0:0:0:
256,192,97182,12,0,99041,0:0:0:0:
256,192,99306,5,6,0:0:0:0:
256,192,99439,1,0,0:0:0:0:
256,192,99572,2,0,L|351:236,1,70,8|0,0:0|0:0,0:0:0:0:
310,319,99837,1,6,0:0:0:0:
310,319,99970,1,0,0:0:0:0:
310,319,100103,2,0,L|211:283,1,70,8|0,0:0|0:0,0:0:0:0:
163,336,100368,6,0,P|100:307|68:246,1,140,8|0,0:0|0:0,0:0:0:0:
115,168,100766,1,0,0:0:0:0:
196,126,100899,2,0,P|258:154|290:215,1,140,8|0,0:0|0:0,0:0:0:0:
244,295,101297,1,0,0:0:0:0:
176,233,101430,6,0,L|107:162,2,70,2|0|8,0:0|0:0|0:0,0:0:0:0:
316,227,101961,2,0,L|385:298,2,70,2|0|8,0:0|0:0|0:0,0:0:0:0:
267,95,102492,2,0,L|198:24,2,70,2|0|8,0:0|0:0|0:0,0:0:0:0:
342,117,102890,5,0,0:0:0:0:
342,117,103023,2,0,L|419:153,1,70,2|0,0:0|0:0,0:0:0:0:
423,236,103288,2,0,L|346:199,1,70,2|0,0:0|0:0,0:0:0:0:
272,176,103554,6,0,P|219:216|236:281,1,140
147,261,103952,2,0,P|94:220|9:262,1,140
83,309,104350,2,0,P|90:214|113:148,1,140
154,95,104749,6,0,L|242:87,2,70
207,169,105147,2,0,L|274:225,1,70
173,241,105412,2,0,L|181:329,1,70
93,342,105678,6,0,L|5:350,2,70
86,251,106076,1,0,0:0:0:0:
77,160,106209,2,0,L|165:152,2,70
66,69,106607,1,0,0:0:0:0:
156,75,106740,6,0,P|218:125|205:215,1,140,6|0,0:0|0:0,0:0:0:0:
276,100,107138,2,0,L|146:153,1,140,6|0,0:0|0:0,0:0:0:0:
62,188,107536,1,0,0:0:0:0:
256,192,107802,12,0,109660,0:0:0:0:
256,192,109926,6,0,L|244:319,1,70,2|0,0:0|0:0,0:0:0:0:
178,213,110191,1,0,0:0:0:0:
178,213,110324,2,0,L|164:365,1,140,6|0,0:0|0:0,0:0:0:0:
255,366,110722,6,0,L|382:354,1,70,2|0,0:0|0:0,0:0:0:0:
334,272,110987,1,0,0:0:0:0:
334,272,111120,2,0,L|346:132,1,140,6|0,0:0|0:0,0:0:0:0:
419,77,111518,2,0,P|358:36|287:60,1,140,6|0,0:0|0:0,0:0:0:0:
121,98,112049,6,0,L|36:98,1,70,2|0,0:0|0:0,0:0:0:0:
105,172,112315,2,0,L|27:207,1,70,10|0,0:0|0:0,0:0:0:0:
117,252,112580,2,0,L|87:331,1,70,2|0,0:0|0:0,0:0:0:0:
183,320,112846,2,0,L|218:397,1,70,10|0,0:0|0:0,0:0:0:0:
254,303,113111,5,0,0:0:0:0:
240,121,113377,1,8,0:0:0:0:
117,252,113642,1,0,0:0:0:0:
289,192,113908,2,0,L|339:176,2,35,8|0|0,0:0|0:0|0:0,0:0:0:0:
197,186,114173,6,0,B|164:177|164:177|129:154,2,70,2|0|8,0:0|0:0|0:0,0:0:0:0:
247,262,114572,1,0,0:0:0:0:
337,265,114704,2,0,B|343:298|343:298|337:339,2,70,2|0|8,0:0|0:0|0:0,0:0:0:0:
337,173,115103,1,0,0:0:0:0:
427,169,115235,2,2,B|393:107|417:34|417:34|345:34|290:93|290:93|229:33|121:65,1,420,6|2,0:0|0:0,0:0:0:0:
107,228,116297,6,0,L|-15:238,2,70
285,189,116828,2,0,L|407:179,2,70
164,55,117359,2,0,P|96:66|43:123,1,140,2|0,0:0|0:0,0:0:0:0:
131,147,117757,2,0,P|90:202|93:280,1,140,2|0,0:0|0:0,0:0:0:0:
173,232,118156,2,0,L|259:232,1,70,8|0,0:0|0:0,0:0:0:0:
296,160,118421,5,2,0:0:0:0:
296,160,118554,1,0,0:0:0:0:
296,160,118687,2,0,L|304:62,1,70,8|0,0:0|0:0,0:0:0:0:
400,106,118952,1,2,0:0:0:0:
400,106,119085,1,0,0:0:0:0:
400,106,119218,2,0,L|391:203,1,70,8|0,0:0|0:0,0:0:0:0:
382,266,119483,6,0,P|367:300|321:337,2,70,2|0|8,0:0|0:0|0:0,0:0:0:0:
292,248,119881,1,0,0:0:0:0:
202,232,120014,2,0,P|217:198|263:161,2,70,2|0|8,0:0|0:0|0:0,0:0:0:0:
153,311,120412,5,0,0:0:0:0:
153,311,120545,2,0,L|67:296,1,70,2|0,0:0|0:0,0:0:0:0:
45,215,120811,2,0,L|113:227,1,70,2|0,0:0|0:0,0:0:0:0:
202,232,121076,2,0,L|245:156,1,70,2|0,0:0|0:0,0:0:0:0:
197,88,121342,2,0,L|161:148,1,70,2|0,0:0|0:0,0:0:0:0:
202,232,121607,6,0,P|213:300|270:353,1,140,2|0,0:0|0:0,0:0:0:0:
294,265,122005,2,0,P|349:305|427:302,1,140,2|0,0:0|0:0,0:0:0:0:
379,223,122404,2,0,L|379:137,1,70,8|0,0:0|0:0,0:0:0:0:
419,75,122669,5,2,0:0:0:0:
419,75,122802,1,0,0:0:0:0:
419,75,122935,2,0,P|378:69|321:83,1,70,8|0,0:0|0:0,0:0:0:0:
300,151,123200,1,2,0:0:0:0:
300,151,123333,1,0,0:0:0:0:
300,151,123466,2,0,P|259:157|202:142,1,70,8|0,0:0|0:0,0:0:0:0:
159,115,123731,5,0,0:0:0:0:
103,187,123864,1,0,0:0:0:0:
146,266,123996,1,0,0:0:0:0:
324,305,124262,5,0,0:0:0:0:
380,233,124395,1,0,0:0:0:0:
337,154,124527,1,0,0:0:0:0:
488,52,124793,6,0,L|488:9,2,35,2|0|0,0:0|0:0|0:0,0:0:0:0:
447,133,125058,2,0,L|447:174,2,35,2|0|0,0:0|0:0|0:0,0:0:0:0:
386,63,125324,2,0,L|344:63,2,35,2|0|0,0:0|0:0|0:0,0:0:0:0:
348,146,125589,2,0,L|313:146,2,35,2|0|0,0:0|0:0|0:0,0:0:0:0:
380,233,125855,6,0,L|380:268,2,35,2|0|0,0:0|0:0|0:0,0:0:0:0:
287,231,126120,2,0,L|262:255,2,35,2|0|0,0:0|0:0|0:0,0:0:0:0:
234,155,126386,2,0,L|199:155,2,35,2|0|0,0:0|0:0|0:0,0:0:0:0:
236,63,126651,2,0,L|211:38,2,35,2|0|0,0:0|0:0|0:0,0:0:0:0:
318,104,126917,6,0,L|348:74,2,35,2|0|0,0:0|0:0|0:0,0:0:0:0:
373,176,127182,2,0,L|414:175,2,35,2|0|0,0:0|0:0|0:0,0:0:0:0:
305,237,127448,2,0,L|270:237,2,35,2|0|0,0:0|0:0|0:0,0:0:0:0:
359,310,127713,2,0,L|334:334,2,35,2|0|0,0:0|0:0|0:0,0:0:0:0:
427,248,127979,6,0,P|461:234|482:200,2,70,2|0|0,0:0|0:0|0:0,0:0:0:0:
393,163,128377,1,0,0:0:0:0:
241,62,128642,6,0,L|155:62,2,70
332,63,129041,2,0,P|365:71|398:98,1,70,2|0,0:0|0:0,0:0:0:0:
396,183,129306,2,0,P|387:216|360:249,1,70,2|0,0:0|0:0,0:0:0:0:
275,243,129572,2,0,P|242:235|209:208,1,70,2|0,0:0|0:0,0:0:0:0:
211,123,129837,2,0,P|219:89|246:56,1,70,2|0,0:0|0:0,0:0:0:0:
294,135,130103,6,0,P|316:165|322:210,1,70,2|0,0:0|0:0,0:0:0:0:
231,194,130368,2,0,P|209:224|203:269,1,70,2|0,0:0|0:0,0:0:0:0:
291,278,130634,2,0,P|283:311|262:339,1,70,2|0,0:0|0:0,0:0:0:0:
171,342,130899,2,0,P|137:331|112:307,1,70,2|0,0:0|0:0,0:0:0:0:
128,218,131164,6,0,L|95:185,2,35,2|0|0,0:0|0:0|0:0,0:0:0:0:
216,241,131430,1,2,0:0:0:0:
292,191,131563,2,0,L|325:158,2,35,2|0|0,0:0|0:0|0:0,0:0:0:0:
134,99,131961,5,0,0:0:0:0:
181,21,132094,1,0,0:0:0:0:
223,99,132226,2,0,P|131:195|335:226,1,420
243,208,133156,6,0,L|279:140,2,70
404,291,133687,2,0,L|368:359,2,70
322,255,134085,1,0,0:0:0:0:
158,176,134350,2,0,L|122:244,1,70
210,269,134616,2,0,L|246:201,1,70
103,95,135014,5,0,0:0:0:0:
103,95,135147,2,0,L|201:41,1,70
245,102,135412,1,0,0:0:0:0:
245,102,135545,2,0,L|306:69,1,70
394,94,135811,2,0,P|424:158|378:227,1,140
323,160,136209,5,0,0:0:0:0:
323,160,136341,2,0,L|257:199,1,70
139,330,136740,2,0,L|200:294,1,70
116,256,137005,2,0,L|161:202,1,70
69,194,137271,2,0,L|103:125,1,70
162,64,137536,6,0,B|208:55|208:55|333:134,1,140
230,177,137934,2,0,B|267:205|267:205|352:168,1,140
386,82,138333,2,0,B|425:108|425:108|457:253,1,140,0|0,3:0|3:0,3:0:0:0:
361,361,138864,6,0,L|312:304,1,70
258,236,139129,2,0,P|276:207|306:185,1,70
232,131,139395,2,0,P|204:151|184:180,1,70
157,267,139660,6,0,B|104:228|104:228|98:156|98:156|53:111|53:111|91:6,1,280,6|2,0:0|0:0,0:0:0:0:
262,41,140457,2,0,L|216:146,1,70
317,142,140722,5,0,0:0:0:0:
317,142,140855,1,0,0:0:0:0:
149,71,141120,2,0,L|115:149,1,70,8|0,0:0|0:0,0:0:0:0:
197,186,141386,1,0,0:0:0:0:
197,186,141518,2,0,L|170:251,1,70,8|0,0:0|0:0,0:0:0:0:
244,304,141784,6,0,L|333:280,2,70,2|0|0,0:0|0:0|0:0,0:0:0:0:
154,287,142182,1,0,0:0:0:0:
320,360,142448,2,0,P|366:347|394:317,2,70,2|0|0,0:0|0:0|0:0,0:0:0:0:
228,361,142846,6,0,L|155:356,1,70
114,276,143111,2,0,L|187:282,1,70
247,214,143377,2,0,L|175:209,1,70
139,126,143642,2,0,L|212:132,1,70
299,144,143908,6,0,P|327:167|341:203,1,70
290,274,144173,2,0,P|313:302|349:316,1,70
436,311,144439,2,0,P|464:288|478:252,1,70
477,167,144704,2,0,P|463:136|436:114,1,70
353,84,144970,5,2,0:0:0:0:
353,84,145103,1,0,0:0:0:0:
353,84,145235,2,0,L|304:144,1,70
235,193,145501,2,0,P|220:163|218:120,1,70
132,161,145766,2,0,P|134:196|150:227,1,70
214,291,146032,5,2,0:0:0:0:
378,213,146297,1,8,0:0:0:0:
231,103,146563,1,2,0:0:0:0:
83,206,146828,1,8,0:0:0:0:
83,206,146961,2,0,P|161:194|238:219,1,140
304,240,147359,5,8,0:0:0:0:
124,273,147625,2,0,L|132:349,1,70
221,328,147890,1,8,0:0:0:0:
221,328,148023,2,0,B|221:253|221:253|221:189|284:163|284:163|200:108|239:13,1,350
419,33,148952,5,8,0:0:0:0:
419,33,149085,2,0,B|452:113|368:168|368:168|431:194|431:258|431:258|431:333,1,350
500,182,150014,5,0,0:0:0:0:
347,82,150280,2,0,P|280:60|214:81,1,140
365,182,150811,1,2,0:0:0:0:
274,183,150943,1,0,0:0:0:0:
182,184,151076,1,8,0:0:0:0:
19,264,151341,2,0,L|116:264,1,70,2|0,0:0|0:0,0:0:0:0:
160,321,151607,2,0,L|205:321,6,35,8|0|0|0|0|0|0,0:0|0:0|0:0|0:0|0:0|0:0|0:0,0:0:0:0:
296,223,152138,6,0,L|337:162,1,65,8|0,0:0|0:0,0:0:0:0:
383,93,152403,1,8,0:0:0:0:
311,36,152536,1,8,0:0:0:0:
254,191,153200,5,0,0:0:0:0:
369,112,153465,2,0,B|415:171|415:171|415:321,2,210
254,191,154527,2,0,B|195:237|195:237|45:237,2,210
256,33,155589,6,0,L|105:103,1,140
265,24,208687,6,0,L|367:28,1,70
381,105,208952,2,0,L|279:101,1,70
233,151,209218,6,0,L|229:253,1,70
152,267,209483,2,0,L|156:165,1,70
122,110,209749,6,0,P|95:117|52:112,1,70
87,28,210014,2,0,P|52:23|18:31,1,70
177,41,210280,6,0,P|211:36|245:44,1,70
285,127,210545,2,0,P|250:131|216:123,1,70
122,110,210811,6,0,L|119:179,1,70
45,126,211076,2,0,L|41:228,1,70
99,267,211342,6,0,P|136:260|185:270,1,70
218,339,211607,2,0,P|181:346|132:336,1,70
57,347,211873,6,0,P|29:325|10:296,1,70
52,216,212138,2,0,P|79:237|98:266,1,70
135,183,212403,6,0,P|156:155|185:136,1,70
266,178,212668,2,0,P|244:205|215:224,1,70
283,141,219306,6,0,L|360:125,1,70
185,202,219704,2,0,L|116:187,1,70
290,244,220103,2,0,L|367:228,1,70
497,347,220501,6,0,L|428:361,1,70
252,312,220899,1,0,0:0:0:0:
146,164,221164,1,0,0:0:0:0:
326,138,221430,2,0,B|325:54|325:54|276:12,1,140
356,81,227802,5,0,0:0:0:0:
177,46,228067,1,0,0:0:0:0:
288,190,228333,5,0,0:0:0:0:
140,295,228598,1,0,0:0:0:0:
321,316,228864,5,0,0:0:0:0:
173,211,229129,1,0,0:0:0:0:
213,33,229395,1,0,0:0:0:0:
300,56,229527,1,0,0:0:0:0:
387,81,229660,2,0,L|472:106,1,70
