osu file format v14

[General]
AudioFilename: audio.mp3
AudioLeadIn: 0
PreviewTime: 5533
Countdown: 0
SampleSet: Normal
StackLeniency: 0.7
Mode: 1
LetterboxInBreaks: 0
WidescreenStoryboard: 1

[Editor]
Bookmarks: 968
DistanceSpacing: 1.1
BeatDivisor: 3
GridSize: 8
TimelineZoom: 2.299999

[Metadata]
Title:BRIDAL FESTIVAL !!!
TitleUnicode:BRIDAL FESTIVAL !!!
Artist:S.S.D. feat. Nanacchi
ArtistUnicode:S.S.D. feat. ななっち
Creator:Coryn
Version:MUZUKASHII !!!
Source:beatmania IIDX 16 EMPRESS
Tags:Kanari Tansyo Boys and Girls Choir of Kahoku Shigeru Kowada Mottie HAPPY JIG KONAMI FANTASCAPE - act.1 FANTASICA Arata Iiyoshi instrumental videogame
BeatmapID:2277387
BeatmapSetID:1089246

[Difficulty]
HPDrainRate:6
CircleSize:5
OverallDifficulty:4.5
ApproachRate:5
SliderMultiplier:1.4
SliderTickRate:1

[Events]
//Background and Video events
0,0,"final3.png",0,-50
//Break Periods
//Storyboard Layer 0 (Background)
//Storyboard Layer 1 (Fail)
//Storyboard Layer 2 (Pass)
//Storyboard Layer 3 (Foreground)
//Storyboard Layer 4 (Overlay)
//Storyboard Sound Samples

[TimingPoints]
603,434.782608695652,4,1,0,65,1,0
91037,-96.1538461538461,4,1,0,65,0,1
104950,-96.1538461538461,4,1,0,65,0,0
105385,-100,4,1,0,65,0,0
111907,-96.1538461538461,4,1,0,65,0,1
117124,-96.1538461538461,4,1,0,65,0,0

[HitObjects]
323,125,603,5,8,0:0:0:0:
326,143,2342,1,8,0:0:0:0:
385,153,4081,1,8,0:0:0:0:
352,163,4950,1,8,0:0:0:0:
180,119,5095,1,8,0:0:0:0:
434,130,5240,1,8,0:0:0:0:
434,130,5385,1,8,0:0:0:0:
428,122,5820,1,12,0:0:0:0:
294,127,6255,1,8,0:0:0:0:
294,116,6689,1,0,0:0:0:0:
308,153,7559,1,4,0:0:0:0:
232,89,7994,1,0,0:0:0:0:
238,87,8429,1,0,0:0:0:0:
201,107,8863,1,8,0:0:0:0:
209,89,9008,1,8,0:0:0:0:
238,87,9153,1,8,0:0:0:0:
238,87,9298,1,0,0:0:0:0:
335,92,9733,1,8,0:0:0:0:
335,92,10168,1,0,0:0:0:0:
241,69,10602,1,8,0:0:0:0:
297,98,10747,1,8,0:0:0:0:
356,107,10892,1,8,0:0:0:0:
259,66,11037,1,4,0:0:0:0:
276,69,11472,1,8,0:0:0:0:
302,112,11907,1,0,0:0:0:0:
265,130,12342,1,8,0:0:0:0:
265,130,12487,1,8,0:0:0:0:
265,130,12631,1,8,0:0:0:0:
265,130,12776,1,0,0:0:0:0:
346,122,13211,1,8,0:0:0:0:
160,168,13646,1,0,0:0:0:0:
15,113,14081,1,0,0:0:0:0:
139,116,14516,1,4,0:0:0:0:
259,122,14950,1,0,0:0:0:0:
261,110,15385,1,0,0:0:0:0:
251,87,15820,1,8,0:0:0:0:
192,67,15965,1,8,0:0:0:0:
192,67,16110,1,8,0:0:0:0:
192,67,16255,1,0,0:0:0:0:
352,104,16689,1,8,0:0:0:0:
285,92,17124,1,0,0:0:0:0:
285,84,17559,1,8,0:0:0:0:
280,83,17704,1,8,0:0:0:0:
280,83,17849,1,8,0:0:0:0:
280,83,17994,1,4,0:0:0:0:
355,102,18429,1,8,0:0:0:0:
197,42,18863,1,0,0:0:0:0:
288,75,19298,1,8,0:0:0:0:
288,75,19443,1,8,0:0:0:0:
288,75,19588,1,8,0:0:0:0:
288,75,19733,1,0,0:0:0:0:
355,102,20168,1,8,0:0:0:0:
286,72,20602,1,0,0:0:0:0:
286,72,21472,1,12,0:0:0:0:
331,107,21907,1,8,0:0:0:0:
224,98,22342,1,8,0:0:0:0:
224,92,22776,1,0,0:0:0:0:
256,60,23066,1,0,0:0:0:0:
224,90,23211,1,8,0:0:0:0:
230,48,23646,1,8,0:0:0:0:
230,48,24081,1,8,0:0:0:0:
279,63,24371,1,8,0:0:0:0:
232,46,24516,1,8,0:0:0:0:
276,116,24950,1,12,0:0:0:0:
306,98,25385,1,8,0:0:0:0:
306,98,25820,1,8,0:0:0:0:
303,96,26255,1,0,0:0:0:0:
303,96,26545,1,0,0:0:0:0:
303,96,26689,1,8,0:0:0:0:
282,89,27124,1,0,0:0:0:0:
282,89,27559,1,8,0:0:0:0:
128,104,27994,1,0,0:0:0:0:
320,139,28429,1,12,0:0:0:0:
245,63,28863,1,8,0:0:0:0:
245,63,29298,1,8,0:0:0:0:
241,95,29733,1,0,0:0:0:0:
241,95,30023,1,0,0:0:0:0:
241,95,30168,1,8,0:0:0:0:
337,72,30602,1,8,0:0:0:0:
335,127,31037,1,8,0:0:0:0:
311,90,31327,1,8,0:0:0:0:
311,90,31472,1,8,0:0:0:0:
291,96,31907,1,12,0:0:0:0:
282,77,32342,1,8,0:0:0:0:
294,92,32776,1,8,0:0:0:0:
268,81,33211,1,0,0:0:0:0:
268,81,33646,1,8,0:0:0:0:
317,87,33936,1,8,0:0:0:0:
317,87,34081,1,8,0:0:0:0:
315,84,34371,1,0,0:0:0:0:
315,84,34516,1,0,0:0:0:0:
300,133,35385,1,4,0:0:0:0:
199,113,35675,1,8,0:0:0:0:
84,110,36255,1,0,0:0:0:0:
273,95,37124,1,0,0:0:0:0:
251,101,37994,1,0,0:0:0:0:
251,101,38284,1,0,0:0:0:0:
251,101,38429,1,8,0:0:0:0:
253,98,38863,1,0,0:0:0:0:
160,142,39153,1,8,0:0:0:0:
76,151,39733,1,0,0:0:0:0:
261,83,40602,5,0,0:0:0:0:
226,52,41327,1,8,0:0:0:0:
239,72,41472,1,8,0:0:0:0:
308,115,41907,1,8,0:0:0:0:
311,67,42342,1,0,0:0:0:0:
282,67,42776,1,8,0:0:0:0:
159,73,43066,1,8,0:0:0:0:
437,98,43211,1,8,0:0:0:0:
332,102,44081,1,0,0:0:0:0:
332,84,44516,1,8,0:0:0:0:
136,95,44805,1,8,0:0:0:0:
335,81,44950,1,8,0:0:0:0:
265,75,45820,1,0,0:0:0:0:
265,75,46255,1,8,0:0:0:0:
132,66,46545,1,8,0:0:0:0:
265,75,46689,1,8,0:0:0:0:
273,52,47559,1,0,0:0:0:0:
332,98,47994,1,8,0:0:0:0:
332,98,48429,1,8,0:0:0:0:
332,98,48863,1,8,0:0:0:0:
331,92,49298,1,0,0:0:0:0:
405,104,49733,1,0,0:0:0:0:
405,104,50023,1,0,0:0:0:0:
405,104,50458,1,0,0:0:0:0:
387,90,50602,1,0,0:0:0:0:
387,90,50892,1,0,0:0:0:0:
387,90,51037,1,0,0:0:0:0:
321,119,51472,1,0,0:0:0:0:
191,54,51762,1,0,0:0:0:0:
381,145,51907,1,0,0:0:0:0:
338,119,52776,1,0,0:0:0:0:
338,113,53211,1,0,0:0:0:0:
261,72,53501,1,0,0:0:0:0:
387,98,53936,1,0,0:0:0:0:
387,98,54081,1,0,0:0:0:0:
373,96,54371,1,0,0:0:0:0:
367,96,54516,1,0,0:0:0:0:
358,96,54950,1,0,0:0:0:0:
300,63,55240,1,0,0:0:0:0:
300,63,55385,1,0,0:0:0:0:
294,104,56255,1,0,0:0:0:0:
209,52,56689,1,0,0:0:0:0:
238,78,56979,1,0,0:0:0:0:
238,78,57414,1,0,0:0:0:0:
238,78,57559,1,0,0:0:0:0:
288,98,57849,1,0,0:0:0:0:
288,98,57994,1,0,0:0:0:0:
331,96,58429,1,0,0:0:0:0:
331,96,58718,1,0,0:0:0:0:
332,57,58863,1,0,0:0:0:0:
233,63,59733,1,0,0:0:0:0:
300,116,60168,1,0,0:0:0:0:
300,116,60458,1,0,0:0:0:0:
302,110,60892,1,0,0:0:0:0:
302,110,61037,1,0,0:0:0:0:
332,107,61327,1,0,0:0:0:0:
337,107,61472,1,0,0:0:0:0:
364,96,61907,1,0,0:0:0:0:
191,54,62197,1,0,0:0:0:0:
191,54,62342,1,8,0:0:0:0:
300,63,62776,1,12,0:0:0:0:
308,94,63211,1,4,0:0:0:0:
226,102,64081,1,0,0:0:0:0:
378,127,64516,1,0,0:0:0:0:
331,122,64805,1,0,0:0:0:0:
381,123,64950,1,8,0:0:0:0:
279,97,65675,1,0,0:0:0:0:
337,123,65820,1,0,0:0:0:0:
226,97,66255,1,12,0:0:0:0:
317,136,66545,1,0,0:0:0:0:
265,100,66689,1,8,0:0:0:0:
329,88,67559,1,0,0:0:0:0:
276,100,67994,1,0,0:0:0:0:
291,110,68284,1,0,0:0:0:0:
276,100,68429,1,8,0:0:0:0:
72,142,69153,1,0,0:0:0:0:
279,97,69298,1,0,0:0:0:0:
279,97,69733,1,4,0:0:0:0:
302,92,70023,1,0,0:0:0:0:
302,92,70168,1,8,0:0:0:0:
302,92,71037,1,0,0:0:0:0:
302,88,71472,1,0,0:0:0:0:
244,151,71762,1,0,0:0:0:0:
302,88,71907,1,8,0:0:0:0:
271,86,72631,1,0,0:0:0:0:
271,86,72776,1,0,0:0:0:0:
271,86,73211,1,12,0:0:0:0:
279,101,73501,5,0,0:0:0:0:
130,140,73646,1,8,0:0:0:0:
241,147,74516,1,0,0:0:0:0:
241,147,74950,1,0,0:0:0:0:
241,147,75240,1,0,0:0:0:0:
241,147,75385,1,8,0:0:0:0:
322,106,76110,1,0,0:0:0:0:
322,106,76255,1,0,0:0:0:0:
320,103,76689,1,4,0:0:0:0:
317,103,76979,1,0,0:0:0:0:
182,36,77124,1,8,0:0:0:0:
326,88,77559,1,8,0:0:0:0:
341,77,77994,1,8,0:0:0:0:
285,120,78429,1,0,0:0:0:0:
326,97,78863,1,8,0:0:0:0:
331,82,79298,1,8,0:0:0:0:
335,82,79733,1,8,0:0:0:0:
326,97,80602,1,8,0:0:0:0:
326,94,81037,1,8,0:0:0:0:
247,68,81472,1,8,0:0:0:0:
247,68,81907,1,0,0:0:0:0:
326,97,82342,1,8,0:0:0:0:
253,74,82776,1,0,0:0:0:0:
306,77,83211,1,8,0:0:0:0:
311,74,83646,1,0,0:0:0:0:
326,97,84081,1,12,0:0:0:0:
337,88,84950,1,0,0:0:0:0:
337,88,85095,1,0,0:0:0:0:
337,88,85240,1,0,0:0:0:0:
337,88,85385,1,0,0:0:0:0:
337,88,85820,1,12,0:0:0:0:
337,88,86255,1,8,0:0:0:0:
337,88,86689,1,0,0:0:0:0:
352,91,87124,1,8,0:0:0:0:
352,91,87269,1,8,0:0:0:0:
352,91,87414,1,8,0:0:0:0:
352,91,87559,1,0,0:0:0:0:
332,82,88429,1,12,0:0:0:0:
336,88,89298,1,8,0:0:0:0:
336,88,89733,1,8,0:0:0:0:
336,88,90168,1,0,0:0:0:0:
295,99,91037,1,4,0:0:0:0:
321,133,91472,1,0,0:0:0:0:
303,96,91907,1,0,0:0:0:0:
356,96,92342,1,8,0:0:0:0:
224,102,92487,1,8,0:0:0:0:
431,102,92631,1,8,0:0:0:0:
426,122,92776,1,0,0:0:0:0:
326,104,93211,1,0,0:0:0:0:
261,43,93646,1,0,0:0:0:0:
259,57,94081,1,8,0:0:0:0:
259,57,94226,1,8,0:0:0:0:
355,107,94371,1,8,0:0:0:0:
355,107,94516,1,4,0:0:0:0:
241,69,94950,1,8,0:0:0:0:
244,67,95385,1,8,0:0:0:0:
251,148,95675,1,0,0:0:0:0:
244,67,95820,1,8,0:0:0:0:
244,67,96255,1,8,0:0:0:0:
250,64,96689,1,8,0:0:0:0:
306,63,96979,1,8,0:0:0:0:
306,63,97124,1,8,0:0:0:0:
291,58,97994,1,4,0:0:0:0:
250,119,98429,1,0,0:0:0:0:
372,99,98863,1,0,0:0:0:0:
358,93,99298,1,8,0:0:0:0:
358,93,99443,1,8,0:0:0:0:
396,99,99588,1,8,0:0:0:0:
396,99,99733,1,0,0:0:0:0:
338,84,100168,1,0,0:0:0:0:
358,96,100602,1,0,0:0:0:0:
358,96,101037,1,8,0:0:0:0:
358,96,101182,1,8,0:0:0:0:
370,81,101327,1,8,0:0:0:0:
370,81,101472,1,4,0:0:0:0:
259,78,101907,1,8,0:0:0:0:
273,102,102342,1,8,0:0:0:0:
405,79,102631,1,0,0:0:0:0:
288,146,102776,1,8,0:0:0:0:
288,146,103211,1,8,0:0:0:0:
288,133,103646,1,8,0:0:0:0:
294,122,103936,1,8,0:0:0:0:
294,122,104081,1,8,0:0:0:0:
306,122,104516,1,8,0:0:0:0:
306,122,104660,1,8,0:0:0:0:
306,122,104805,1,8,0:0:0:0:
361,87,104950,1,4,0:0:0:0:
238,183,105385,1,8,0:0:0:0:
244,178,105820,1,8,0:0:0:0:
366,90,106689,1,8,0:0:0:0:
366,90,107124,1,0,0:0:0:0:
366,90,107559,1,8,0:0:0:0:
366,90,108429,1,12,0:0:0:0:
414,93,108863,1,8,0:0:0:0:
396,87,109298,1,8,0:0:0:0:
393,84,109588,1,0,0:0:0:0:
393,84,109733,1,8,0:0:0:0:
332,58,110168,1,8,0:0:0:0:
303,61,110602,1,8,0:0:0:0:
271,63,110892,1,8,0:0:0:0:
271,63,111037,1,8,0:0:0:0:
311,67,111472,1,8,0:0:0:0:
311,67,111907,1,4,0:0:0:0:
422,95,112197,1,8,0:0:0:0:
358,111,112342,1,0,0:0:0:0:
428,104,112631,1,8,0:0:0:0:
358,111,112776,1,0,0:0:0:0:
376,92,113646,1,0,0:0:0:0:
431,102,113936,1,8,0:0:0:0:
300,87,114081,1,0,0:0:0:0:
431,102,114371,1,8,0:0:0:0:
300,87,114516,1,0,0:0:0:0:
315,92,115385,1,4,0:0:0:0:
431,96,115675,1,8,0:0:0:0:
247,76,115820,1,0,0:0:0:0:
303,81,116255,1,8,0:0:0:0:
230,52,116400,1,0,0:0:0:0:
230,52,116545,1,0,0:0:0:0:
230,52,116689,1,8,0:0:0:0:
216,55,117124,1,12,0:0:0:0:
