osu file format v14

[General]
AudioFilename: audio.mp3
AudioLeadIn: 0
PreviewTime: 5533
Countdown: 0
SampleSet: Normal
StackLeniency: 0.7
Mode: 1
LetterboxInBreaks: 0
WidescreenStoryboard: 1

[Editor]
Bookmarks: 968
DistanceSpacing: 1.4
BeatDivisor: 12
GridSize: 8
TimelineZoom: 1.8

[Metadata]
Title:BRIDAL FESTIVAL !!!
TitleUnicode:BRIDAL FESTIVAL !!!
Artist:S.S.D. feat. Nanacchi
ArtistUnicode:S.S.D. feat. ななっち
Creator:Coryn
Version:KANTAN !!!
Source:beatmania IIDX 16 EMPRESS
Tags:Kanari Tansyo Boys and Girls Choir of Kahoku Shigeru Kowada Mottie HAPPY JIG KONAMI FANTASCAPE - act.1 FANTASICA Arata Iiyoshi instrumental videogame
BeatmapID:2277386
BeatmapSetID:1089246

[Difficulty]
HPDrainRate:7
CircleSize:5
OverallDifficulty:3.5
ApproachRate:5
SliderMultiplier:1.4
SliderTickRate:1

[Events]
//Background and Video events
0,0,"final1.jpg",0,-30
//Break Periods
//Storyboard Layer 0 (Background)
//Storyboard Layer 1 (Fail)
//Storyboard Layer 2 (Pass)
//Storyboard Layer 3 (Foreground)
//Storyboard Layer 4 (Overlay)
//Storyboard Sound Samples

[TimingPoints]
603,434.782608695652,4,1,0,65,1,0
91037,-98.0392156862745,4,1,0,65,0,1
104950,-98.0392156862745,4,1,0,65,0,0
105385,-100,4,1,0,65,0,0
111907,-98.0392156862745,4,1,0,65,0,1
117124,-98.0392156862745,4,1,0,65,0,0

[HitObjects]
323,125,603,5,8,0:0:0:0:
326,143,2342,1,8,0:0:0:0:
385,153,4081,1,8,0:0:0:0:
352,163,4950,1,8,0:0:0:0:
428,122,5820,1,12,0:0:0:0:
294,116,6689,1,0,0:0:0:0:
308,153,7559,1,4,0:0:0:0:
238,87,8429,1,0,0:0:0:0:
256,96,8863,1,8,0:0:0:0:
238,87,9298,1,0,0:0:0:0:
241,69,10602,1,8,0:0:0:0:
259,66,11037,1,4,0:0:0:0:
265,130,12342,1,8,0:0:0:0:
159,116,12776,1,0,0:0:0:0:
162,104,14081,1,0,0:0:0:0:
139,116,14516,1,4,0:0:0:0:
215,34,14950,1,8,0:0:0:0:
251,87,15820,1,8,0:0:0:0:
192,67,16255,1,0,0:0:0:0:
285,84,17559,1,8,0:0:0:0:
280,83,17994,1,4,0:0:0:0:
256,104,19298,1,8,0:0:0:0:
288,75,19733,1,0,0:0:0:0:
286,72,21472,1,12,0:0:0:0:
224,98,22342,1,8,0:0:0:0:
224,90,23211,1,8,0:0:0:0:
337,101,24516,1,8,0:0:0:0:
276,116,24950,1,12,0:0:0:0:
306,98,25820,1,8,0:0:0:0:
303,96,26689,1,8,0:0:0:0:
282,107,27994,1,0,0:0:0:0:
320,139,28429,1,12,0:0:0:0:
245,63,29298,1,8,0:0:0:0:
241,95,30168,1,8,0:0:0:0:
311,90,31472,1,8,0:0:0:0:
291,96,31907,1,12,0:0:0:0:
294,92,32776,1,8,0:0:0:0:
268,81,33646,1,8,0:0:0:0:
317,87,34081,1,8,0:0:0:0:
315,84,34516,1,0,0:0:0:0:
300,133,35385,1,4,0:0:0:0:
273,95,37124,1,0,0:0:0:0:
251,101,38429,1,8,0:0:0:0:
253,98,38863,1,0,0:0:0:0:
261,83,40602,5,0,0:0:0:0:
308,115,41907,1,8,0:0:0:0:
311,67,42342,1,0,0:0:0:0:
437,98,43211,1,8,0:0:0:0:
332,102,44081,1,0,0:0:0:0:
335,81,44950,1,8,0:0:0:0:
265,75,45820,1,0,0:0:0:0:
265,75,46689,1,8,0:0:0:0:
273,52,47559,1,0,0:0:0:0:
331,92,49298,1,0,0:0:0:0:
405,104,49733,1,0,0:0:0:0:
387,90,50602,1,0,0:0:0:0:
321,119,51037,1,0,0:0:0:0:
381,145,51907,1,0,0:0:0:0:
338,119,52776,1,0,0:0:0:0:
261,72,53211,1,0,0:0:0:0:
141,117,54081,1,0,0:0:0:0:
367,96,54516,1,0,0:0:0:0:
294,104,56255,1,0,0:0:0:0:
238,78,56689,1,0,0:0:0:0:
238,20,57559,1,0,0:0:0:0:
288,98,57994,1,0,0:0:0:0:
332,57,58863,1,0,0:0:0:0:
233,63,59733,1,0,0:0:0:0:
300,116,60168,1,0,0:0:0:0:
159,87,61037,1,0,0:0:0:0:
337,107,61472,1,0,0:0:0:0:
226,41,61907,1,0,0:0:0:0:
191,54,62342,1,0,0:0:0:0:
308,94,63211,1,4,0:0:0:0:
381,123,64950,1,8,0:0:0:0:
140,136,66255,1,12,0:0:0:0:
265,100,66689,1,8,0:0:0:0:
276,100,68429,1,8,0:0:0:0:
56,110,69733,1,4,0:0:0:0:
302,92,70168,1,8,0:0:0:0:
302,88,71907,1,8,0:0:0:0:
146,130,73211,1,12,0:0:0:0:
130,141,73646,1,8,0:0:0:0:
241,147,75385,1,8,0:0:0:0:
320,103,76689,1,4,0:0:0:0:
182,36,77124,1,8,0:0:0:0:
341,77,77994,1,8,0:0:0:0:
326,97,78863,1,8,0:0:0:0:
335,82,79733,1,8,0:0:0:0:
326,97,80602,1,8,0:0:0:0:
247,68,81472,1,8,0:0:0:0:
326,97,82342,1,8,0:0:0:0:
306,77,83211,1,8,0:0:0:0:
326,97,84081,1,12,0:0:0:0:
337,88,85820,1,12,0:0:0:0:
337,88,86689,1,0,0:0:0:0:
352,91,87124,1,8,0:0:0:0:
352,91,87559,1,0,0:0:0:0:
332,82,88429,1,12,0:0:0:0:
336,88,89298,1,8,0:0:0:0:
336,88,90168,1,0,0:0:0:0:
295,99,91037,1,4,0:0:0:0:
145,148,91907,1,0,0:0:0:0:
356,96,92342,1,8,0:0:0:0:
426,122,92776,1,0,0:0:0:0:
259,57,94081,1,8,0:0:0:0:
355,107,94516,1,4,0:0:0:0:
244,67,95385,1,8,0:0:0:0:
244,67,96255,1,8,0:0:0:0:
250,64,96689,1,8,0:0:0:0:
306,63,97124,1,8,0:0:0:0:
291,58,97994,1,4,0:0:0:0:
372,99,98863,1,0,0:0:0:0:
358,93,99298,1,8,0:0:0:0:
396,99,99733,1,0,0:0:0:0:
358,96,101037,1,8,0:0:0:0:
370,81,101472,1,4,0:0:0:0:
273,102,102342,1,8,0:0:0:0:
288,146,103211,1,8,0:0:0:0:
288,133,103646,1,8,0:0:0:0:
294,122,104081,1,8,0:0:0:0:
361,87,104950,1,4,0:0:0:0:
366,90,106689,1,0,0:0:0:0:
366,90,108429,1,12,0:0:0:0:
332,58,110168,1,8,0:0:0:0:
303,61,110602,1,8,0:0:0:0:
271,63,111037,1,8,0:0:0:0:
311,67,111907,1,4,0:0:0:0:
358,111,112776,1,0,0:0:0:0:
376,92,113646,1,0,0:0:0:0:
300,87,114516,1,0,0:0:0:0:
315,92,115385,1,4,0:0:0:0:
303,81,116255,1,8,0:0:0:0:
230,52,116689,1,8,0:0:0:0:
216,55,117124,1,12,0:0:0:0:
