osu file format v14

[General]
AudioFilename: audio.mp3
AudioLeadIn: 0
PreviewTime: 5533
Countdown: 0
SampleSet: Normal
StackLeniency: 0.7
Mode: 1
LetterboxInBreaks: 0
WidescreenStoryboard: 0

[Editor]
Bookmarks: 968
DistanceSpacing: 1.4
BeatDivisor: 12
GridSize: 8
TimelineZoom: 2.999999

[Metadata]
Title:BRIDAL FESTIVAL !!!
TitleUnicode:BRIDAL FESTIVAL !!!
Artist:S.S.D. feat. Nanacchi
ArtistUnicode:S.S.D. feat. ななっち
Creator:Coryn
Version:INNER ONI !!!
Source:beatmania IIDX 16 EMPRESS
Tags:Kanari Tansyo Boys and Girls Choir of Kahoku Shigeru Kowada Mottie HAPPY JIG KONAMI FANTASCAPE - act.1 FANTASICA Arata Iiyoshi instrumental videogame
BeatmapID:2277385
BeatmapSetID:1089246

[Difficulty]
HPDrainRate:5
CircleSize:5
OverallDifficulty:5.5
ApproachRate:5
SliderMultiplier:1.4
SliderTickRate:1

[Events]
//Background and Video events
0,0,"final5.png",0,90
//Break Periods
//Storyboard Layer 0 (Background)
//Storyboard Layer 1 (Fail)
//Storyboard Layer 2 (Pass)
//Storyboard Layer 3 (Foreground)
//Storyboard Layer 4 (Overlay)
//Storyboard Sound Samples

[TimingPoints]
603,434.782608695652,4,1,0,65,1,0
603,-166.666666666667,4,1,0,65,0,0
4733,-105.263157894737,4,1,0,65,0,0
7124,-104.166666666667,4,1,0,65,0,0
7269,-103.626943005181,4,1,0,65,0,0
7414,-102.040816326531,4,1,0,65,0,0
7559,-100,4,1,0,65,0,0
47994,-97.5609756097561,4,1,0,65,0,0
48429,-100,4,1,0,65,0,0
48863,-105.263157894737,4,1,0,65,0,0
49298,-111.111111111111,4,1,0,65,0,0
63211,-117.647058823529,4,1,0,65,0,0
76979,-125,4,1,0,65,0,0
84081,-100,4,1,0,65,0,0
90023,-99.009900990099,4,1,0,65,0,0
90168,-98.0392156862745,4,1,0,65,0,0
90313,-97.0873786407767,4,1,0,65,0,0
90458,-96.1538461538461,4,1,0,65,0,0
90602,-95.2380952380952,4,1,0,65,0,0
90747,-94.3396226415094,4,1,0,65,0,0
90892,-93.4579439252336,4,1,0,65,0,0
91037,-92.5925925925926,4,1,0,65,0,1
104950,-92.5925925925926,4,1,0,65,0,0
105385,-100,4,1,0,65,0,0
111762,-92.5925925925926,4,1,0,65,0,0
111907,-92.5925925925926,4,1,0,65,0,1
117124,-92.5925925925926,4,1,0,65,0,0

[HitObjects]
323,125,603,5,8,0:0:0:0:
326,143,2342,1,8,0:0:0:0:
385,153,4081,1,8,0:0:0:0:
381,151,4733,1,8,0:0:0:0:
358,163,4842,1,0,0:0:0:0:
352,163,4950,1,8,0:0:0:0:
434,130,5095,1,0,0:0:0:0:
434,130,5240,1,8,0:0:0:0:
434,130,5385,1,8,0:0:0:0:
428,122,5530,1,0,0:0:0:0:
428,122,5675,1,0,0:0:0:0:
428,122,5820,1,12,0:0:0:0:
294,127,6255,1,8,0:0:0:0:
341,71,6545,1,8,0:0:0:0:
294,116,6689,1,0,0:0:0:0:
341,71,6834,1,8,0:0:0:0:
341,71,6979,1,8,0:0:0:0:
308,142,7124,1,8,0:0:0:0:
308,142,7269,1,0,0:0:0:0:
308,142,7414,1,8,0:0:0:0:
308,153,7559,1,4,0:0:0:0:
232,89,7849,1,8,0:0:0:0:
232,89,7994,1,0,0:0:0:0:
238,87,8284,1,8,0:0:0:0:
238,87,8429,1,0,0:0:0:0:
238,87,8718,1,8,0:0:0:0:
238,87,8863,1,0,0:0:0:0:
238,87,9008,1,8,0:0:0:0:
238,87,9153,1,8,0:0:0:0:
238,87,9298,1,0,0:0:0:0:
297,54,9588,1,8,0:0:0:0:
379,148,9733,1,8,0:0:0:0:
379,148,9805,1,8,0:0:0:0:
379,148,9878,1,8,0:0:0:0:
381,131,10023,1,8,0:0:0:0:
381,131,10168,1,0,0:0:0:0:
233,61,10458,1,8,0:0:0:0:
241,69,10602,1,0,0:0:0:0:
195,95,10747,1,0,0:0:0:0:
356,107,10892,1,8,0:0:0:0:
366,87,10965,1,8,0:0:0:0:
259,66,11037,1,4,0:0:0:0:
276,69,11327,1,8,0:0:0:0:
276,69,11472,1,8,0:0:0:0:
387,92,11545,1,0,0:0:0:0:
276,69,11617,1,8,0:0:0:0:
276,69,11762,1,8,0:0:0:0:
276,69,11907,1,0,0:0:0:0:
259,92,12197,1,8,0:0:0:0:
265,130,12342,1,0,0:0:0:0:
265,130,12487,1,8,0:0:0:0:
389,154,12631,1,8,0:0:0:0:
389,154,12704,1,8,0:0:0:0:
265,130,12776,1,0,0:0:0:0:
302,118,13066,1,8,0:0:0:0:
346,122,13211,1,8,0:0:0:0:
346,122,13284,1,8,0:0:0:0:
346,122,13356,1,8,0:0:0:0:
306,116,13501,1,8,0:0:0:0:
306,116,13646,1,0,0:0:0:0:
265,124,13936,1,8,0:0:0:0:
265,124,14081,1,0,0:0:0:0:
139,116,14516,1,4,0:0:0:0:
259,122,14805,1,8,0:0:0:0:
259,122,14950,1,0,0:0:0:0:
261,110,15240,1,8,0:0:0:0:
261,110,15385,1,0,0:0:0:0:
261,110,15675,1,8,0:0:0:0:
251,87,15820,1,0,0:0:0:0:
192,67,15965,1,0,0:0:0:0:
192,67,16110,1,8,0:0:0:0:
192,67,16255,1,0,0:0:0:0:
233,46,16545,1,8,0:0:0:0:
352,104,16689,1,8,0:0:0:0:
352,104,16762,1,0,0:0:0:0:
352,104,16834,1,8,0:0:0:0:
285,92,16979,1,8,0:0:0:0:
285,92,17124,1,0,0:0:0:0:
285,84,17414,1,8,0:0:0:0:
285,84,17559,1,0,0:0:0:0:
280,83,17704,1,8,0:0:0:0:
280,83,17849,1,8,0:0:0:0:
336,111,17921,1,8,0:0:0:0:
280,83,17994,1,4,0:0:0:0:
271,110,18284,1,8,0:0:0:0:
355,102,18429,1,8,0:0:0:0:
355,102,18501,1,8,0:0:0:0:
355,102,18574,1,8,0:0:0:0:
197,42,18718,1,8,0:0:0:0:
197,42,18863,1,0,0:0:0:0:
288,75,19153,1,8,0:0:0:0:
288,75,19298,1,0,0:0:0:0:
288,75,19443,1,0,0:0:0:0:
288,75,19588,1,8,0:0:0:0:
311,102,19660,1,8,0:0:0:0:
288,75,19733,1,0,0:0:0:0:
286,72,20023,1,8,0:0:0:0:
355,102,20168,1,8,0:0:0:0:
355,102,20240,1,0,0:0:0:0:
355,102,20313,1,8,0:0:0:0:
286,72,20458,1,8,0:0:0:0:
286,72,20602,1,0,0:0:0:0:
286,72,20892,1,8,0:0:0:0:
286,72,21037,1,0,0:0:0:0:
286,72,21327,1,0,0:0:0:0:
286,72,21472,1,12,0:0:0:0:
331,107,21762,1,0,0:0:0:0:
331,107,21907,1,8,0:0:0:0:
253,75,22052,1,0,0:0:0:0:
253,75,22197,1,0,0:0:0:0:
224,98,22342,1,8,0:0:0:0:
256,57,22631,1,0,0:0:0:0:
224,92,22776,1,8,0:0:0:0:
256,60,22921,1,8,0:0:0:0:
256,60,23066,1,0,0:0:0:0:
224,90,23211,1,8,0:0:0:0:
276,90,23501,1,0,0:0:0:0:
230,48,23646,1,8,0:0:0:0:
276,90,23936,1,0,0:0:0:0:
230,48,24081,1,8,0:0:0:0:
279,63,24371,1,8,0:0:0:0:
232,46,24516,1,8,0:0:0:0:
276,116,24950,1,12,0:0:0:0:
306,98,25240,1,0,0:0:0:0:
306,98,25385,1,8,0:0:0:0:
306,98,25530,1,8,0:0:0:0:
306,98,25675,1,0,0:0:0:0:
306,98,25820,1,8,0:0:0:0:
303,96,26110,1,0,0:0:0:0:
303,96,26255,1,8,0:0:0:0:
303,96,26400,1,0,0:0:0:0:
303,96,26545,1,0,0:0:0:0:
303,96,26689,1,8,0:0:0:0:
282,89,26979,1,8,0:0:0:0:
282,89,27124,1,0,0:0:0:0:
282,89,27414,1,8,0:0:0:0:
282,89,27559,1,0,0:0:0:0:
282,107,27849,1,0,0:0:0:0:
282,107,27994,1,0,0:0:0:0:
320,139,28429,1,12,0:0:0:0:
245,55,28718,1,0,0:0:0:0:
245,63,28863,1,8,0:0:0:0:
245,63,29008,1,0,0:0:0:0:
245,63,29153,1,0,0:0:0:0:
245,63,29298,1,8,0:0:0:0:
241,95,29588,1,0,0:0:0:0:
241,95,29733,1,8,0:0:0:0:
241,95,29878,1,8,0:0:0:0:
241,95,30023,1,0,0:0:0:0:
241,95,30168,1,8,0:0:0:0:
337,72,30458,1,0,0:0:0:0:
337,72,30602,1,8,0:0:0:0:
335,127,30892,1,0,0:0:0:0:
335,127,31037,1,8,0:0:0:0:
311,90,31327,1,8,0:0:0:0:
311,90,31472,1,8,0:0:0:0:
291,96,31907,1,12,0:0:0:0:
282,72,32197,1,0,0:0:0:0:
282,77,32342,1,8,0:0:0:0:
294,92,32487,1,8,0:0:0:0:
294,92,32631,1,0,0:0:0:0:
294,92,32776,1,8,0:0:0:0:
268,81,33066,1,0,0:0:0:0:
268,81,33211,1,8,0:0:0:0:
268,81,33356,1,0,0:0:0:0:
268,81,33501,1,0,0:0:0:0:
268,81,33646,1,8,0:0:0:0:
317,87,33936,1,0,0:0:0:0:
317,87,34081,1,8,0:0:0:0:
291,107,34226,1,8,0:0:0:0:
315,84,34371,1,8,0:0:0:0:
315,84,34516,1,0,0:0:0:0:
391,87,34805,1,0,0:0:0:0:
385,89,34878,1,0,0:0:0:0:
385,89,34950,1,8,0:0:0:0:
300,133,35385,1,4,0:0:0:0:
446,92,35675,1,8,0:0:0:0:
276,174,36074,1,8,0:0:0:0:
437,153,36255,1,0,0:0:0:0:
422,107,36508,1,8,0:0:0:0:
393,127,36581,1,8,0:0:0:0:
393,127,36653,1,0,0:0:0:0:
387,81,36979,1,0,0:0:0:0:
256,151,37124,1,0,0:0:0:0:
288,139,37414,1,8,0:0:0:0:
376,49,37849,1,8,0:0:0:0:
302,75,37994,1,0,0:0:0:0:
288,112,38284,1,0,0:0:0:0:
288,112,38356,1,0,0:0:0:0:
280,127,38429,1,8,0:0:0:0:
244,127,38863,1,0,0:0:0:0:
311,57,39153,1,8,0:0:0:0:
282,52,39552,1,8,0:0:0:0:
265,72,39733,1,0,0:0:0:0:
259,63,39987,1,8,0:0:0:0:
259,63,40059,1,8,0:0:0:0:
259,63,40131,1,0,0:0:0:0:
245,69,40458,1,0,0:0:0:0:
242,101,40602,1,0,0:0:0:0:
241,61,40892,1,8,0:0:0:0:
239,60,41327,1,8,0:0:0:0:
236,83,41400,1,0,0:0:0:0:
239,72,41472,1,8,0:0:0:0:
311,67,41907,1,8,0:0:0:0:
311,67,42197,1,8,0:0:0:0:
311,67,42342,1,0,0:0:0:0:
282,67,42631,1,8,0:0:0:0:
282,67,42776,1,8,0:0:0:0:
437,98,43066,1,8,0:0:0:0:
437,98,43211,1,8,0:0:0:0:
317,101,43465,1,8,0:0:0:0:
317,101,43537,1,8,0:0:0:0:
317,101,43610,1,0,0:0:0:0:
338,94,43936,1,8,0:0:0:0:
332,102,44081,1,0,0:0:0:0:
332,90,44371,1,8,0:0:0:0:
332,84,44516,1,8,0:0:0:0:
335,81,44805,1,8,0:0:0:0:
335,81,44950,1,8,0:0:0:0:
271,72,45240,1,0,0:0:0:0:
271,72,45313,1,0,0:0:0:0:
271,72,45385,1,8,0:0:0:0:
265,75,45820,1,0,0:0:0:0:
265,75,46110,1,8,0:0:0:0:
265,75,46255,1,8,0:0:0:0:
265,75,46545,1,8,0:0:0:0:
265,75,46689,1,8,0:0:0:0:
262,81,46943,1,8,0:0:0:0:
262,81,47016,1,8,0:0:0:0:
253,89,47088,1,0,0:0:0:0:
251,61,47414,1,8,0:0:0:0:
273,52,47559,1,0,0:0:0:0:
332,98,47994,1,8,0:0:0:0:
332,98,48429,1,8,0:0:0:0:
332,98,48863,1,8,0:0:0:0:
331,92,49298,1,0,0:0:0:0:
317,72,49588,1,8,0:0:0:0:
405,104,49733,1,0,0:0:0:0:
405,104,50023,1,0,0:0:0:0:
206,151,50168,1,8,0:0:0:0:
253,46,50313,1,8,0:0:0:0:
405,104,50458,1,0,0:0:0:0:
387,90,50602,1,0,0:0:0:0:
387,90,50892,1,0,0:0:0:0:
387,90,51037,1,0,0:0:0:0:
344,206,51110,1,8,0:0:0:0:
343,186,51182,1,8,0:0:0:0:
321,119,51327,1,8,0:0:0:0:
321,119,51472,1,0,0:0:0:0:
381,145,51762,1,0,0:0:0:0:
381,145,51907,1,0,0:0:0:0:
338,119,52776,1,0,0:0:0:0:
238,46,53066,1,8,0:0:0:0:
338,113,53211,1,0,0:0:0:0:
261,72,53501,1,0,0:0:0:0:
393,104,53646,1,8,0:0:0:0:
393,104,53791,1,8,0:0:0:0:
387,98,53936,1,0,0:0:0:0:
387,98,54081,1,0,0:0:0:0:
373,96,54371,1,0,0:0:0:0:
367,96,54516,1,0,0:0:0:0:
358,96,54805,1,8,0:0:0:0:
358,96,54950,1,0,0:0:0:0:
300,63,55240,1,0,0:0:0:0:
300,63,55385,1,0,0:0:0:0:
294,104,56255,1,0,0:0:0:0:
206,37,56545,1,8,0:0:0:0:
209,52,56689,1,0,0:0:0:0:
238,78,56979,1,0,0:0:0:0:
238,78,57124,1,8,0:0:0:0:
238,78,57269,1,8,0:0:0:0:
238,78,57414,1,0,0:0:0:0:
238,78,57559,1,0,0:0:0:0:
288,98,57849,1,0,0:0:0:0:
288,98,57994,1,0,0:0:0:0:
331,96,58284,1,8,0:0:0:0:
331,96,58429,1,0,0:0:0:0:
331,96,58574,1,8,0:0:0:0:
331,96,58718,1,0,0:0:0:0:
332,57,58863,1,0,0:0:0:0:
233,63,59733,1,0,0:0:0:0:
300,116,60023,1,8,0:0:0:0:
300,116,60168,1,0,0:0:0:0:
300,116,60458,1,0,0:0:0:0:
300,116,60602,1,8,0:0:0:0:
300,116,60747,1,8,0:0:0:0:
302,110,60892,1,0,0:0:0:0:
302,110,61037,1,0,0:0:0:0:
332,107,61327,1,0,0:0:0:0:
337,107,61472,1,0,0:0:0:0:
391,151,61545,1,8,0:0:0:0:
391,151,61617,1,8,0:0:0:0:
364,96,61762,1,8,0:0:0:0:
364,96,61907,1,0,0:0:0:0:
321,55,62197,1,8,0:0:0:0:
8,131,62342,1,8,0:0:0:0:
300,63,62487,1,8,0:0:0:0:
300,63,62631,1,8,0:0:0:0:
300,63,62776,1,12,0:0:0:0:
308,94,63211,1,4,0:0:0:0:
372,133,63501,1,8,0:0:0:0:
372,133,63646,1,8,0:0:0:0:
226,102,64081,1,0,0:0:0:0:
378,127,64516,1,0,0:0:0:0:
381,123,64805,1,0,0:0:0:0:
381,123,64950,1,8,0:0:0:0:
390,123,65240,1,8,0:0:0:0:
390,123,65385,1,8,0:0:0:0:
337,123,65675,1,0,0:0:0:0:
337,123,65820,1,0,0:0:0:0:
221,71,65965,1,8,0:0:0:0:
221,71,66110,1,0,0:0:0:0:
221,71,66255,1,12,0:0:0:0:
265,100,66545,1,0,0:0:0:0:
265,100,66689,1,8,0:0:0:0:
273,102,66979,1,8,0:0:0:0:
273,102,67124,1,8,0:0:0:0:
329,88,67559,1,0,0:0:0:0:
276,100,67994,1,0,0:0:0:0:
296,97,68284,1,0,0:0:0:0:
276,100,68429,1,8,0:0:0:0:
276,100,68718,1,8,0:0:0:0:
276,100,68863,1,8,0:0:0:0:
279,97,69153,1,0,0:0:0:0:
279,97,69298,1,0,0:0:0:0:
279,97,69443,1,8,0:0:0:0:
285,92,69588,1,8,0:0:0:0:
279,97,69733,1,4,0:0:0:0:
302,92,70023,1,0,0:0:0:0:
302,92,70168,1,8,0:0:0:0:
302,92,70458,1,8,0:0:0:0:
302,92,70602,1,8,0:0:0:0:
302,92,71037,1,0,0:0:0:0:
302,88,71472,1,0,0:0:0:0:
302,88,71762,1,0,0:0:0:0:
302,88,71907,1,8,0:0:0:0:
302,88,72197,1,8,0:0:0:0:
302,88,72342,1,8,0:0:0:0:
271,86,72631,1,0,0:0:0:0:
271,86,72776,1,0,0:0:0:0:
271,86,72921,1,8,0:0:0:0:
271,86,73066,1,0,0:0:0:0:
271,86,73211,1,12,0:0:0:0:
112,162,73501,1,0,0:0:0:0:
130,141,73646,1,8,0:0:0:0:
241,147,73936,1,8,0:0:0:0:
241,147,74081,1,8,0:0:0:0:
241,147,74516,1,0,0:0:0:0:
241,147,74950,1,0,0:0:0:0:
241,147,75240,1,0,0:0:0:0:
241,147,75385,1,8,0:0:0:0:
186,33,75675,1,0,0:0:0:0:
241,147,75820,1,8,0:0:0:0:
182,36,75965,1,8,0:0:0:0:
322,106,76110,1,0,0:0:0:0:
322,106,76255,1,8,0:0:0:0:
320,103,76689,1,4,0:0:0:0:
317,103,76979,1,0,0:0:0:0:
182,36,77124,1,8,0:0:0:0:
317,87,77414,1,8,0:0:0:0:
326,88,77559,1,8,0:0:0:0:
317,87,77704,1,0,0:0:0:0:
137,66,77849,1,0,0:0:0:0:
341,77,77994,1,8,0:0:0:0:
300,84,78284,1,8,0:0:0:0:
285,120,78429,1,0,0:0:0:0:
300,84,78574,1,0,0:0:0:0:
285,120,78718,1,0,0:0:0:0:
330,96,78863,1,8,0:0:0:0:
331,82,79153,1,8,0:0:0:0:
331,82,79298,1,8,0:0:0:0:
335,82,79588,1,0,0:0:0:0:
335,82,79733,1,8,0:0:0:0:
282,135,80023,1,8,0:0:0:0:
282,135,80168,1,8,0:0:0:0:
326,97,80602,1,8,0:0:0:0:
107,89,80892,1,8,0:0:0:0:
326,94,81037,1,8,0:0:0:0:
274,74,81182,1,0,0:0:0:0:
247,68,81327,1,0,0:0:0:0:
247,68,81472,1,8,0:0:0:0:
247,68,81762,1,8,0:0:0:0:
247,68,81907,1,0,0:0:0:0:
247,68,82052,1,0,0:0:0:0:
247,68,82197,1,0,0:0:0:0:
326,97,82342,1,8,0:0:0:0:
253,74,82631,1,8,0:0:0:0:
253,74,82776,1,0,0:0:0:0:
402,110,82921,1,0,0:0:0:0:
306,77,83066,1,8,0:0:0:0:
306,77,83211,1,8,0:0:0:0:
306,77,83501,1,0,0:0:0:0:
311,74,83646,1,0,0:0:0:0:
326,97,84081,1,12,0:0:0:0:
337,88,84950,1,0,0:0:0:0:
337,88,85095,1,0,0:0:0:0:
337,88,85240,1,0,0:0:0:0:
337,88,85385,1,0,0:0:0:0:
337,88,85820,1,12,0:0:0:0:
337,88,86255,1,8,0:0:0:0:
337,88,86689,1,8,0:0:0:0:
355,80,86834,1,0,0:0:0:0:
357,88,86979,1,0,0:0:0:0:
352,91,87124,1,0,0:0:0:0:
352,91,87269,1,0,0:0:0:0:
352,91,87414,1,0,0:0:0:0:
352,91,87559,1,0,0:0:0:0:
332,82,88429,1,12,0:0:0:0:
336,88,89298,1,8,0:0:0:0:
336,88,89733,1,8,0:0:0:0:
306,114,90023,1,8,0:0:0:0:
336,88,90168,1,0,0:0:0:0:
306,114,90313,1,8,0:0:0:0:
306,114,90458,1,8,0:0:0:0:
306,114,90602,1,8,0:0:0:0:
295,99,90747,1,0,0:0:0:0:
295,99,90892,1,8,0:0:0:0:
295,99,91037,1,4,0:0:0:0:
321,133,91327,1,8,0:0:0:0:
321,133,91472,1,0,0:0:0:0:
303,96,91762,1,8,0:0:0:0:
303,96,91907,1,0,0:0:0:0:
236,52,92197,1,8,0:0:0:0:
356,96,92342,1,0,0:0:0:0:
224,102,92487,1,8,0:0:0:0:
431,102,92631,1,8,0:0:0:0:
426,122,92704,1,8,0:0:0:0:
426,122,92776,1,0,0:0:0:0:
326,104,93066,1,8,0:0:0:0:
326,104,93211,1,0,0:0:0:0:
261,43,93501,1,8,0:0:0:0:
261,43,93646,1,0,0:0:0:0:
309,116,93936,1,8,0:0:0:0:
259,57,94081,1,0,0:0:0:0:
259,57,94226,1,0,0:0:0:0:
355,107,94371,1,8,0:0:0:0:
355,107,94443,1,8,0:0:0:0:
355,107,94516,1,4,0:0:0:0:
241,69,94805,1,8,0:0:0:0:
241,69,94950,1,8,0:0:0:0:
244,67,95240,1,0,0:0:0:0:
244,67,95385,1,8,0:0:0:0:
244,67,95675,1,8,0:0:0:0:
244,67,95820,1,8,0:0:0:0:
244,67,95965,1,0,0:0:0:0:
244,67,96110,1,0,0:0:0:0:
244,67,96255,1,8,0:0:0:0:
256,61,96400,1,0,0:0:0:0:
250,64,96545,1,8,0:0:0:0:
250,64,96689,1,8,0:0:0:0:
306,63,96834,1,0,0:0:0:0:
306,63,96979,1,8,0:0:0:0:
306,63,97124,1,8,0:0:0:0:
291,58,97414,1,0,0:0:0:0:
291,58,97559,1,8,0:0:0:0:
291,58,97704,1,8,0:0:0:0:
291,58,97849,1,8,0:0:0:0:
291,58,97994,1,4,0:0:0:0:
250,119,98284,1,8,0:0:0:0:
250,119,98429,1,0,0:0:0:0:
372,99,98718,1,8,0:0:0:0:
372,99,98863,1,0,0:0:0:0:
358,93,99153,1,8,0:0:0:0:
358,93,99298,1,0,0:0:0:0:
358,93,99443,1,8,0:0:0:0:
396,99,99588,1,8,0:0:0:0:
396,99,99660,1,8,0:0:0:0:
396,99,99733,1,0,0:0:0:0:
346,90,100023,1,8,0:0:0:0:
338,84,100168,1,0,0:0:0:0:
358,96,100458,1,8,0:0:0:0:
358,96,100602,1,0,0:0:0:0:
358,96,100892,1,8,0:0:0:0:
358,96,101037,1,0,0:0:0:0:
358,96,101182,1,0,0:0:0:0:
370,81,101327,1,8,0:0:0:0:
370,81,101400,1,8,0:0:0:0:
370,81,101472,1,4,0:0:0:0:
355,113,101762,1,8,0:0:0:0:
259,78,101907,1,8,0:0:0:0:
273,102,102197,1,0,0:0:0:0:
273,102,102342,1,8,0:0:0:0:
288,146,102631,1,8,0:0:0:0:
288,146,102776,1,8,0:0:0:0:
288,146,102921,1,0,0:0:0:0:
288,146,103066,1,0,0:0:0:0:
288,146,103211,1,8,0:0:0:0:
300,134,103356,1,0,0:0:0:0:
306,128,103501,1,8,0:0:0:0:
288,133,103646,1,8,0:0:0:0:
288,122,103791,1,0,0:0:0:0:
294,122,103936,1,8,0:0:0:0:
294,122,104081,1,8,0:0:0:0:
306,122,104371,1,0,0:0:0:0:
306,122,104516,1,8,0:0:0:0:
306,122,104660,1,8,0:0:0:0:
306,122,104805,1,8,0:0:0:0:
361,87,104950,1,4,0:0:0:0:
323,93,105385,1,8,0:0:0:0:
323,93,105530,1,8,0:0:0:0:
323,93,105675,1,8,0:0:0:0:
323,93,105820,1,8,0:0:0:0:
364,93,106255,1,8,0:0:0:0:
366,90,106545,1,0,0:0:0:0:
366,90,106689,1,8,0:0:0:0:
366,90,107124,1,8,0:0:0:0:
366,90,107269,1,8,0:0:0:0:
366,90,107414,1,8,0:0:0:0:
366,90,107559,1,8,0:0:0:0:
366,90,107994,1,8,0:0:0:0:
366,90,108284,1,0,0:0:0:0:
366,90,108429,1,12,0:0:0:0:
414,93,108718,1,8,0:0:0:0:
414,93,108863,1,8,0:0:0:0:
396,87,109153,1,0,0:0:0:0:
396,87,109298,1,8,0:0:0:0:
393,84,109588,1,8,0:0:0:0:
393,84,109733,1,0,0:0:0:0:
332,58,109878,1,0,0:0:0:0:
332,58,110023,1,0,0:0:0:0:
332,58,110168,1,8,0:0:0:0:
303,61,110458,1,0,0:0:0:0:
303,61,110602,1,8,0:0:0:0:
271,63,110747,1,0,0:0:0:0:
271,63,110892,1,0,0:0:0:0:
271,63,111037,1,8,0:0:0:0:
311,67,111472,1,8,0:0:0:0:
311,67,111762,1,8,0:0:0:0:
311,67,111907,1,4,0:0:0:0:
358,111,112197,1,8,0:0:0:0:
358,111,112342,1,0,0:0:0:0:
358,111,112631,1,8,0:0:0:0:
358,111,112776,1,0,0:0:0:0:
315,76,113211,1,8,0:0:0:0:
370,92,113501,1,8,0:0:0:0:
370,92,113574,1,8,0:0:0:0:
376,92,113646,1,0,0:0:0:0:
300,87,113936,1,8,0:0:0:0:
300,87,114081,1,0,0:0:0:0:
256,70,114226,1,8,0:0:0:0:
300,87,114371,1,8,0:0:0:0:
300,87,114516,1,0,0:0:0:0:
332,72,114950,1,8,0:0:0:0:
315,92,115240,1,8,0:0:0:0:
315,92,115313,1,8,0:0:0:0:
315,92,115385,1,4,0:0:0:0:
239,78,115675,1,8,0:0:0:0:
247,76,115820,1,0,0:0:0:0:
391,26,116110,1,0,0:0:0:0:
370,52,116182,1,0,0:0:0:0:
303,81,116255,1,8,0:0:0:0:
230,52,116400,1,0,0:0:0:0:
230,52,116545,1,0,0:0:0:0:
230,52,116689,1,8,0:0:0:0:
230,52,116834,1,0,0:0:0:0:
216,55,116979,1,0,0:0:0:0:
216,55,117124,1,12,0:0:0:0:
