osu file format v14

[General]
AudioFilename: audio.mp3
AudioLeadIn: 0
PreviewTime: 74612
Countdown: 0
SampleSet: Soft
StackLeniency: 0.7
Mode: 0
LetterboxInBreaks: 0
WidescreenStoryboard: 1

[Editor]
Bookmarks: 96230
DistanceSpacing: 2
BeatDivisor: 4
GridSize: 32
TimelineZoom: 1.500001

[Metadata]
Title:Ji Ming Yue
TitleUnicode:寄明月
Artist:S.I.N.G
ArtistUnicode:SING女团
Creator:Sandrew
Version:Yugu's Light Insane
Source:
Tags:Super Impassioned Net Generation T2o 李懋扬 G-Tracy 纪粹希 Lobelia Yugu Sun Rainbow
BeatmapID:1666687
BeatmapSetID:773973

[Difficulty]
HPDrainRate:6
CircleSize:4
OverallDifficulty:7
ApproachRate:8
SliderMultiplier:1.6
SliderTickRate:1

[Events]
//Background and Video events
0,0,"bg.jpg",0,0
//Break Periods
//Storyboard Layer 0 (Background)
//Storyboard Layer 1 (Fail)
//Storyboard Layer 2 (Pass)
//Storyboard Layer 3 (Foreground)
//Storyboard Sound Samples

[TimingPoints]
1556,428.571428571429,4,2,1,10,1,0
1556,-133.333333333333,4,2,1,10,0,0
2413,-133.333333333333,4,2,1,15,0,0
3270,-133.333333333333,4,2,1,20,0,0
4127,-133.333333333333,4,2,1,30,0,0
4984,-133.333333333333,4,2,1,40,0,0
5413,-133.333333333333,4,2,1,5,0,0
5734,-133.333333333333,4,2,1,40,0,0
6698,428.571428571429,4,2,1,50,1,0
6698,-133.333333333333,4,2,1,50,0,0
19984,-125,4,2,1,50,0,0
20398,428.571428571429,4,2,1,60,1,0
20398,-100,4,2,1,60,0,0
61541,-133.333333333333,4,2,1,50,0,0
64112,-66.6666666666667,4,2,1,50,0,0
64969,-133.333333333333,4,2,1,60,0,0
67541,-66.6666666666667,4,2,1,60,0,0
68398,-133.333333333333,4,2,1,60,0,0
69791,-133.333333333333,4,2,1,5,0,0
70112,-133.333333333333,4,2,1,60,0,0
70969,-66.6666666666667,4,2,1,60,0,0
71826,-133.333333333333,4,2,1,60,0,0
75255,-100,4,2,1,70,0,1
88326,-100,4,2,1,80,0,0
88969,-100,4,2,1,70,0,1
102683,-100,4,2,1,60,0,0

[Colours]
Combo1 : 21,128,234
Combo2 : 237,61,61
Combo3 : 231,231,88
Combo4 : 191,138,244

[HitObjects]
256,192,1556,12,0,5413,0:0:0:0:
194,122,5734,6,0,L|186:97,1,15.0000005722046,0|0,0:0|0:0,0:0:0:0:
212,133,5841,2,0,L|205:213,1,60.0000022888184,0|0,0:0|0:0,0:0:0:0:
115,224,6270,2,0,L|122:304,1,60.0000022888184,0|0,0:0|0:0,0:0:0:0:
263,346,6698,6,0,P|331:193|496:219,1,360.000013732911,4|0,0:0|0:0,0:0:0:0:
355,369,8413,2,0,P|343:271|404:383,1,360.000013732911,2|0,0:0|0:0,0:0:0:0:
397,314,9913,1,0,0:0:0:0:
427,175,10127,1,2,0:0:0:0:
422,160,10556,5,0,0:0:0:0:
282,130,10770,1,0,0:0:0:0:
277,115,11198,5,0,0:0:0:0:
272,100,11627,1,0,0:0:0:0:
182,211,11841,5,2,0:0:0:0:
104,202,12056,1,0,0:0:0:0:
32,233,12270,1,0,0:0:0:0:
86,298,12484,6,0,L|94:280,3,20.0000007629395,0|0|0|0,0:0|0:0|0:0|0:0,0:0:0:0:
104,202,12913,1,0,0:0:0:0:
72,130,13127,1,0,0:0:0:0:
82,52,13341,1,0,0:0:0:0:
219,28,13556,6,0,P|371:96|345:261,1,360.000013732911,2|0,0:0|0:0,0:0:0:0:
195,118,15270,2,0,P|292:106|180:167,1,360.000013732911,2|0,0:0|0:0,0:0:0:0:
250,162,16770,1,0,0:0:0:0:
390,192,16984,1,2,0:0:0:0:
402,182,17413,5,0,0:0:0:0:
372,322,17627,2,0,L|356:253,1,60.0000022888184,0|0,0:0|0:0,0:0:0:0:
427,113,18056,2,0,L|411:182,1,60.0000022888184,0|0,0:0|0:0,0:0:0:0:
450,327,18484,1,0,0:0:0:0:
279,257,18698,5,2,0:0:0:0:
203,276,18912,2,0,L|190:296,2,22.5000008583069
244,350,19341,1,0,0:0:0:0:
223,200,19556,6,0,P|179:200|142:225,1,90.0000034332277,0|0,0:0|0:0,0:0:0:0:
103,216,19984,2,0,L|115:305,1,64,0|0,0:0|0:0,0:0:0:0:
7,335,20398,6,0,L|19:246,1,80,0|0,1:0|0:0,0:0:0:0:
1,176,20719,1,0,0:0:0:0:
2,168,20826,2,0,L|14:79,1,80,8|0,0:0|0:0,0:0:0:0:
19,48,21148,1,0,0:0:0:0:
21,40,21255,5,0,1:0:0:0:
176,110,21469,1,0,0:0:0:0:
329,32,21683,5,8,0:0:0:0:
174,102,21898,1,0,0:0:0:0:
313,202,22112,6,0,P|352:209|391:205,1,80,0|0,1:0|0:0,0:0:0:0:
456,158,22433,1,0,0:0:0:0:
459,150,22541,2,0,P|466:110|462:71,1,80,8|0,0:0|0:0,0:0:0:0:
441,36,22862,1,0,0:0:0:0:
434,30,22969,5,0,1:0:0:0:
364,185,23183,1,0,0:0:0:0:
442,338,23398,5,8,0:0:0:0:
372,183,23612,1,0,0:0:0:0:
272,322,23826,6,0,P|233:326|194:317,1,80,0|0,1:0|0:0,0:0:0:0:
127,272,24148,1,0,0:0:0:0:
119,269,24255,2,0,P|79:264|40:273,1,80,8|0,0:0|0:0,0:0:0:0:
9,298,24576,1,0,0:0:0:0:
6,305,24683,5,0,1:0:0:0:
95,143,24898,1,0,0:0:0:0:
278,128,25112,5,8,0:0:0:0:
367,290,25326,1,0,0:0:0:0:
281,119,25541,6,0,P|298:84|330:60,1,80,0|0,1:0|0:0,0:0:0:0:
406,35,25862,1,0,0:0:0:0:
410,41,25969,2,0,L|405:144,1,80,8|0,0:0|0:0,0:0:0:0:
417,152,26291,1,0,0:0:0:0:
421,158,26398,5,0,1:0:0:0:
91,226,26826,1,8,0:0:0:0:
209,274,27041,1,0,0:0:0:0:
300,183,27255,6,0,P|307:144|303:105,1,80,0|0,1:0|0:0,0:0:0:0:
256,40,27576,1,0,0:0:0:0:
248,37,27683,2,0,P|208:30|169:34,1,80,8|0,0:0|0:0,0:0:0:0:
134,55,28005,1,0,0:0:0:0:
128,62,28112,5,0,1:0:0:0:
91,226,28326,1,0,0:0:0:0:
191,361,28541,5,8,0:0:0:0:
85,233,28755,1,0,0:0:0:0:
248,204,28969,6,0,P|287:200|325:211,1,80,0|0,1:0|0:0,0:0:0:0:
385,265,29291,1,0,0:0:0:0:
391,269,29398,2,0,P|430:273|468:262,1,80,8|0,0:0|0:0,0:0:0:0:
497,234,29719,1,0,0:0:0:0:
498,226,29826,5,0,1:0:0:0:
355,136,30041,1,0,0:0:0:0:
224,240,30255,5,8,0:0:0:0:
354,128,30469,1,0,0:0:0:0:
214,35,30683,6,0,L|118:43,1,80,0|0,1:0|0:0,0:0:0:0:
117,120,31005,1,0,0:0:0:0:
124,122,31112,2,0,L|203:128,1,80,8|0,0:0|0:0,0:0:0:0:
243,132,31433,1,0,0:0:0:0:
250,133,31541,5,0,1:0:0:0:
174,283,31755,1,0,0:0:0:0:
9,317,31969,5,8,0:0:0:0:
181,282,32183,1,0,0:0:0:0:
335,346,32398,6,0,L|436:342,1,80,0|0,1:0|0:0,0:0:0:0:
432,264,32719,1,0,0:0:0:0:
424,264,32826,2,0,L|344:267,1,80,8|0,0:0|0:0,0:0:0:0:
303,268,33148,1,0,0:0:0:0:
295,268,33255,5,0,1:0:0:0:
277,149,33469,1,0,0:0:0:0:
260,30,33683,1,8,0:0:0:0:
251,29,34112,6,0,P|173:32|119:88,1,160,4|8,0:0|0:0,0:0:0:0:
10,203,34755,1,0,0:0:0:0:
12,210,34862,1,0,0:0:0:0:
14,217,34969,6,0,P|50:232|90:230,1,80,0|0,1:0|0:0,0:0:0:0:
162,158,35398,1,8,0:0:0:0:
284,264,35612,2,0,P|285:303|273:341,1,80,0|0,0:0|1:0,0:0:0:0:
223,210,36041,2,0,P|255:188|294:183,1,80,0|8,0:0|0:0,0:0:0:0:
434,279,36469,1,0,0:0:0:0:
430,286,36576,1,0,0:0:0:0:
425,292,36683,6,0,P|407:286|388:271,1,40,0|0,1:0|3:0,0:0:0:0:
372,200,36898,2,0,P|375:180|387:158,1,40,0|0,3:0|3:0,0:0:0:0:
432,102,37112,2,0,P|432:83|426:63,1,40,8|0,0:0|3:0,0:0:0:0:
371,12,37326,2,0,P|360:28|353:47,1,40,0|0,3:0|3:0,0:0:0:0:
229,13,37541,6,0,P|193:82|209:159,1,160,0|8,1:0|0:0,0:0:0:0:
336,214,38183,1,0,0:0:0:0:
339,221,38291,1,0,0:0:0:0:
341,227,38398,6,0,P|264:226|214:285,1,160,0|8,1:0|0:0,0:0:0:0:
303,315,39041,1,0,0:0:0:0:
146,236,39255,2,0,P|135:274|135:314,1,80,0|0,1:0|0:0,0:0:0:0:
57,199,39683,2,0,P|58:159|47:120,1,80,8|0,0:0|0:0,0:0:0:0:
35,45,40005,1,0,0:0:0:0:
42,42,40112,6,0,L|93:53,1,40,0|0,1:0|3:0,0:0:0:0:
154,33,40326,2,0,L|205:44,1,40,0|0,3:0|3:0,0:0:0:0:
244,97,40540,2,0,L|295:108,1,40,8|0,0:0|3:0,0:0:0:0:
356,88,40754,2,0,L|407:99,1,40,0|0,3:0|3:0,0:0:0:0:
402,172,40969,6,0,P|341:220|262:219,1,160,0|8,1:0|0:0,0:0:0:0:
135,314,41612,1,0,0:0:0:0:
140,308,41719,1,0,0:0:0:0:
145,301,41826,6,0,P|179:283|219:281,1,80,0|0,1:0|0:0,0:0:0:0:
308,335,42255,1,8,0:0:0:0:
354,178,42469,2,0,P|344:140|349:101,1,80,0|0,0:0|1:0,0:0:0:0:
376,258,42898,2,0,P|336:256|301:238,1,80,0|8,0:0|0:0,0:0:0:0:
194,114,43326,1,0,0:0:0:0:
199,108,43433,1,0,0:0:0:0:
204,102,43541,6,0,P|216:117|223:136,1,40,0|0,1:0|3:0,0:0:0:0:
285,180,43755,2,0,P|272:195|257:207,1,40,0|0,3:0|3:0,0:0:0:0:
230,278,43969,2,0,P|211:270|195:258,1,40,8|0,0:0|3:0,0:0:0:0:
121,250,44183,2,0,P|123:230|131:211,1,40,0|0,3:0|3:0,0:0:0:0:
26,151,44398,6,0,P|51:77|120:42,1,160,0|8,1:0|0:0,0:0:0:0:
268,159,45041,1,0,0:0:0:0:
265,167,45148,1,0,0:0:0:0:
261,174,45255,6,0,P|185:190|125:142,1,160,0|8,1:0|0:0,0:0:0:0:
209,95,45898,1,0,0:0:0:0:
353,177,46112,2,0,P|342:215|317:246,1,80,0|0,1:0|0:0,0:0:0:0:
165,308,46541,2,0,P|204:314|237:336,1,80,8|0,0:0|0:0,0:0:0:0:
406,367,46969,2,0,P|394:330|399:291,1,80,0|0,1:0|0:0,0:0:0:0:
423,258,47291,1,8,3:0:0:0:
430,256,47398,1,8,3:0:0:0:
494,97,47612,1,8,3:0:0:0:
436,254,47826,6,0,P|359:264|296:218,1,160,4|8,0:0|0:0,0:0:0:0:
207,75,48469,1,0,0:0:0:0:
203,69,48576,1,0,0:0:0:0:
198,62,48683,6,0,P|161:49|122:54,1,80,0|0,1:0|0:0,0:0:0:0:
71,145,49112,1,8,0:0:0:0:
216,222,49326,2,0,L|308:210,1,80,0|0,0:0|1:0,0:0:0:0:
159,158,49755,2,0,P|135:189|127:228,1,80,0|8,0:0|0:0,0:0:0:0:
300,300,50183,1,0,0:0:0:0:
308,304,50291,1,0,0:0:0:0:
316,307,50398,6,0,P|321:288|317:269,1,40,0|0,1:0|3:0,0:0:0:0:
308,193,50612,2,0,P|302:173|289:158,1,40,0|0,3:0|3:0,0:0:0:0:
229,110,50826,2,0,P|227:91|230:71,1,40,8|0,0:0|3:0,0:0:0:0:
289,22,51041,2,0,P|308:19|328:22,1,40,0|0,3:0|3:0,0:0:0:0:
462,23,51255,6,0,P|427:93|353:114,1,160,0|8,1:0|0:0,0:0:0:0:
356,239,51898,1,0,0:0:0:0:
364,237,52005,1,0,0:0:0:0:
372,235,52112,6,0,P|337:165|262:144,1,160,0|8,1:0|0:0,0:0:0:0:
276,239,52755,1,0,0:0:0:0:
211,75,52969,2,0,P|185:104|174:142,1,80,0|0,1:0|0:0,0:0:0:0:
43,215,53398,2,0,P|81:222|120:213,1,80,8|0,0:0|0:0,0:0:0:0:
154,280,53719,1,0,0:0:0:0:
158,285,53826,6,0,P|177:286|196:292,1,40,0|0,1:0|3:0,0:0:0:0:
229,224,54040,2,0,P|246:234|259:249,1,40,0|0,3:0|3:0,0:0:0:0:
321,205,54255,2,0,P|330:222|334:241,1,40,8|0,0:0|3:0,0:0:0:0:
410,234,54469,2,0,P|409:253|403:272,1,40,0|0,3:0|3:0,0:0:0:0:
371,341,54683,6,0,P|423:266|417:180,1,160,0|8,1:0|0:0,0:0:0:0:
369,48,55326,1,0,0:0:0:0:
376,52,55433,1,0,0:0:0:0:
383,56,55541,6,0,P|368:92|336:115,1,80,0|0,1:0|0:0,0:0:0:0:
230,79,55969,1,8,0:0:0:0:
90,159,56183,2,0,L|5:148,1,80,0|0,0:0|1:0,0:0:0:0:
132,90,56612,2,0,P|160:118|170:157,1,80,0|8,0:0|0:0,0:0:0:0:
184,306,57041,1,0,0:0:0:0:
179,301,57148,1,0,0:0:0:0:
173,295,57255,6,0,P|176:276|188:260,1,40,0|0,1:0|3:0,0:0:0:0:
185,184,57469,2,0,P|204:183|222:192,1,40,0|0,3:0|3:0,0:0:0:0:
297,175,57683,2,0,P|300:194|295:213,1,40,8|0,0:0|3:0,0:0:0:0:
285,289,57898,2,0,P|281:308|286:327,1,40,0|0,3:0|3:0,0:0:0:0:
446,306,58112,6,0,P|462:228|446:150,1,160,0|8,1:0|0:0,0:0:0:0:
430,31,58755,1,0,0:0:0:0:
436,37,58862,1,0,0:0:0:0:
442,43,58969,6,0,P|383:95|304:104,1,160,0|8,1:0|0:0,0:0:0:0:
280,19,59612,1,0,0:0:0:0:
226,139,59826,2,0,P|249:170|285:187,1,80,0|0,1:0|0:0,0:0:0:0:
193,52,60255,2,0,P|154:46|116:56,1,80,8|0,0:0|0:0,0:0:0:0:
89,86,60576,1,0,0:0:0:0:
86,93,60683,1,0,1:0:0:0:
142,258,60898,1,0,0:0:0:0:
82,100,61112,2,0,P|79:139|84:179,1,80,8|0,0:0|0:0,0:0:0:0:
46,314,61541,6,0,P|84:269|141:257,1,120.000004577637,4|0,0:0|3:0,0:0:0:0:
142,258,62183,1,0,3:0:0:0:
274,341,62398,5,8,3:0:0:0:
285,337,62505,1,0,0:0:0:0:
296,333,62612,5,4,3:0:0:0:
285,329,62719,1,0,0:0:0:0:
274,325,62826,1,0,0:0:0:0:
263,321,62933,1,0,0:0:0:0:
252,317,63041,1,0,0:0:0:0:
241,313,63148,1,0,0:0:0:0:
230,309,63255,6,0,L|338:274,1,90.0000034332277,8|12,3:0|3:0,0:0:0:0:
363,160,63898,1,12,3:0:0:0:
363,160,64112,6,0,B|418:142|418:142|439:151|439:151|486:136,2,120.000004577637,4|0|0,3:0|3:0|3:0,0:0:0:0:
363,160,64755,1,8,3:0:0:0:
363,160,64969,6,0,B|248:197,1,120.000004577637,4|0,0:0|0:0,0:0:0:0:
248,197,65612,1,0,3:0:0:0:
179,83,65826,2,0,P|174:112|178:142,1,60.0000022888184,8|4,3:0|3:0,0:0:0:0:
167,230,66255,1,0,0:0:0:0:
155,230,66362,1,0,0:0:0:0:
143,233,66469,1,0,0:0:0:0:
132,238,66576,1,0,0:0:0:0:
123,246,66683,6,0,L|137:338,1,90.0000034332277,8|8,3:0|3:0,0:0:0:0:
346,280,67326,1,8,3:0:0:0:
346,280,67541,6,0,B|408:265|408:300|501:276,2,120.000004577637,4|0|0,3:0|3:0|3:0,0:0:0:0:
346,280,68183,1,8,3:0:0:0:
300,143,68398,6,0,P|363:104|366:178,1,180.000006866455,4|0,0:0|3:0,0:0:0:0:
229,175,69255,2,0,P|225:146|228:116,1,60.0000022888184,8|4,3:0|3:0,0:0:0:0:
298,29,69683,2,0,P|284:35|271:43,1,30.0000011444092,0|0,0:0|0:0,0:0:0:0:
165,231,70112,6,0,P|179:273|184:318,1,90.0000034332277,8|8,3:0|3:0,0:0:0:0:
33,187,70755,1,8,3:0:0:0:
36,190,70969,6,0,B|36:138|36:138|22:134|22:134|22:78,2,120.000004577637,4|0|0,3:0|3:0|3:0,0:0:0:0:
39,192,71612,1,8,3:0:0:0:
42,195,71826,6,0,P|93:172|160:200,1,120.000004577637,4|0,3:0|3:0,0:0:0:0:
151,191,72469,1,0,3:0:0:0:
217,316,72683,2,0,P|209:287|213:257,1,60.0000022888184,8|8,3:0|3:0,0:0:0:0:
319,343,73112,2,0,P|334:300|329:256,1,90.0000034332277,2|0,0:0|0:0,0:0:0:0:
310,230,73541,5,0,0:0:0:0:
279,162,73755,1,0,0:0:0:0:
308,92,73969,1,0,0:0:0:0:
380,66,74183,1,0,0:0:0:0:
447,101,74398,1,0,0:0:0:0:
466,174,74612,1,0,0:0:0:0:
369,239,74826,6,0,L|293:227,1,60.0000022888184,10|0,0:0|0:0,0:0:0:0:
170,159,75255,6,0,L|55:177,1,80,4|0,0:0|0:0,0:0:0:0:
43,263,75683,2,0,L|122:250,1,80,8|0,0:0|0:0,0:0:0:0:
193,286,76005,1,0,0:0:0:0:
193,286,76112,2,0,L|272:273,1,80,0|0,1:0|0:0,0:0:0:0:
408,354,76541,1,8,0:0:0:0:
403,271,76755,6,0,P|365:283|338:313,1,80,0|0,0:0|1:0,0:0:0:0:
470,227,77183,2,0,P|440:200|401:192,1,80,0|8,0:0|0:0,0:0:0:0:
408,354,77612,1,0,0:0:0:0:
446,345,77719,1,0,0:0:0:0:
476,319,77826,1,0,1:0:0:0:
498,146,78041,5,0,0:0:0:0:
403,271,78255,1,8,0:0:0:0:
357,180,78469,1,0,0:0:0:0:
290,238,78683,6,0,L|210:229,1,80,0|0,1:0|0:0,0:0:0:0:
174,140,79112,2,0,L|253:148,1,80,8|0,0:0|0:0,0:0:0:0:
215,233,79433,1,0,0:0:0:0:
215,233,79541,2,0,L|131:224,1,80,0|0,1:0|0:0,0:0:0:0:
94,131,79969,2,0,L|173:139,1,80,8|0,0:0|0:0,0:0:0:0:
135,224,80398,6,0,L|51:215,1,80,0|0,1:0|0:0,0:0:0:0:
160,297,80826,2,0,L|110:365,1,80,8|0,0:0|0:0,0:0:0:0:
241,309,81148,1,0,0:0:0:0:
241,309,81255,2,0,L|275:386,1,80,0|0,1:0|0:0,0:0:0:0:
291,244,81683,2,0,L|375:253,1,80,8|0,0:0|0:0,0:0:0:0:
464,156,82112,6,0,P|466:116|455:77,1,80,0|0,1:0|0:0,0:0:0:0:
367,23,82541,2,0,P|354:60|354:100,1,80,8|0,0:0|0:0,0:0:0:0:
286,133,82862,1,0,0:0:0:0:
286,133,82969,2,0,P|312:162|347:182,1,80,0|0,1:0|0:0,0:0:0:0:
511,224,83398,1,8,0:0:0:0:
463,156,83612,6,0,P|438:186|429:225,1,80,0|0,0:0|1:0,0:0:0:0:
310,299,84041,2,0,P|349:305|387:294,1,80,0|8,0:0|0:0,0:0:0:0:
263,238,84469,1,0,0:0:0:0:
239,269,84576,1,0,0:0:0:0:
234,309,84683,1,0,1:0:0:0:
344,227,84898,5,0,0:0:0:0:
188,189,85112,1,8,0:0:0:0:
281,142,85326,1,0,0:0:0:0:
206,94,85541,6,0,L|197:8,1,80,0|0,1:0|0:0,0:0:0:0:
101,12,85969,2,0,L|109:91,1,80,8|0,0:0|0:0,0:0:0:0:
214,173,86291,1,0,0:0:0:0:
214,173,86398,2,0,L|205:87,1,80,0|0,1:0|0:0,0:0:0:0:
109,91,86826,2,0,L|117:170,1,80,8|0,0:0|0:0,0:0:0:0:
222,252,87255,6,0,L|213:166,1,80,0|0,1:0|0:0,0:0:0:0:
176,314,87683,2,0,L|97:278,1,80,8|0,0:0|0:0,0:0:0:0:
284,307,88005,1,0,0:0:0:0:
284,307,88112,2,0,L|354:257,1,80,0|0,1:0|0:0,0:0:0:0:
384,241,88433,1,8,3:0:0:0:
392,241,88541,1,8,3:0:0:0:
458,349,88755,1,8,3:0:0:0:
420,171,88969,6,0,P|419:131|433:94,1,80,4|0,0:0|0:0,0:0:0:0:
350,46,89398,2,0,P|383:25|423:19,1,80,8|0,0:0|0:0,0:0:0:0:
344,124,89719,1,0,0:0:0:0:
344,124,89826,2,0,P|304:124|267:110,1,80,0|0,1:0|0:0,0:0:0:0:
118,131,90255,1,8,0:0:0:0:
227,45,90469,6,0,P|201:74|192:112,1,80,0|0,0:0|1:0,0:0:0:0:
83,202,90898,2,0,P|121:210|159:198,1,80,0|8,0:0|0:0,0:0:0:0:
291,250,91326,1,0,0:0:0:0:
279,212,91433,1,0,0:0:0:0:
250,185,91541,1,0,1:0:0:0:
128,288,91755,5,0,0:0:0:0:
282,331,91969,1,8,0:0:0:0:
213,253,92183,1,0,0:0:0:0:
188,337,92398,6,0,P|157:360|117:366,1,80,0|0,1:0|0:0,0:0:0:0:
51,278,92826,2,0,P|90:273|127:287,1,80,8|0,0:0|0:0,0:0:0:0:
83,163,93148,1,0,0:0:0:0:
83,163,93255,2,0,P|119:178|144:209,1,80,0|0,1:0|0:0,0:0:0:0:
168,79,93683,2,0,P|191:110|197:150,1,80,8|0,0:0|0:0,0:0:0:0:
283,48,94112,6,0,L|271:140,1,80,0|0,1:0|0:0,0:0:0:0:
346,186,94541,2,0,L|431:150,1,80,8|0,0:0|0:0,0:0:0:0:
435,63,94862,1,0,0:0:0:0:
435,63,94969,2,0,L|361:6,1,80,0|0,1:0|0:0,0:0:0:0:
495,117,95398,2,0,P|504:155|496:194,1,80,8|0,0:0|0:0,0:0:0:0:
411,335,95826,6,0,P|376:316|336:314,1,80,0|0,1:0|0:0,0:0:0:0:
243,267,96255,2,0,P|208:285|168:287,1,80,8|0,0:0|0:0,0:0:0:0:
101,251,96576,1,0,0:0:0:0:
101,251,96683,2,0,P|82:216|80:176,1,80,0|0,1:0|0:0,0:0:0:0:
194,60,97112,1,8,0:0:0:0:
115,83,97326,6,0,P|135:116|169:137,1,80,0|0,0:0|1:0,0:0:0:0:
320,157,97755,2,0,P|280:157|245:176,1,80,0|8,0:0|0:0,0:0:0:0:
153,297,98183,1,0,0:0:0:0:
171,262,98291,1,0,0:0:0:0:
173,222,98398,1,0,1:0:0:0:
50,134,98612,5,0,0:0:0:0:
194,60,98826,1,8,0:0:0:0:
245,176,99041,1,0,0:0:0:0:
315,121,99255,6,0,P|354:116|393:124,1,80,0|0,1:0|0:0,0:0:0:0:
430,212,99683,2,0,P|390:217|351:209,1,80,8|0,0:0|0:0,0:0:0:0:
512,218,100005,1,0,0:0:0:0:
512,218,100112,2,0,P|496:254|470:284,1,80,0|0,1:0|0:0,0:0:0:0:
352,345,100541,2,0,P|320:322|282:314,1,80,8|0,0:0|0:0,0:0:0:0:
175,354,100969,5,0,1:0:0:0:
175,354,101183,1,0,0:0:0:0:
99,202,101398,2,0,L|81:286,1,80,8|4,3:0|3:0,0:0:0:0:
175,265,101826,5,0,0:0:0:0:
175,265,102041,1,0,0:0:0:0:
251,113,102255,2,0,L|269:197,1,80,8|4,3:0|3:0,0:0:0:0:
175,176,102683,5,4,0:0:0:0:
