osu file format v14

[General]
AudioFilename: audio.mp3
AudioLeadIn: 0
PreviewTime: 74612
Countdown: 0
SampleSet: Soft
StackLeniency: 0.4
Mode: 0
LetterboxInBreaks: 0
WidescreenStoryboard: 1

[Editor]
DistanceSpacing: 1
BeatDivisor: 4
GridSize: 4
TimelineZoom: 1.6

[Metadata]
Title:Ji Ming Yue
TitleUnicode:寄明月
Artist:S.I.N.G
ArtistUnicode:SING女团
Creator:Sandrew
Version:Normal
Source:
Tags:Super Impassioned Net Generation T2o 李懋扬 G-Tracy 纪粹希 Lobelia Yugu Sun Rainbow
BeatmapID:1626824
BeatmapSetID:773973

[Difficulty]
HPDrainRate:3
CircleSize:3.2
OverallDifficulty:4
ApproachRate:5.5
SliderMultiplier:1.1
SliderTickRate:1

[Events]
//Background and Video events
0,0,"bg.jpg",0,0
//Break Periods
//Storyboard Layer 0 (Background)
//Storyboard Layer 1 (Fail)
//Storyboard Layer 2 (Pass)
//Storyboard Layer 3 (Foreground)
//Storyboard Sound Samples

[TimingPoints]
1556,428.571428571429,4,2,1,40,1,0
1556,-133.333333333333,4,2,1,40,0,0
6698,428.571428571429,4,2,1,50,1,0
6698,-133.333333333333,4,2,1,50,0,0
20398,428.571428571429,4,2,1,60,1,0
20398,-100,4,2,1,60,0,0
61541,-100,4,2,1,50,0,0
74826,-100,4,2,1,60,0,0
75255,-100,4,2,1,70,0,1
88326,-100,4,2,1,80,0,0
88969,-100,4,2,1,70,0,1
102683,-100,4,2,1,60,0,0

[Colours]
Combo1 : 21,128,234
Combo2 : 237,61,61
Combo3 : 231,231,88
Combo4 : 191,138,244

[HitObjects]
46,41,5734,6,0,P|75:64|108:62,1,61.875002360344,0|0,0:0|0:0,0:0:0:0:
139,67,6270,2,0,L|181:67,1,41.2500015735627,0|0,0:0|0:0,0:0:0:0:
207,99,6698,6,0,B|189:158|189:158|209:233,1,123.750004720688,4|0,0:0|0:0,0:0:0:0:
232,340,7984,1,0,0:0:0:0:
312,316,8413,2,0,B|316:254|316:254|279:185,1,123.750004720688,2|0,0:0|0:0,0:0:0:0:
236,88,9698,2,0,L|212:39,1,41.2500015735627,0|0,0:0|0:0,0:0:0:0:
193,17,10127,5,2,0:0:0:0:
110,17,10556,2,0,L|78:53,1,41.2500015735627,0|0,0:0|0:0,0:0:0:0:
28,109,11198,1,0,0:0:0:0:
27,191,11627,1,0,0:0:0:0:
27,191,11841,2,0,L|24:243,1,41.2500015735627,2|0,0:0|0:0,0:0:0:0:
24,273,12270,1,0,0:0:0:0:
24,273,12484,2,0,P|36:312|73:336,1,82.5000031471254,0|0,0:0|0:0,0:0:0:0:
110,339,13127,2,0,L|164:339,1,41.2500015735627,0|0,0:0|0:0,0:0:0:0:
192,338,13556,6,0,B|251:356|251:356|326:336,1,123.750004720688,2|0,0:0|0:0,0:0:0:0:
432,317,14841,1,0,0:0:0:0:
408,237,15270,2,0,B|346:233|346:233|275:268,1,123.750004720688,2|0,0:0|0:0,0:0:0:0:
174,301,16556,2,0,L|130:315,1,41.2500015735627,0|0,0:0|0:0,0:0:0:0:
94,324,16984,5,2,0:0:0:0:
77,243,17413,2,0,L|116:230,1,41.2500015735627,0|0,0:0|0:0,0:0:0:0:
197,214,18056,2,0,P|237:235|257:272,1,82.5000031471254,0|0,0:0|0:0,0:0:0:0:
278,300,18698,2,0,B|309:329|309:329|361:334,1,82.5000031471254,2|0,0:0|0:0,0:0:0:0:
389,341,19341,1,0,0:0:0:0:
389,341,19556,1,0,0:0:0:0:
471,338,19984,2,0,L|476:282,1,41.2500015735627,0|0,0:0|0:0,0:0:0:0:
471,242,20398,6,0,B|485:185|485:185|470:128,1,110,0|8,1:0|0:0,0:0:0:0:
438,30,21255,1,0,1:0:0:0:
333,64,21683,1,8,0:0:0:0:
364,169,22112,2,0,P|309:170|244:129,1,110,0|8,1:0|0:0,0:0:0:0:
225,42,22969,1,0,1:0:0:0:
115,36,23398,1,8,0:0:0:0:
62,132,23826,6,0,B|44:186|44:186|60:243,1,110,0|8,1:0|0:0,0:0:0:0:
82,344,24683,2,0,L|153:323,1,55,0|0,1:0|0:0,0:0:0:0:
180,298,25112,2,0,L|179:234,1,55,8|0,0:0|0:0,0:0:0:0:
209,196,25540,2,0,P|266:178|326:194,2,110,0|8|0,1:0|0:0|1:0,0:0:0:0:
270,286,26826,2,0,L|313:329,1,55,8|0,0:0|0:0,0:0:0:0:
355,354,27255,6,0,P|414:359|471:318,1,110,0|8,1:0|0:0,0:0:0:0:
499,234,28112,1,0,1:0:0:0:
392,258,28540,1,8,0:0:0:0:
429,154,28969,2,0,B|372:146|372:146|314:176,1,110,0|8,1:0|0:0,0:0:0:0:
235,233,29826,1,0,1:0:0:0:
129,202,30255,1,8,0:0:0:0:
41,269,30683,6,0,P|20:210|34:146,1,110,0|8,1:0|0:0,0:0:0:0:
64,60,31540,2,0,P|90:48|130:45,1,55,0|0,1:0|0:0,0:0:0:0:
170,46,31969,2,0,P|205:52|236:72,1,55,8|0,0:0|0:0,0:0:0:0:
236,114,32398,6,0,B|246:167|246:167|286:205,2,110,0|8|0,1:0|0:0|1:0,0:0:0:0:
326,49,33683,1,8,0:0:0:0:
435,40,34112,6,0,B|475:78|475:78|490:156,1,110,4|8,0:0|0:0,0:0:0:0:
483,241,34969,1,0,1:0:0:0:
483,241,35183,2,0,B|484:296|484:296|439:361,2,110
432,219,36255,1,8,0:0:0:0:
432,219,36469,2,0,B|376:201|376:232|305:211,1,110,0|0,0:0|3:0,0:0:0:0:
268,218,37112,1,8,0:0:0:0:
290,325,37540,6,0,B|342:341|342:310|398:328,1,110,0|8,1:0|0:0,0:0:0:0:
452,341,38183,1,0,0:0:0:0:
452,341,38398,2,0,B|484:296|484:296|483:241,1,110,0|8,1:0|0:0,0:0:0:0:
482,185,39040,1,0,0:0:0:0:
482,185,39255,2,0,L|479:120,1,55,0|0,1:0|0:0,0:0:0:0:
475,75,39683,1,8,0:0:0:0:
475,75,39898,2,0,B|421:54|423:82|353:63,1,110,0|0,0:0|3:0,0:0:0:0:
311,60,40540,1,8,0:0:0:0:
201,50,40969,6,0,P|145:43|80:51,1,110,0|8,1:0|0:0,0:0:0:0:
31,140,41826,1,0,1:0:0:0:
31,140,42040,2,0,P|24:196|32:261,2,110,0|0|0,0:0|0:0|0:0,0:0:0:0:
85,133,43112,1,8,0:0:0:0:
85,133,43326,2,0,P|139:127|194:134,1,110,0|0,0:0|3:0,0:0:0:0:
241,163,43969,1,8,0:0:0:0:
193,262,44398,6,0,P|138:267|83:260,1,110,0|8,1:0|0:0,0:0:0:0:
29,249,45040,1,0,0:0:0:0:
29,249,45255,2,0,P|24:194|31:140,1,110,0|8,1:0|0:0,0:0:0:0:
30,84,45898,1,0,0:0:0:0:
30,84,46112,2,0,L|85:42,1,55,0|0,1:0|0:0,0:0:0:0:
127,39,46540,1,8,0:0:0:0:
127,39,46755,2,0,L|253:37,1,110
277,74,47398,2,0,L|279:139,1,55,8|8,3:0|3:0,0:0:0:0:
237,164,47826,6,0,L|127:165,1,110,4|8,0:0|0:0,0:0:0:0:
28,219,48683,1,0,1:0:0:0:
28,219,48898,2,0,P|16:166|29:113,2,110
53,267,49969,1,8,0:0:0:0:
53,267,50183,2,0,P|110:273|164:312,1,110,0|0,0:0|3:0,0:0:0:0:
192,339,50826,1,8,0:0:0:0:
302,338,51255,6,0,B|355:355|355:324|411:345,1,110,0|8,1:0|0:0,0:0:0:0:
465,342,51898,1,0,0:0:0:0:
465,342,52112,2,0,B|478:289|478:289|468:235,1,110,0|8,1:0|0:0,0:0:0:0:
468,179,52755,1,0,0:0:0:0:
468,179,52969,2,0,L|467:116,1,55,0|0,1:0|0:0,0:0:0:0:
464,68,53398,1,8,0:0:0:0:
464,68,53612,2,0,B|404:41|404:74|337:54,1,110,0|0,0:0|3:0,0:0:0:0:
301,59,54255,1,8,0:0:0:0:
202,108,54683,6,0,B|186:160|186:160|201:224,1,110,0|8,1:0|0:0,0:0:0:0:
294,267,55540,1,0,1:0:0:0:
294,267,55755,2,0,B|310:215|310:215|295:151,2,110
255,306,56826,1,8,0:0:0:0:
255,306,57040,2,0,B|200:308|200:308|145:344,1,110,0|0,0:0|3:0,0:0:0:0:
104,363,57683,1,8,0:0:0:0:
61,261,58112,6,0,B|85:212|85:212|82:146,1,110,0|8,1:0|0:0,0:0:0:0:
38,123,58755,1,0,0:0:0:0:
38,123,58969,2,0,P|45:67|96:34,1,110,0|8,1:0|0:0,0:0:0:0:
136,56,59612,1,0,0:0:0:0:
136,56,59826,2,0,L|199:53,1,55,0|0,1:0|0:0,0:0:0:0:
232,89,60255,1,8,0:0:0:0:
232,89,60469,2,0,P|288:96|336:133,1,110
356,175,61112,1,8,0:0:0:0:
248,199,61540,6,0,B|237:278|237:278|188:359,1,165,4|0,0:0|3:0,0:0:0:0:
138,345,62398,2,0,L|72:357,1,55,8|4,3:0|3:0,0:0:0:0:
30,342,62826,1,0,0:0:0:0:
81,244,63255,2,0,L|162:229,2,82.5,8|12|12,3:0|3:0|3:0,0:0:0:0:
34,213,64112,1,4,3:0:0:0:
34,102,64540,1,0,3:0:0:0:
131,51,64969,6,0,B|214:19|216:61|303:40,1,165,4|0,0:0|3:0,0:0:0:0:
348,45,65826,2,0,L|411:55,1,55,8|4,3:0|3:0,0:0:0:0:
456,63,66255,1,0,0:0:0:0:
396,155,66683,2,0,L|314:142,2,82.5,8|8|8,3:0|3:0|3:0,0:0:0:0:
449,168,67540,1,4,3:0:0:0:
470,275,67969,1,0,3:0:0:0:
371,324,68398,6,0,B|293:341|293:341|200:323,1,165,4|0,0:0|3:0,0:0:0:0:
155,338,69255,2,0,P|128:349|88:351,1,55,8|4,3:0|3:0,0:0:0:0:
47,350,69683,1,0,0:0:0:0:
23,242,70112,2,0,P|29:199|19:145,2,82.5,8|8|8,3:0|3:0|3:0,0:0:0:0:
73,265,70969,1,4,3:0:0:0:
155,338,71398,1,0,3:0:0:0:
247,278,71826,6,0,B|265:193|223:193|250:103,1,165,4|0,3:0|3:0,0:0:0:0:
284,75,72683,2,0,P|315:54|353:47,1,55,8|8,3:0|3:0,0:0:0:0:
386,40,73112,1,2,0:0:0:0:
485,87,73540,1,0,0:0:0:0:
376,339,74612,5,0,0:0:0:0:
375,339,74826,2,0,L|429:337,1,55,10|0,0:0|0:0,0:0:0:0:
480,314,75255,6,0,P|488:261|471:198,1,110,4|8,0:0|0:0,0:0:0:0:
368,179,76112,1,0,1:0:0:0:
368,179,76326,2,0,B|311:160|310:194|241:170,1,110
206,159,76969,2,0,L|83:160,1,110,0|8,1:0|0:0,0:0:0:0:
49,130,77612,2,0,L|49:66,1,55,0|0,0:0|1:0,0:0:0:0:
93,41,78040,1,0,0:0:0:0:
93,41,78255,1,8,0:0:0:0:
202,52,78683,6,0,L|329:49,1,110,0|8,1:0|0:0,0:0:0:0:
364,66,79326,1,0,0:0:0:0:
364,66,79540,2,0,P|421:78|465:112,1,110,0|8,1:0|0:0,0:0:0:0:
498,149,80183,1,0,0:0:0:0:
498,149,80398,1,0,1:0:0:0:
406,209,80826,2,0,P|349:197|305:163,1,110,8|0,0:0|1:0,0:0:0:0:
274,131,81469,1,0,0:0:0:0:
274,131,81683,2,0,L|223:98,1,55,8|0,0:0|0:0,0:0:0:0:
204,51,82112,6,0,B|147:38|147:38|85:55,1,110,0|8,1:0|0:0,0:0:0:0:
14,124,82969,1,0,1:0:0:0:
14,124,83183,2,0,L|10:236,1,110
23,287,83826,2,0,P|51:335|101:347,1,110,0|8,1:0|0:0,0:0:0:0:
156,350,84469,2,0,L|228:348,1,55,0|0,0:0|1:0,0:0:0:0:
239,301,84898,1,0,0:0:0:0:
239,301,85112,1,8,0:0:0:0:
237,191,85540,6,0,B|226:136|226:136|238:74,1,110,0|8,1:0|0:0,0:0:0:0:
281,51,86183,1,0,0:0:0:0:
281,51,86398,2,0,L|406:45,1,110,0|8,1:0|0:0,0:0:0:0:
442,66,87040,1,0,0:0:0:0:
442,66,87255,1,0,1:0:0:0:
397,166,87683,2,0,L|287:171,1,110,8|0,0:0|1:0,0:0:0:0:
260,219,88326,1,0,0:0:0:0:
260,219,88540,2,0,L|259:297,1,55,8|8,3:0|3:0,0:0:0:0:
239,325,88969,6,0,P|183:339|118:324,1,110,4|8,0:0|0:0,0:0:0:0:
35,277,89826,1,0,1:0:0:0:
35,277,90040,2,0,B|49:219|18:220|35:148,1,110
33,113,90683,2,0,P|63:68|120:46,1,110,0|8,1:0|0:0,0:0:0:0:
168,43,91326,2,0,L|232:40,1,55,0|0,0:0|1:0,0:0:0:0:
248,89,91755,1,0,0:0:0:0:
248,89,91969,1,8,0:0:0:0:
247,201,92398,6,0,B|256:257|256:257|238:316,1,110,0|8,1:0|0:0,0:0:0:0:
194,336,93040,1,0,0:0:0:0:
194,336,93255,2,0,L|71:339,1,110,0|8,1:0|0:0,0:0:0:0:
33,315,93898,1,0,0:0:0:0:
33,315,94112,1,0,1:0:0:0:
119,247,94540,2,0,L|114:123,1,110,8|0,0:0|1:0,0:0:0:0:
106,82,95183,1,0,0:0:0:0:
106,82,95398,2,0,L|37:74,1,55,8|0,0:0|0:0,0:0:0:0:
9,111,95826,6,0,L|13:220,1,110,0|8,1:0|0:0,0:0:0:0:
119,247,96683,1,0,1:0:0:0:
119,247,96898,2,0,B|171:250|171:250|225:278,1,110
247,326,97540,2,0,L|374:325,1,110,0|8,1:0|0:0,0:0:0:0:
411,324,98183,2,0,L|409:265,1,55,0|0,0:0|1:0,0:0:0:0:
413,214,98612,1,0,0:0:0:0:
413,214,98826,1,8,0:0:0:0:
307,186,99255,6,0,P|298:129|316:64,1,110,0|8,1:0|0:0,0:0:0:0:
356,50,99898,1,0,0:0:0:0:
356,50,100112,2,0,L|421:48,1,55,0|0,1:0|0:0,0:0:0:0:
459,73,100540,1,8,0:0:0:0:
479,124,100755,1,0,0:0:0:0:
256,192,100969,12,4,102683,0:0:0:0:
