osu file format v14

[General]
AudioFilename: audio.mp3
AudioLeadIn: 0
PreviewTime: 74612
Countdown: 0
SampleSet: Soft
StackLeniency: 0.4
Mode: 0
LetterboxInBreaks: 0
WidescreenStoryboard: 1

[Editor]
DistanceSpacing: 1.4
BeatDivisor: 3
GridSize: 4
TimelineZoom: 1.6

[Metadata]
Title:Ji Ming Yue
TitleUnicode:寄明月
Artist:S.I.N.G
ArtistUnicode:SING女团
Creator:Sandrew
Version:Lobelia's Insane
Source:
Tags:Super Impassioned Net Generation T2o 李懋扬 G-Tracy 纪粹希 Lobelia Yugu Sun Rainbow
BeatmapID:1627006
BeatmapSetID:773973

[Difficulty]
HPDrainRate:6
CircleSize:4
OverallDifficulty:7.5
ApproachRate:8.5
SliderMultiplier:1.7
SliderTickRate:1

[Events]
//Background and Video events
0,0,"bg.jpg",0,0
//Break Periods
//Storyboard Layer 0 (Background)
//Storyboard Layer 1 (Fail)
//Storyboard Layer 2 (Pass)
//Storyboard Layer 3 (Foreground)
//Storyboard Sound Samples

[TimingPoints]
1556,428.571428571429,4,2,1,40,1,0
1556,-133.333333333333,4,2,1,40,0,0
6698,428.571428571429,4,2,1,50,1,0
6698,-133.333333333333,4,2,1,50,0,0
20398,428.571428571429,4,2,1,60,1,0
20398,-100,4,2,1,60,0,0
61540,-133.333333333333,4,2,1,50,0,0
74826,-133.333333333333,4,2,1,60,0,0
75255,-100,4,2,1,70,0,1
88326,-100,4,2,1,80,0,0
88969,-100,4,2,1,70,0,1
102683,-100,4,2,1,60,0,0

[Colours]
Combo1 : 21,128,234
Combo2 : 237,61,61
Combo3 : 231,231,88
Combo4 : 191,138,244

[HitObjects]
410,63,5734,5,0,0:0:0:0:
410,63,5788,1,0,0:0:0:0:
410,63,5841,2,0,P|402:108|400:131,1,63.7500024318696
490,256,6270,2,0,P|478:224|461:192,1,63.7500024318696
321,170,6698,6,0,B|221:145|232:207|135:185,2,191.250007295609,4|0|0,0:0|0:0|0:0,0:0:0:0:
295,355,8413,6,0,B|275:302|307:256|307:256|265:225|236:289,2,191.250007295609,2|0|0,0:0|0:0|0:0,0:0:0:0:
375,316,9913,1,0,0:0:0:0:
454,355,10127,6,0,P|459:290|420:240,1,127.500004863739,2|0,0:0|0:0,0:0:0:0:
375,316,10770,2,0,L|364:189,1,127.500004863739
347,11,11627,1,0,0:0:0:0:
265,46,11841,6,0,P|226:62|203:78,1,63.7500024318696,2|0,0:0|0:0,0:0:0:0:
129,117,12270,2,0,P|96:120|59:114,1,63.7500024318696
23,101,12556,2,0,L|19:71,2,21.2500008106232
31,190,12913,1,0,0:0:0:0:
42,278,13127,1,0,0:0:0:0:
55,366,13341,1,0,0:0:0:0:
125,310,13556,6,0,B|222:279|229:337|313:311,2,191.250007295609,2|0|0,0:0|0:0|0:0,0:0:0:0:
270,222,15270,6,0,B|229:167|263:103|263:103|303:104|318:137,2,191.250007295609,2|0|0,0:0|0:0|0:0,0:0:0:0:
357,239,16770,1,0,0:0:0:0:
426,294,16984,6,0,P|446:248|421:177,1,127.500004863739,2|0,0:0|0:0,0:0:0:0:
357,239,17627,2,0,L|377:368,1,127.500004863739
199,340,18484,1,0,0:0:0:0:
115,308,18698,6,0,P|104:277|97:236,1,63.7500024318696,2|0,0:0|0:0,0:0:0:0:
94,213,18992,1,0,0:0:0:0:
94,213,19073,2,0,P|134:199|170:195,1,79.687503039837
338,171,19556,2,0,L|338:206,5,21.2500008106232
367,152,19984,2,0,L|393:152,5,21.2500008106232
336,130,20398,6,0,L|336:34,1,85,0|0,1:0|0:0,0:0:0:0:
260,10,20719,1,0,0:0:0:0:
260,10,20826,1,8,0:0:0:0:
243,146,21040,1,0,0:0:0:0:
336,45,21255,1,0,1:0:0:0:
200,71,21469,1,0,0:0:0:0:
325,130,21683,1,8,0:0:0:0:
260,10,21898,1,0,0:0:0:0:
243,146,22112,6,0,P|229:186|201:219,1,85,0|0,1:0|0:0,0:0:0:0:
119,237,22433,1,0,0:0:0:0:
119,237,22540,1,8,0:0:0:0:
248,288,22755,1,0,0:0:0:0:
117,323,22969,1,0,1:0:0:0:
201,218,23183,1,0,0:0:0:0:
193,353,23398,1,8,0:0:0:0:
119,237,23612,1,0,0:0:0:0:
248,288,23826,6,0,L|356:273,1,85,0|0,1:0|0:0,0:0:0:0:
417,265,24148,1,0,0:0:0:0:
417,265,24255,1,8,0:0:0:0:
493,368,24469,1,0,0:0:0:0:
499,170,24683,1,0,1:0:0:0:
417,265,24898,1,0,0:0:0:0:
423,77,25112,1,8,0:0:0:0:
499,170,25326,1,0,0:0:0:0:
329,163,25540,6,0,L|422:166,1,85,0|0,1:0|0:0,0:0:0:0:
499,170,25862,1,0,0:0:0:0:
499,170,25969,1,8,0:0:0:0:
417,265,26183,1,0,0:0:0:0:
423,40,26398,1,0,1:0:0:0:
423,40,26826,2,0,L|328:36,1,85,8|0,0:0|0:0,0:0:0:0:
159,153,27255,6,0,L|254:157,1,85,0|0,1:0|0:0,0:0:0:0:
329,163,27576,1,0,0:0:0:0:
329,163,27683,1,8,0:0:0:0:
271,292,27898,1,0,0:0:0:0:
243,156,28112,1,0,1:0:0:0:
345,246,28326,1,0,0:0:0:0:
205,234,28540,1,8,0:0:0:0:
329,163,28755,1,0,0:0:0:0:
205,234,28969,6,0,L|121:232,1,85,0|0,1:0|0:0,0:0:0:0:
34,227,29290,1,0,0:0:0:0:
34,227,29398,1,8,0:0:0:0:
88,91,29612,1,0,0:0:0:0:
120,231,29826,1,0,1:0:0:0:
12,141,30040,1,0,0:0:0:0:
155,151,30255,1,8,0:0:0:0:
34,227,30469,1,0,0:0:0:0:
88,91,30683,6,0,P|122:67|167:62,1,85,0|0,1:0|0:0,0:0:0:0:
250,62,31005,1,0,0:0:0:0:
250,62,31112,1,8,0:0:0:0:
265,189,31326,1,0,0:0:0:0:
377,52,31540,1,0,1:0:0:0:
250,62,31755,1,0,0:0:0:0:
391,182,31969,1,8,0:0:0:0:
265,189,32183,1,0,0:0:0:0:
407,309,32398,6,0,L|322:315,1,85,0|0,1:0|0:0,0:0:0:0:
238,322,32719,1,0,0:0:0:0:
238,322,32826,1,8,0:0:0:0:
265,189,33040,1,0,0:0:0:0:
105,335,33255,1,0,1:0:0:0:
105,335,33683,2,0,P|100:288|101:247,1,85,8|0,0:0|0:0,0:0:0:0:
163,92,34112,6,0,P|168:139|167:180,1,85,4|0,0:0|0:0,0:0:0:0:
31,180,34540,2,0,P|30:137|35:95,1,85,8|0,0:0|0:0,0:0:0:0:
100,250,34969,1,0,1:0:0:0:
265,193,35183,2,0,P|307:186|351:192,1,85,0|8,0:0|0:0,0:0:0:0:
501,259,35612,6,0,P|459:266|415:260,1,85,0|0,0:0|1:0,0:0:0:0:
358,106,36040,2,0,L|347:202,1,85,0|8,0:0|0:0,0:0:0:0:
407,345,36469,2,0,L|418:249,1,85,0|0,0:0|1:0,0:0:0:0:
457,185,36790,1,0,3:0:0:0:
457,185,36898,2,0,L|463:136,1,42.5,0|0,3:0|3:0,3:0:0:0:
477,32,37112,1,8,0:0:0:0:
477,32,37219,1,0,3:0:0:0:
477,32,37326,2,0,L|426:37,1,42.5,0|0,3:0|3:0,3:0:0:0:
358,106,37540,6,0,L|259:96,1,85,0|0,1:0|0:0,0:0:0:0:
176,195,37969,1,8,0:0:0:0:
273,97,38183,1,0,0:0:0:0:
107,67,38398,2,0,P|101:108|105:161,1,85,0|0,1:0|0:0,0:0:0:0:
179,200,38719,1,0,0:0:0:0:
179,200,38826,2,0,L|275:190,1,85,8|0,0:0|0:0,0:0:0:0:
401,246,39255,5,0,1:0:0:0:
320,346,39469,2,0,P|314:309|318:251,1,85,0|8,0:0|0:0,0:0:0:0:
485,245,39898,2,0,P|438:248|397:245,1,85,0|0,0:0|1:0,0:0:0:0:
366,166,40219,1,0,3:0:0:0:
366,166,40326,2,0,L|371:120,1,42.5,0|0,3:0|3:0,3:0:0:0:
381,17,40540,1,8,0:0:0:0:
381,17,40648,1,0,3:0:0:0:
381,17,40755,2,0,L|430:22,1,42.5,0|0,3:0|3:0,3:0:0:0:
455,132,40969,6,0,L|367:123,1,85,0|0,1:0|0:0,0:0:0:0:
265,199,41398,2,0,L|276:106,1,85,8|0,0:0|0:0,0:0:0:0:
200,6,41826,1,0,1:0:0:0:
118,98,42040,1,0,0:0:0:0:
118,98,42148,1,0,0:0:0:0:
118,98,42255,1,8,0:0:0:0:
61,223,42469,6,0,P|104:213|153:212,1,85,0|0,0:0|1:0,0:0:0:0:
249,350,42898,2,0,P|228:308|218:266,1,85,0|8,0:0|0:0,0:0:0:0:
308,130,43326,2,0,P|280:161|239:180,1,85,0|0,0:0|1:0,0:0:0:0:
171,130,43648,1,0,3:0:0:0:
171,130,43755,2,0,L|175:77,1,42.5,0|0,3:0|3:0,3:0:0:0:
82,32,43969,1,8,0:0:0:0:
82,32,44076,1,0,3:0:0:0:
82,32,44183,2,0,L|79:81,1,42.5,0|0,3:0|3:0,3:0:0:0:
19,170,44398,6,0,P|20:214|26:264,1,85,0|0,1:0|0:0,0:0:0:0:
158,268,44826,1,8,0:0:0:0:
171,130,45040,1,0,0:0:0:0:
241,321,45255,2,0,P|286:310|330:310,1,85,0|0,1:0|0:0,0:0:0:0:
409,318,45576,1,0,0:0:0:0:
409,318,45683,1,8,0:0:0:0:
322,194,45898,1,0,0:0:0:0:
475,194,46112,5,0,1:0:0:0:
322,194,46326,2,0,P|315:144|322:101,1,85,0|8,0:0|0:0,0:0:0:0:
456,42,46755,1,0,0:0:0:0:
456,42,47183,1,8,3:0:0:0:
413,42,47290,1,8,3:0:0:0:
370,39,47398,1,8,3:0:0:0:
221,119,47612,1,8,3:0:0:0:
382,163,47826,6,0,P|356:129|316:108,1,85,4|0,0:0|0:0,0:0:0:0:
228,253,48255,2,0,P|266:233|296:194,1,85,8|0,0:0|0:0,0:0:0:0:
260,33,48683,1,0,1:0:0:0:
138,120,48898,2,0,P|179:129|220:118,1,85,0|8,0:0|0:0,0:0:0:0:
56,73,49326,6,0,P|44:116|57:165,1,85,0|0,0:0|1:0,0:0:0:0:
220,118,49755,2,0,P|179:110|138:120,1,85,0|8,0:0|0:0,0:0:0:0:
291,184,50183,2,0,P|331:191|372:182,1,85,0|0,0:0|1:0,0:0:0:0:
428,116,50505,1,0,3:0:0:0:
428,116,50612,2,0,L|425:71,1,42.5,0|0,3:0|3:0,3:0:0:0:
506,203,50826,1,8,0:0:0:0:
506,203,50933,1,0,3:0:0:0:
506,203,51040,2,0,L|502:152,1,42.5,0|0,3:0|3:0,3:0:0:0:
434,294,51255,6,0,P|390:285|346:295,1,85,0|0,1:0|0:0,0:0:0:0:
214,359,51683,1,8,0:0:0:0:
351,292,51898,1,0,0:0:0:0:
218,189,52112,2,0,L|217:283,1,85,0|0,1:0|0:0,0:0:0:0:
214,359,52433,1,0,0:0:0:0:
214,359,52540,1,8,0:0:0:0:
351,292,52755,1,0,0:0:0:0:
218,189,52969,5,0,1:0:0:0:
56,315,53183,2,0,P|97:324|138:315,1,85,0|8,0:0|0:0,0:0:0:0:
164,113,53612,2,0,P|123:104|82:113,1,85,0|0,0:0|1:0,0:0:0:0:
29,182,53933,1,0,3:0:0:0:
29,182,54040,2,0,L|31:232,1,42.5,0|0,3:0|3:0,3:0:0:0:
89,119,54255,1,8,0:0:0:0:
89,119,54362,1,0,3:0:0:0:
89,119,54469,2,0,L|87:70,1,42.5,0|0,3:0|3:0,3:0:0:0:
218,37,54683,6,0,P|259:47|302:34,1,85,0|0,1:0|0:0,0:0:0:0:
465,76,55112,2,0,P|424:66|381:79,1,85,8|0,0:0|0:0,0:0:0:0:
306,199,55540,1,0,1:0:0:0:
436,240,55755,2,0,L|427:141,1,85,0|8,0:0|0:0,0:0:0:0:
306,199,56183,6,0,L|313:283,1,85,0|0,0:0|1:0,0:0:0:0:
436,240,56612,2,0,L|427:141,1,85,0|8,0:0|0:0,0:0:0:0:
181,241,57040,2,0,L|188:325,1,85,0|0,0:0|1:0,0:0:0:0:
113,365,57362,1,0,3:0:0:0:
113,365,57469,2,0,P|92:338|79:314,1,42.5,0|0,3:0|3:0,3:0:0:0:
12,250,57683,1,8,0:0:0:0:
12,250,57790,1,0,3:0:0:0:
12,250,57898,2,0,P|8:226|9:194,1,42.5,0|0,3:0|3:0,3:0:0:0:
79,114,58112,6,0,P|122:104|168:112,1,85,0|0,1:0|0:0,0:0:0:0:
278,203,58540,1,8,0:0:0:0:
161,109,58755,1,0,0:0:0:0:
287,30,58969,2,0,L|284:133,1,85,0|0,1:0|0:0,0:0:0:0:
273,287,59398,1,8,0:0:0:0:
284,114,59612,1,0,0:0:0:0:
410,126,59826,5,0,1:0:0:0:
404,299,60040,2,0,L|406:214,1,85,0|8,0:0|0:0,0:0:0:0:
412,41,60469,2,0,L|409:144,1,85,0|0,0:0|1:0,0:0:0:0:
412,307,60898,1,0,0:0:0:0:
412,307,61005,1,0,0:0:0:0:
412,307,61112,2,0,P|368:316|325:310,1,85,8|0,0:0|0:0,0:0:0:0:
268,233,61540,6,0,P|271:299|231:346,1,127.500004863739,4|0,0:0|3:0,0:0:0:0:
153,384,62183,1,0,3:0:0:0:
53,229,62398,1,8,3:0:0:0:
103,308,62612,1,4,3:0:0:0:
187,268,62826,2,0,P|180:217|173:195,1,63.7500024318696
105,151,63255,5,8,3:0:0:0:
232,110,63576,1,12,3:0:0:0:
363,137,63898,1,12,3:0:0:0:
105,151,64112,6,0,L|100:115,5,31.8750012159348,4|0|0|0|0|0,3:0|3:0|3:0|3:0|3:0|3:0,3:0:0:0:
163,60,64755,2,0,L|174:22,1,31.8750012159348,8|0,3:0|3:0,3:0:0:0:
232,110,64969,6,0,P|278:100|344:110,2,95.6250036478044,4|0|0,0:0|3:0|3:0,0:0:0:0:
105,151,65826,1,8,3:0:0:0:
191,189,66040,1,4,3:0:0:0:
232,110,66255,2,0,P|259:127|276:153,1,63.7500024318696
191,189,66683,5,8,3:0:0:0:
64,233,67005,1,8,3:0:0:0:
59,366,67326,1,8,3:0:0:0:
191,189,67540,6,0,L|196:227,5,31.8750012159348,4|0|0|0|0|0,3:0|3:0|3:0|3:0|3:0|3:0,3:0:0:0:
272,262,68183,2,0,L|306:259,1,31.8750012159348,8|0,3:0|3:0,3:0:0:0:
374,311,68398,6,0,P|355:253|380:195,1,127.500004863739,4|0,0:0|3:0,0:0:0:0:
444,257,69040,1,0,3:0:0:0:
441,125,69255,1,8,3:0:0:0:
380,194,69469,1,4,3:0:0:0:
288,198,69683,2,0,P|283:153|285:116,1,63.7500024318696
305,47,70112,5,8,3:0:0:0:
185,107,70433,1,8,3:0:0:0:
55,73,70755,1,8,3:0:0:0:
305,47,70969,6,0,L|330:71,5,31.8750012159348,4|0|0|0|0|0,3:0|3:0|3:0|3:0|3:0|3:0,3:0:0:0:
283,134,71612,2,0,L|291:181,1,31.8750012159348,8|0,3:0|3:0,3:0:0:0:
221,221,71826,5,4,3:0:0:0:
198,220,71933,1,0,3:0:0:0:
175,219,72040,1,0,3:0:0:0:
152,218,72148,1,0,3:0:0:0:
129,217,72255,1,0,3:0:0:0:
106,216,72362,1,0,3:0:0:0:
83,215,72469,2,0,L|35:212,1,31.8750012159348,0|0,3:0|3:0,3:0:0:0:
95,339,72683,2,0,L|173:337,1,63.7500024318696,8|8,3:0|3:0,0:0:0:0:
341,335,73112,1,2,0:0:0:0:
341,335,73540,5,0,0:0:0:0:
338,245,73755,1,0,0:0:0:0:
420,210,73969,1,0,0:0:0:0:
477,278,74183,1,0,0:0:0:0:
433,356,74398,1,0,0:0:0:0:
338,245,74612,2,0,L|335:200,1,31.8750012159348
266,165,74826,6,0,L|271:97,1,63.7500024318696,10|0,0:0|0:0,0:0:0:0:
439,47,75255,6,0,P|397:57|338:58,1,85,4|0,0:0|0:0,0:0:0:0:
108,59,75683,2,0,P|150:49|209:48,1,85,8|0,0:0|0:0,0:0:0:0:
266,165,76112,1,0,1:0:0:0:
86,226,76326,2,0,P|68:188|63:138,1,85,0|8,0:0|0:0,0:0:0:0:
266,165,76755,2,0,B|284:252|219:246|240:327,1,170
180,192,77397,5,8,0:0:0:0:
324,300,77612,2,0,P|363:312|406:305,1,85,0|0,0:0|1:0,0:0:0:0:
240,327,78040,1,0,0:0:0:0:
180,192,78255,1,8,0:0:0:0:
324,300,78469,1,0,0:0:0:0:
342,111,78683,5,0,1:0:0:0:
178,24,78898,1,0,0:0:0:0:
342,81,79112,5,8,0:0:0:0:
172,149,79326,1,0,0:0:0:0:
343,50,79540,5,0,1:0:0:0:
236,244,79755,1,0,0:0:0:0:
345,20,79969,5,8,0:0:0:0:
380,253,80183,1,0,0:0:0:0:
117,169,80398,5,0,1:0:0:0:
64,329,80612,2,0,P|54:282|57:231,1,85,0|8,0:0|0:0,0:0:0:0:
236,244,81040,1,0,0:0:0:0:
117,169,81255,2,0,P|126:127|153:87,1,85,0|0,1:0|0:0,0:0:0:0:
232,73,81576,1,0,0:0:0:0:
232,73,81683,1,8,0:0:0:0:
236,244,81898,1,0,0:0:0:0:
396,194,82112,6,0,L|304:186,1,85,0|0,1:0|0:0,0:0:0:0:
285,325,82540,2,0,L|373:334,1,85,8|0,0:0|0:0,0:0:0:0:
236,244,82969,1,0,1:0:0:0:
485,214,83183,2,0,P|486:171|461:127,1,85,0|8,0:0|0:0,0:0:0:0:
326,73,83612,6,0,B|423:96|407:30|501:52,1,170
249,26,84255,1,8,0:0:0:0:
173,169,84469,2,0,L|177:69,1,85,0|0,0:0|1:0,0:0:0:0:
326,73,84898,1,0,0:0:0:0:
396,194,85112,1,8,0:0:0:0:
489,49,85326,1,0,0:0:0:0:
249,26,85540,5,0,1:0:0:0:
228,251,85755,1,0,0:0:0:0:
281,30,85969,5,8,0:0:0:0:
113,241,86183,1,0,0:0:0:0:
310,33,86398,5,0,1:0:0:0:
59,135,86612,1,0,0:0:0:0:
342,37,86826,5,8,0:0:0:0:
58,20,87040,1,0,0:0:0:0:
228,251,87255,6,0,P|227:200|233:158,1,85,0|0,1:0|0:0,0:0:0:0:
342,37,87683,1,8,0:0:0:0:
409,177,87898,1,0,0:0:0:0:
231,166,88112,1,0,1:0:0:0:
409,177,88326,5,8,3:0:0:0:
412,236,88433,1,8,3:0:0:0:
416,295,88540,1,8,3:0:0:0:
484,118,88755,1,8,3:0:0:0:
335,331,88969,6,0,P|294:342|242:343,1,85,4|0,0:0|0:0,0:0:0:0:
230,209,89398,2,0,P|271:198|323:197,1,85,8|0,0:0|0:0,0:0:0:0:
175,286,89826,1,0,1:0:0:0:
57,131,90040,2,0,L|53:216,1,85,0|8,0:0|0:0,0:0:0:0:
181,54,90469,6,0,B|123:66|123:66|77:41|77:41|14:54,1,170
272,39,91112,1,8,0:0:0:0:
347,187,91326,2,0,L|340:95,1,85,0|0,0:0|1:0,0:0:0:0:
464,35,91755,1,0,0:0:0:0:
272,39,91969,1,8,0:0:0:0:
463,169,92183,1,0,0:0:0:0:
268,266,92398,5,0,1:0:0:0:
272,39,92612,1,0,0:0:0:0:
298,263,92826,5,8,0:0:0:0:
159,67,93040,1,0,0:0:0:0:
328,261,93255,5,0,1:0:0:0:
114,168,93469,1,0,0:0:0:0:
360,259,93683,5,8,0:0:0:0:
124,282,93898,1,0,0:0:0:0:
159,67,94112,5,0,1:0:0:0:
29,172,94326,2,0,P|72:175|135:159,1,85,0|8,0:0|0:0,0:0:0:0:
69,28,94755,1,0,0:0:0:0:
194,220,94969,2,0,P|228:215|283:191,1,85,0|0,1:0|0:0,0:0:0:0:
342,143,95290,1,0,0:0:0:0:
342,143,95398,1,8,0:0:0:0:
264,29,95612,1,0,0:0:0:0:
424,170,95826,6,0,P|427:129|401:80,1,85,0|0,1:0|0:0,0:0:0:0:
259,116,96255,2,0,P|255:158|274:196,1,85,8|0,0:0|0:0,0:0:0:0:
323,44,96683,1,0,1:0:0:0:
363,245,96898,2,0,L|381:335,1,85,0|8,0:0|0:0,0:0:0:0:
196,255,97326,6,0,B|141:279|84:252|84:252|93:220|120:212,1,170
273,195,97969,1,8,0:0:0:0:
105,127,98183,2,0,P|106:92|127:42,1,85,0|0,0:0|1:0,0:0:0:0:
290,29,98612,1,0,0:0:0:0:
273,195,98826,1,8,0:0:0:0:
417,46,99040,1,0,0:0:0:0:
398,221,99255,5,0,1:0:0:0:
158,264,99469,1,0,0:0:0:0:
397,253,99683,5,8,0:0:0:0:
136,163,99898,1,0,0:0:0:0:
397,285,100112,5,0,1:0:0:0:
214,83,100326,1,0,0:0:0:0:
397,318,100540,5,8,0:0:0:0:
321,73,100755,1,0,0:0:0:0:
136,163,100969,6,0,P|93:160|51:140,1,85,0|0,1:0|0:0,0:0:0:0:
156,10,101398,1,8,3:0:0:0:
136,163,101612,1,4,3:0:0:0:
320,101,101826,2,0,P|329:143|318:197,1,85
286,261,102148,1,2,3:0:0:0:
286,261,102255,1,8,3:0:0:0:
216,89,102469,1,4,3:0:0:0:
462,53,102683,5,4,0:0:0:0:
