osu file format v14

[General]
AudioFilename: audio.mp3
AudioLeadIn: 0
PreviewTime: 74612
Countdown: 0
SampleSet: Soft
StackLeniency: 0.4
Mode: 0
LetterboxInBreaks: 0
WidescreenStoryboard: 1

[Editor]
DistanceSpacing: 1.5
BeatDivisor: 4
GridSize: 4
TimelineZoom: 1.999999

[Metadata]
Title:Ji Ming Yue
TitleUnicode:寄明月
Artist:S.I.N.G
ArtistUnicode:SING女团
Creator:Sandrew
Version:Hard
Source:
Tags:Super Impassioned Net Generation T2o 李懋扬 G-Tracy 纪粹希 Lobelia Yugu Sun Rainbow
BeatmapID:1626823
BeatmapSetID:773973

[Difficulty]
HPDrainRate:5
CircleSize:3.7
OverallDifficulty:6
ApproachRate:7
SliderMultiplier:1.4
SliderTickRate:1

[Events]
//Background and Video events
0,0,"bg.jpg",0,0
//Break Periods
//Storyboard Layer 0 (Background)
//Storyboard Layer 1 (Fail)
//Storyboard Layer 2 (Pass)
//Storyboard Layer 3 (Foreground)
//Storyboard Sound Samples

[TimingPoints]
1556,428.571428571429,4,2,1,40,1,0
1556,-133.333333333333,4,2,1,40,0,0
6698,428.571428571429,4,2,1,50,1,0
6698,-133.333333333333,4,2,1,50,0,0
20398,428.571428571429,4,2,1,60,1,0
20398,-100,4,2,1,60,0,0
61540,-133.333333333333,4,2,1,50,0,0
74826,-133.333333333333,4,2,1,60,0,0
75255,-100,4,2,1,70,0,1
88326,-100,4,2,1,80,0,0
88969,-100,4,2,1,70,0,1
102683,-100,4,2,1,60,0,0

[Colours]
Combo1 : 21,128,234
Combo2 : 237,61,61
Combo3 : 231,231,88
Combo4 : 191,138,244

[HitObjects]
57,63,5734,6,0,L|68:18,1,26.2500010013581,0|0,0:0|0:0,0:0:0:0:
145,47,6056,1,0,0:0:0:0:
145,47,6270,2,0,P|135:68|126:114,1,52.5000020027161,0|0,0:0|0:0,0:0:0:0:
75,157,6698,6,0,B|150:135|151:173|237:156,1,157.500006008148,4|0,0:0|0:0,0:0:0:0:
459,327,7984,1,0,0:0:0:0:
455,174,8413,6,0,B|476:246|476:246|458:328,1,157.500006008148,2|0,0:0|0:0,0:0:0:0:
224,161,9698,2,0,L|212:97,1,52.5000020027161,0|0,0:0|0:0,0:0:0:0:
157,54,10127,6,0,B|106:35|105:65|40:45,1,105.000004005432,2|0,0:0|0:0,0:0:0:0:
53,48,10770,1,0,0:0:0:0:
53,156,11198,2,0,B|58:51,1,105.000004005432
136,63,11841,6,0,B|188:65,2,52.5000020027161,2|0|0,0:0|0:0|0:0,0:0:0:0:
67,104,12484,2,0,L|34:103,3,17.500000667572
130,151,12913,1,0,0:0:0:0:
130,151,13127,2,0,L|118:225,1,52.5000020027161,0|0,0:0|0:0,0:0:0:0:
73,265,13556,6,0,B|148:243|149:281|235:264,1,157.500006008148,2|0,0:0|0:0,0:0:0:0:
447,188,14841,1,0,0:0:0:0:
454,34,15270,6,0,B|481:102|443:197,1,157.500006008148,2|0,0:0|0:0,0:0:0:0:
228,265,16556,2,0,L|210:333,1,52.5000020027161,0|0,0:0|0:0,0:0:0:0:
141,343,16984,6,0,P|91:330|35:349,1,105.000004005432,2|0,0:0|0:0,0:0:0:0:
41,344,17627,1,0,0:0:0:0:
49,244,18056,2,0,L|46:361,1,105.000004005432
125,336,18698,5,2,0:0:0:0:
130,256,18913,2,0,L|130:232,2,19.6875007510186
125,336,19341,1,0,0:0:0:0:
49,244,19556,1,0,0:0:0:0:
49,244,19984,6,0,L|43:172,1,52.5000020027161
95,86,20398,5,0,1:0:0:0:
166,41,20612,1,0,0:0:0:0:
166,41,20719,1,0,0:0:0:0:
166,41,20826,2,0,L|250:39,1,70,8|0,0:0|0:0,0:0:0:0:
239,123,21255,2,0,L|169:124,1,70,0|0,1:0|0:0,0:0:0:0:
95,86,21683,1,8,0:0:0:0:
95,86,21898,1,0,0:0:0:0:
239,123,22112,6,0,P|274:130|318:148,1,70,0|0,1:0|0:0,0:0:0:0:
324,179,22433,1,0,0:0:0:0:
324,179,22540,2,0,P|329:223|314:263,1,70,8|0,0:0|0:0,0:0:0:0:
255,299,22969,2,0,P|213:295|173:272,1,70,0|0,1:0|0:0,0:0:0:0:
243,211,23398,1,8,0:0:0:0:
243,211,23612,1,0,0:0:0:0:
331,334,23826,5,0,1:0:0:0:
414,345,24040,1,0,0:0:0:0:
414,345,24148,1,0,0:0:0:0:
414,345,24255,2,0,P|450:351|490:338,1,70,8|0,0:0|0:0,0:0:0:0:
446,269,24683,1,0,1:0:0:0:
446,269,24898,1,0,0:0:0:0:
490,197,25112,2,0,L|491:108,1,70,8|0,0:0|0:0,0:0:0:0:
446,269,25540,5,0,1:0:0:0:
406,195,25755,2,0,L|407:144,2,35,0|0|8,0:0|0:0|0:0,0:0:0:0:
490,197,26183,1,0,0:0:0:0:
421,79,26398,1,0,1:0:0:0:
421,79,26826,6,0,P|454:52|497:48,1,70,8|0,0:0|0:0,0:0:0:0:
337,84,27255,6,0,P|304:111|261:115,1,70,0|0,1:0|0:0,0:0:0:0:
240,126,27576,1,0,0:0:0:0:
240,126,27683,2,0,L|157:125,1,70,8|0,0:0|0:0,0:0:0:0:
166,209,28112,2,0,L|235:209,1,70,0|0,1:0|0:0,0:0:0:0:
320,211,28540,1,8,0:0:0:0:
320,211,28755,1,0,0:0:0:0:
166,209,28969,5,0,1:0:0:0:
83,194,29183,1,0,0:0:0:0:
83,194,29290,1,0,0:0:0:0:
83,194,29398,2,0,P|46:218|25:255,1,70,8|0,0:0|0:0,0:0:0:0:
110,275,29826,1,0,1:0:0:0:
110,275,30040,1,0,0:0:0:0:
35,323,30255,2,0,P|67:352|110:364,1,70,8|0,0:0|0:0,0:0:0:0:
31,238,30683,5,0,1:0:0:0:
33,153,30898,1,0,0:0:0:0:
33,153,31005,1,0,0:0:0:0:
33,153,31112,2,0,P|27:111|44:63,1,70,8|0,0:0|0:0,0:0:0:0:
108,117,31540,1,0,1:0:0:0:
108,117,31755,1,0,0:0:0:0:
164,55,31969,2,0,L|247:55,1,70,8|0,0:0|0:0,0:0:0:0:
108,117,32398,5,0,1:0:0:0:
189,137,32612,2,0,L|242:137,2,35,0|0|8,0:0|0:0|0:0,0:0:0:0:
164,55,33040,1,0,0:0:0:0:
131,203,33255,1,0,1:0:0:0:
131,203,33683,6,0,P|91:199|44:183,1,70,8|0,0:0|0:0,0:0:0:0:
211,220,34112,6,0,P|235:244|264:264,1,70,4|0,0:0|0:0,0:0:0:0:
317,329,34540,2,0,P|352:340|400:344,1,70,8|0,0:0|0:0,0:0:0:0:
464,316,34969,1,0,1:0:0:0:
464,316,35183,2,0,P|475:281|479:233,1,70,0|8,0:0|0:0,0:0:0:0:
480,164,35612,6,0,L|480:84,1,70,0|0,0:0|1:0,0:0:0:0:
412,44,36040,2,0,L|332:40,1,70,0|8,0:0|0:0,0:0:0:0:
332,124,36469,2,0,L|401:127,1,70,0|0,0:0|1:0,0:0:0:0:
480,94,36898,2,0,L|480:164,1,70,0|8,3:0|0:0,0:0:0:0:
213,50,37540,6,0,L|133:46,1,70,0|0,1:0|0:0,0:0:0:0:
59,44,37969,1,8,0:0:0:0:
59,44,38183,1,0,0:0:0:0:
143,46,38398,2,0,P|134:83|106:114,1,70,0|0,1:0|0:0,0:0:0:0:
60,171,38826,1,8,0:0:0:0:
60,171,39040,1,0,0:0:0:0:
139,196,39255,5,0,1:0:0:0:
139,196,39469,2,0,P|175:185|216:194,1,70,0|8,0:0|0:0,0:0:0:0:
262,252,39898,2,0,P|236:187|262:108,1,140,0|0,0:0|3:0,0:0:0:0:
337,132,40540,2,0,L|432:131,1,70,8|0,0:0|3:0,0:0:0:0:
253,121,40969,6,0,L|184:80,1,70,0|0,1:0|0:0,0:0:0:0:
121,40,41398,2,0,L|30:40,1,70,8|0,0:0|0:0,0:0:0:0:
47,123,41826,1,0,1:0:0:0:
47,123,42040,2,0,L|117:123,1,70,0|8,0:0|0:0,0:0:0:0:
173,185,42469,6,0,P|177:219|164:280,1,70,0|0,0:0|1:0,0:0:0:0:
129,326,42898,2,0,P|102:349|48:358,1,70,0|8,0:0|0:0,0:0:0:0:
30,284,43326,2,0,P|57:261|111:252,1,70,0|0,0:0|1:0,0:0:0:0:
172,254,43755,2,0,L|255:254,1,70,0|8,3:0|0:0,0:0:0:0:
471,339,44398,6,0,P|477:298|468:267,1,70,0|0,1:0|0:0,0:0:0:0:
473,186,44826,1,8,0:0:0:0:
473,186,45040,1,0,0:0:0:0:
469,270,45255,2,0,L|391:238,1,70,0|0,1:0|0:0,0:0:0:0:
325,214,45683,1,8,0:0:0:0:
325,214,45898,1,0,0:0:0:0:
386,157,46112,5,0,1:0:0:0:
386,157,46326,2,0,L|442:98,1,70,0|8,0:0|0:0,0:0:0:0:
492,45,46755,2,0,B|435:82|435:82|360:45,1,140
328,49,47290,6,0,L|297:88,1,35,8|8,3:0|3:0,0:0:0:0:
386,157,47612,1,8,3:0:0:0:
306,76,47826,6,0,L|234:48,1,70,4|0,0:0|0:0,0:0:0:0:
157,34,48255,2,0,L|63:34,1,70,8|0,0:0|0:0,0:0:0:0:
26,92,48683,1,0,1:0:0:0:
26,92,48898,2,0,P|55:113|102:118,1,70,0|8,0:0|0:0,0:0:0:0:
152,173,49326,6,0,P|158:210|143:255,1,70,0|0,0:0|1:0,0:0:0:0:
72,273,49755,2,0,P|66:236|81:191,1,70,0|8,0:0|0:0,0:0:0:0:
150,241,50183,2,0,P|156:278|141:323,1,70,0|0,0:0|1:0,0:0:0:0:
70,341,50612,2,0,P|64:304|79:259,1,70,0|8,3:0|0:0,0:0:0:0:
268,45,51255,6,0,P|309:39|340:48,1,70,0|0,1:0|0:0,0:0:0:0:
421,43,51683,1,8,0:0:0:0:
421,43,51898,1,0,0:0:0:0:
337,47,52112,2,0,L|369:125,1,70,0|0,1:0|0:0,0:0:0:0:
402,186,52540,1,8,0:0:0:0:
402,186,52755,1,0,0:0:0:0:
318,184,52969,5,0,1:0:0:0:
318,184,53183,2,0,L|217:184,1,70,0|8,0:0|0:0,0:0:0:0:
195,116,53612,2,0,P|207:184|188:250,1,140,0|0,0:0|3:0,0:0:0:0:
101,269,54255,2,0,P|70:284|43:317,1,70,8|0,0:0|3:0,0:0:0:0:
188,250,54683,6,0,P|227:258|275:291,1,70,0|0,1:0|0:0,0:0:0:0:
317,327,55112,2,0,P|350:336|404:336,1,70,8|0,0:0|0:0,0:0:0:0:
469,347,55540,1,0,1:0:0:0:
469,347,55755,2,0,P|460:306|442:273,1,70,0|8,0:0|0:0,0:0:0:0:
477,202,56183,6,0,L|481:111,1,70,0|0,0:0|1:0,0:0:0:0:
405,92,56612,2,0,L|401:161,1,70,0|8,0:0|0:0,0:0:0:0:
362,237,57040,2,0,L|292:233,1,70,0|0,0:0|1:0,0:0:0:0:
332,159,57469,2,0,L|401:162,1,70,0|8,3:0|0:0,0:0:0:0:
191,48,58112,6,0,L|111:44,1,70,0|0,1:0|0:0,0:0:0:0:
37,42,58540,1,8,0:0:0:0:
37,42,58755,1,0,0:0:0:0:
121,44,58969,2,0,P|112:81|84:112,1,70,0|0,1:0|0:0,0:0:0:0:
38,169,59398,1,8,0:0:0:0:
38,169,59612,1,0,0:0:0:0:
119,167,59826,6,0,P|110:129|82:97,1,70,0|0,1:0|0:0,0:0:0:0:
38,169,60255,2,0,P|47:207|75:239,1,70,8|0,0:0|0:0,0:0:0:0:
216,249,60683,1,0,1:0:0:0:
136,275,60898,1,0,0:0:0:0:
255,323,61112,1,8,0:0:0:0:
399,173,61540,6,0,B|326:203|326:138|247:171,1,157.500006008148,4|0,0:0|3:0,0:0:0:0:
287,243,62398,1,8,3:0:0:0:
247,171,62612,2,0,B|259:118|259:118|242:50,1,105.000004005432,4|0,3:0|0:0,0:0:0:0:
171,44,63255,6,0,L|90:42,2,78.7500030040742,8|12|12,3:0|3:0|3:0,0:0:0:0:
246,68,64112,1,4,3:0:0:0:
327,47,64326,1,0,3:0:0:0:
327,47,64433,1,0,3:0:0:0:
327,47,64540,2,0,L|395:40,1,52.5000020027161,0|8,3:0|3:0,0:0:0:0:
452,70,64969,6,0,B|468:150|468:150|448:232,1,157.500006008148,4|0,0:0|3:0,0:0:0:0:
438,301,65826,1,8,3:0:0:0:
450,222,66040,2,0,B|400:218|400:252|328:228,1,105.000004005432,4|0,3:0|0:0,0:0:0:0:
373,158,66683,6,0,L|358:71,2,78.7500030040742,8|8|8,3:0|3:0|3:0,0:0:0:0:
347,233,67540,2,0,L|325:295,1,52.5000020027161,4|0,3:0|3:0,0:0:0:0:
318,320,67862,1,0,3:0:0:0:
318,320,67969,2,0,P|287:333|244:333,1,52.5000020027161,0|8,3:0|3:0,0:0:0:0:
228,267,68398,6,0,P|261:198|211:126,1,157.500006008148,4|0,0:0|3:0,0:0:0:0:
180,201,69255,1,8,3:0:0:0:
228,267,69469,2,0,P|226:308|168:301,1,105.000004005432,4|0,3:0|0:0,0:0:0:0:
100,343,70112,6,0,P|66:347|32:379,2,78.7500030040742,8|8|8,3:0|3:0|3:0,0:0:0:0:
172,307,70969,1,4,3:0:0:0:
108,264,71183,1,0,3:0:0:0:
108,264,71290,1,0,3:0:0:0:
108,264,71398,2,0,P|74:258|42:237,1,52.5000020027161,0|8,3:0|3:0,0:0:0:0:
43,172,71826,6,0,B|33:41|33:41|67:59,1,157.500006008148,4|0,3:0|3:0,0:0:0:0:
132,76,72683,1,8,3:0:0:0:
56,53,72898,1,8,3:0:0:0:
137,176,73112,1,2,0:0:0:0:
137,176,73540,6,0,P|112:178|78:208,1,52.5000020027161,0|0,0:0|0:0,0:0:0:0:
60,272,73969,2,0,P|64:296|97:327,1,52.5000020027161,0|0,0:0|0:0,0:0:0:0:
138,257,74398,1,0,0:0:0:0:
138,257,74612,1,0,0:0:0:0:
159,338,74826,6,0,L|230:335,1,52.5000020027161,10|0,0:0|0:0,0:0:0:0:
80,318,75255,6,0,P|45:273|44:207,1,105,4|0,0:0|0:0,0:0:0:0:
36,184,75683,2,0,L|37:107,1,70,8|0,0:0|0:0,0:0:0:0:
81,42,76112,1,0,1:0:0:0:
81,42,76326,2,0,B|149:19|148:52|225:33,1,140
260,160,76969,6,0,B|226:169|190:163,1,70,0|0,1:0|0:0,0:0:0:0:
143,233,77398,1,8,0:0:0:0:
143,233,77612,1,0,0:0:0:0:
105,157,77826,1,0,1:0:0:0:
143,233,78040,2,0,P|120:275|118:312,2,70,0|8|0,0:0|0:0|0:0,0:0:0:0:
190,163,78683,6,0,P|213:121|215:84,1,70,0|0,1:0|0:0,0:0:0:0:
283,49,79112,2,0,P|329:60|365:52,1,70,8|0,0:0|0:0,0:0:0:0:
430,34,79540,1,0,1:0:0:0:
480,99,79755,1,0,0:0:0:0:
430,167,79969,1,8,0:0:0:0:
350,141,80183,1,0,0:0:0:0:
280,52,80398,6,0,L|350:57,1,70,0|0,1:0|0:0,0:0:0:0:
350,141,80826,2,0,L|281:137,1,70,8|0,0:0|0:0,0:0:0:0:
430,167,81255,1,0,1:0:0:0:
471,239,81469,1,0,0:0:0:0:
471,239,81683,2,0,L|466:310,1,70,8|0,0:0|0:0,0:0:0:0:
430,167,82112,6,0,L|440:49,1,105,0|0,1:0|0:0,0:0:0:0:
404,38,82540,2,0,P|377:24|312:34,1,70,8|0,0:0|0:0,0:0:0:0:
353,109,82969,1,0,1:0:0:0:
353,109,83183,2,0,L|341:248,1,140
466,308,83826,6,0,L|471:238,1,70,0|0,1:0|0:0,0:0:0:0:
476,154,84255,1,8,0:0:0:0:
476,154,84469,1,0,0:0:0:0:
401,192,84683,1,0,1:0:0:0:
476,154,84898,2,0,P|489:114|475:61,2,70,0|8|0,0:0|0:0|0:0,0:0:0:0:
401,192,85540,6,0,P|359:200|320:239,1,70,0|0,1:0|0:0,0:0:0:0:
304,293,85969,2,0,P|274:311|240:317,1,70,8|0,0:0|0:0,0:0:0:0:
160,344,86398,1,0,1:0:0:0:
79,328,86612,1,0,0:0:0:0:
70,243,86826,1,8,0:0:0:0:
145,209,87040,1,0,0:0:0:0:
239,317,87255,6,0,L|270:345,2,35,0|0|0,1:0|0:0|0:0,0:0:0:0:
276,241,87683,2,0,L|266:145,1,70,8|0,0:0|0:0,0:0:0:0:
239,317,88112,1,0,1:0:0:0:
163,352,88326,5,8,3:0:0:0:
163,352,88433,1,8,3:0:0:0:
163,352,88540,1,8,3:0:0:0:
79,328,88755,1,8,3:0:0:0:
239,317,88969,6,0,L|368:324,1,105,4|0,0:0|0:0,0:0:0:0:
385,327,89398,2,0,P|415:340|439:374,1,70,8|0,0:0|0:0,0:0:0:0:
503,318,89826,1,0,1:0:0:0:
503,318,90040,2,0,P|468:275|461:184,1,140
352,246,90683,6,0,P|372:217|375:183,1,70,0|0,1:0|0:0,0:0:0:0:
422,113,91112,1,8,0:0:0:0:
422,113,91326,1,0,0:0:0:0:
338,105,91540,1,0,1:0:0:0:
422,113,91755,2,0,P|465:109|503:122,2,70,0|8|0,0:0|0:0|0:0,0:0:0:0:
338,105,92398,6,0,P|315:139|311:186,1,70,0|0,1:0|0:0,0:0:0:0:
228,189,92826,2,0,P|207:161|175:146,1,70,8|0,0:0|0:0,0:0:0:0:
97,175,93255,1,0,1:0:0:0:
45,106,93469,1,0,0:0:0:0:
93,37,93683,1,8,0:0:0:0:
174,62,93898,1,0,0:0:0:0:
245,147,94112,6,0,L|144:145,1,70,0|0,1:0|0:0,0:0:0:0:
174,62,94540,2,0,L|243:63,1,70,8|0,0:0|0:0,0:0:0:0:
93,37,94969,1,0,1:0:0:0:
45,106,95183,1,0,0:0:0:0:
45,106,95398,2,0,P|20:80|10:24,1,70,8|0,0:0|0:0,0:0:0:0:
97,175,95826,6,0,P|154:180|213:199,1,105,0|0,1:0|0:0,0:0:0:0:
231,220,96255,2,0,L|235:303,1,70,8|0,0:0|0:0,0:0:0:0:
173,347,96683,1,0,1:0:0:0:
173,347,96898,2,0,B|97:329|99:363|17:343,1,140
8,212,97540,6,0,B|44:201|77:210,1,70,0|0,1:0|0:0,0:0:0:0:
157,250,97969,1,8,0:0:0:0:
157,250,98183,1,0,0:0:0:0:
153,166,98398,1,0,1:0:0:0:
228,204,98612,1,0,0:0:0:0:
228,204,98826,2,0,L|308:203,1,70,8|0,0:0|0:0,0:0:0:0:
151,317,99255,6,0,P|146:283|156:250,1,70,0|0,1:0|0:0,0:0:0:0:
230,135,99683,2,0,P|234:170|227:204,1,70,8|0,0:0|0:0,0:0:0:0:
157,249,100112,1,0,1:0:0:0:
153,166,100326,1,0,0:0:0:0:
231,288,100540,1,8,0:0:0:0:
303,245,100755,1,0,0:0:0:0:
296,343,100969,6,0,P|315:295|303:245,1,105,0|0,1:0|0:0,0:0:0:0:
312,203,101398,1,8,3:0:0:0:
227,204,101612,1,4,3:0:0:0:
227,204,101826,2,0,P|225:156|246:113,1,70
248,96,102148,1,2,3:0:0:0:
284,75,102255,2,0,L|353:54,1,70,8|4,3:0|3:0,0:0:0:0:
478,31,102683,5,4,0:0:0:0:
