osu file format v14

[General]
AudioFilename: audio.mp3
AudioLeadIn: 0
PreviewTime: 52826
Countdown: 0
SampleSet: Soft
StackLeniency: 0.7
Mode: 0
LetterboxInBreaks: 0
WidescreenStoryboard: 0

[Editor]
Bookmarks: 1490,4168,15597,27204,38632,50061,52918,64347,74347,75775,84168,85954,86311
DistanceSpacing: 1.2
BeatDivisor: 4
GridSize: 8
TimelineZoom: 1.5

[Metadata]
Title:Prayer (Cut Ver.)
TitleUnicode:Prayer (Cut Ver.)
Artist:S.I.D-Sound
ArtistUnicode:S.I.D-Sound
Creator:Oriental
Version:Wish to the stars
Source:Sword Girls
Tags:소드걸스 op opening 주제곡 theme song Season2 S2 별에게 소원을 5th album 률 아라곤 서량 바나미 Aragon Seorryang banami SIDA-0007 Innocent Media Rock korean k-pop kpop OST online video game 시드사운드 sid original soundtrack
BeatmapID:2748808
BeatmapSetID:1326829

[Difficulty]
HPDrainRate:5
CircleSize:3.8
OverallDifficulty:8.5
ApproachRate:9
SliderMultiplier:1.7
SliderTickRate:1

[Events]
//Background and Video events
0,0,"3.jpg",0,0
//Break Periods
//Storyboard Layer 0 (Background)
//Storyboard Layer 1 (Fail)
//Storyboard Layer 2 (Pass)
//Storyboard Layer 3 (Foreground)
//Storyboard Layer 4 (Overlay)
//Storyboard Sound Samples

[TimingPoints]
1487,357.142857142857,4,2,1,40,1,0
1487,-133.333333333333,4,2,1,40,0,0
3808,-200,4,2,1,50,0,0
4076,-100,4,2,1,5,0,0
4165,-100,4,2,1,70,0,0
5147,-100,4,2,1,5,0,0
5236,-100,4,2,1,70,0,0
8004,-100,4,2,1,5,0,0
8093,-100,4,2,1,70,0,0
15594,-100,4,2,1,60,0,0
36397,-100,4,2,1,5,0,0
36486,-100,4,2,1,60,0,0
38540,-100,4,2,1,5,0,0
38629,-166.666666666667,4,2,1,50,0,0
44344,-125,4,2,1,60,0,0
47201,-100,4,2,1,70,0,0
50058,-100,4,2,1,75,0,0
52915,-83.3333333333333,4,2,1,80,0,1
58629,-166.666666666667,4,2,1,80,0,1
58897,-166.666666666667,4,2,1,5,0,1
58986,-166.666666666667,4,2,1,80,0,1
59165,-83.3333333333333,4,2,1,80,0,1
59879,-125,4,2,1,80,0,1
60594,-62.5,4,2,1,80,0,1
61486,-83.3333333333333,4,2,1,80,0,1
62647,-83.3333333333333,4,2,1,5,0,1
62736,-125,4,2,1,80,0,1
64254,-83.3333333333333,4,2,1,80,0,0
64344,-83.3333333333333,4,2,1,80,0,1
70058,-166.666666666667,4,2,1,80,0,1
70326,-166.666666666667,4,2,1,5,0,1
70415,-166.666666666667,4,2,1,80,0,1
70594,-83.3333333333333,4,2,1,80,0,1
71486,-125,4,2,1,80,0,1
72022,-71.4285714285714,4,2,1,80,0,1
74344,-100,4,2,1,70,0,0
75772,-83.3333333333333,4,2,1,80,0,1
78540,-83.3333333333333,4,2,1,5,0,1
78629,-83.3333333333333,4,2,1,80,0,1
79701,-166.666666666667,4,2,1,80,0,1
80772,-83.3333333333333,4,2,1,80,0,1
81129,-100,4,2,1,80,0,1
81486,-83.3333333333333,4,2,1,80,0,1
83361,-83.3333333333333,4,2,1,5,0,1
83451,-83.3333333333333,4,2,1,80,0,1
84165,-166.666666666667,4,2,1,70,0,0
85415,-166.666666666667,4,2,1,70,0,0
85951,-83.3333333333333,4,2,1,80,0,1
86308,-83.3333333333333,4,2,1,80,0,0

[Colours]
Combo1 : 234,237,116
Combo2 : 128,155,249
Combo3 : 255,147,147
Combo4 : 126,245,168

[HitObjects]
77,314,1487,6,0,P|139:300|202:299,1,127.500004863739,2|2,0:0|0:0,0:0:0:0:
166,166,2022,2,0,P|114:194|133:250,1,127.500004863739,2|2,0:0|0:0,0:0:0:0:
370,121,2736,6,0,P|306:119|244:106,2,127.500004863739,2|2|0,0:0|0:0|3:0,0:0:0:0:
403,111,3540,1,0,3:0:0:0:
403,111,3629,1,8,0:0:0:0:
480,207,3808,2,0,B|492:239|492:239|474:262,1,63.75,8|8,0:0|0:0,0:0:0:0:
458,265,4165,6,0,B|373:289|393:207|301:224,1,170,6|0,3:2|3:0,0:0:0:0:
102,257,4701,1,8,0:0:0:0:
177,129,4879,2,0,P|213:203|168:265,1,127.5,2|0,0:0|0:0,0:0:0:0:
185,258,5236,2,0,B|147:272|147:272|102:238,1,85,2|8,3:2|0:0,0:0:0:0:
109,68,5594,6,0,P|188:96|273:99,1,170,2|0,0:0|0:0,0:0:0:0:
437,64,6129,1,8,0:0:0:0:
366,204,6308,2,0,P|375:142|345:105,1,85,2|0,0:0|3:0,0:0:0:0:
480,233,6665,1,2,3:2:0:0:
288,272,6844,1,10,0:0:0:0:
415,324,7022,1,2,0:0:0:0:
206,237,7201,6,0,P|212:195|217:152,1,85,2|0,3:2|0:0,0:0:0:0:
119,103,7558,1,10,0:0:0:0:
10,145,7736,2,0,P|18:208|26:296,1,127.5,2|0,0:0|0:0,0:0:0:0:
16,282,8094,2,0,P|51:306|93:306,1,85,2|8,3:2|0:0,0:0:0:0:
209,144,8451,6,0,P|291:152|378:159,1,170,6|2,3:2|3:2,0:0:0:0:
277,57,8986,1,10,0:0:0:0:
445,224,9165,2,0,P|433:291|320:299,1,170,2|2,0:0|3:2,0:0:0:0:
324,306,9611,1,2,0:0:0:0:
324,306,9701,1,10,0:0:0:0:
155,366,9879,1,0,1:0:0:0:
155,366,9969,1,0,1:0:0:0:
155,366,10058,5,2,3:2:0:0:
97,246,10236,1,2,3:2:0:0:
247,286,10415,1,10,0:0:0:0:
59,326,10594,2,0,P|64:273|70:150,1,170,6|0,3:2|3:0,0:0:0:0:
190,109,11129,1,10,0:0:0:0:
301,177,11308,1,2,0:0:0:0:
463,150,11486,6,0,P|424:135|382:139,1,85,2|0,3:2|0:0,0:0:0:0:
239,241,11844,1,8,0:0:0:0:
292,38,12022,2,0,B|322:48|322:48|352:117|301:177,1,170,6|2,3:2|3:2,0:0:0:0:
183,310,12558,1,10,0:0:0:0:
320,259,12736,1,0,1:0:0:0:
320,259,12826,1,0,1:0:0:0:
320,259,12915,6,0,B|236:276|244:206|160:224,1,170,6|10,3:2|0:0,0:0:0:0:
75,359,13451,2,0,P|155:287|143:222,1,170,2|2,3:2|3:2,0:0:0:0:
55,85,13986,1,10,0:0:0:0:
12,296,14165,1,6,3:2:0:0:
12,296,14522,5,10,0:0:0:0:
250,342,14701,1,10,0:0:0:0:
170,113,14879,1,14,0:0:0:0:
94,192,15594,6,0,P|101:270|103:368,1,170,4|0,3:2|3:0,0:0:0:0:
190,212,16129,1,8,0:0:0:0:
305,286,16308,1,2,0:0:0:0:
305,286,16486,2,0,P|345:288|385:269,1,85,2|2,0:0|3:2,0:0:0:0:
226,344,16844,1,8,0:0:0:0:
329,203,17022,6,0,P|331:128|340:32,1,170,2|2,0:0|0:0,0:0:0:0:
424,131,17558,1,10,0:0:0:0:
329,23,17736,2,0,P|251:27|240:104,1,170,2|2,0:0|3:2,0:0:0:0:
337,214,18272,1,10,0:0:0:0:
250,351,18451,1,2,0:0:0:0:
399,303,18629,6,0,B|394:271|394:271|335:236|260:258,1,170,2|10,3:2|0:0,0:0:0:0:
113,357,19165,2,0,P|122:291|129:180,1,170,2|0,0:0|3:0,0:0:0:0:
228,69,19701,2,0,P|228:115|199:150,1,85,8|0,0:0|0:0,0:0:0:0:
45,162,20058,6,0,P|129:154|214:155,1,170,2|8,3:2|0:0,0:0:0:0:
305,292,20594,2,0,P|368:291|414:203,1,170,2|0,3:2|3:0,0:0:0:0:
341,64,21129,1,10,0:2:0:0:
481,147,21308,1,0,3:0:0:0:
486,154,21397,1,0,3:0:0:0:
491,161,21486,6,0,P|407:160|310:149,1,170,2|8,3:2|0:0,0:0:0:0:
196,227,22022,1,2,0:0:0:0:
223,61,22201,2,0,P|234:109|236:165,1,85,2|2,0:0|3:2,0:0:0:0:
321,262,22558,1,8,0:0:0:0:
147,305,22736,6,0,P|108:251|140:156,1,170,2|2,0:0|0:0,0:0:0:0:
233,53,23272,1,10,0:0:0:0:
56,116,23451,2,0,P|160:134|226:139,1,170,2|2,0:0|3:2,0:0:0:0:
367,187,23986,1,10,0:0:0:0:
244,224,24165,1,2,0:0:0:0:
417,115,24344,6,0,P|413:208|419:294,1,170,2|10,3:2|0:0,0:0:0:0:
251,320,24879,2,0,P|311:324|345:335,1,85,2|0,0:0|0:0,0:0:0:0:
501,300,25236,2,0,P|506:327|451:350,1,85,2|8,3:2|0:0,0:0:0:0:
359,197,25594,1,2,1:2:0:0:
359,197,25683,1,0,1:0:0:0:
359,197,25772,5,0,3:0:0:0:
243,327,25951,1,10,0:0:0:0:
427,274,26129,1,4,3:2:0:0:
244,224,26308,2,0,P|171:232|68:239,1,170,0|0,3:0|3:0,0:0:0:0:
36,109,26844,1,8,0:0:0:0:
77,250,27022,1,8,0:0:0:0:
145,128,27201,6,0,P|223:153|250:231,1,170,6|8,3:2|0:0,0:0:0:0:
127,345,27736,1,2,0:0:0:0:
126,345,27915,2,0,P|145:315|206:295,1,85,2|2,0:0|3:2,0:0:0:0:
384,332,28272,1,8,0:0:0:0:
260,364,28451,6,0,B|231:357|231:357|202:286|240:223,1,170,2|2,0:0|0:0,0:0:0:0:
418,166,28986,1,10,0:0:0:0:
319,70,29165,2,0,P|243:66|209:150,1,170,2|2,0:0|3:2,0:0:0:0:
369,239,29701,1,10,0:0:0:0:
321,80,29879,1,2,0:0:0:0:
259,207,30058,6,0,P|175:195|90:192,1,170,2|10,3:2|0:0,0:0:0:0:
200,11,30594,2,0,B|236:18|236:18|258:85|207:142,1,170,2|0,0:0|3:0,0:0:0:0:
51,64,31129,2,0,P|62:107|66:147,1,85,8|0,0:0|0:0,0:0:0:0:
16,329,31486,5,0,3:0:0:0:
172,262,31665,1,0,0:0:0:0:
59,247,31844,1,2,0:0:0:0:
197,343,32022,2,0,P|199:273|226:162,1,170,2|2,0:0|3:2,0:0:0:0:
105,322,32558,1,10,0:0:0:0:
232,164,32736,6,0,P|308:169|312:251,1,170,6|2,3:2|3:2,0:0:0:0:
188,349,33272,1,10,0:0:0:0:
25,285,33451,2,0,P|35:200|40:115,1,170,2|2,0:0|3:2,0:0:0:0:
212,37,33986,1,10,0:0:0:0:
33,107,34165,6,0,P|24:177|109:177,1,170,6|2,3:2|3:2,0:0:0:0:
75,19,34701,1,10,0:0:0:0:
177,131,34879,2,0,P|261:146|346:150,1,170,2|2,0:0|3:2,0:0:0:0:
190,226,35415,1,10,0:0:0:0:
281,63,35594,1,2,1:2:0:0:
281,63,35683,1,0,1:0:0:0:
281,63,35772,5,0,3:0:0:0:
330,262,35951,1,0,3:0:0:0:
200,133,36129,2,0,P|128:113|57:131,1,127.5,12|0,0:0|0:0,0:0:0:0:
59,135,36486,1,12,0:0:0:0:
123,300,36665,2,0,P|153:271|154:230,1,85,0|0,3:0|0:0,0:0:0:0:
6,201,37022,1,0,3:0:0:0:
48,348,37201,5,8,0:0:0:0:
147,221,37379,2,0,P|193:227|238:228,1,85,0|2,3:0|0:0,0:0:0:0:
362,289,37736,2,0,P|429:266|444:156,1,170,4|0,3:2|0:0,0:0:0:0:
338,124,38272,2,0,P|316:177|369:200,1,127.5,2|0,0:0|0:0,0:0:0:0:
370,188,38629,6,0,P|371:144|375:86,1,101.999996887207,2|0,0:0|0:0,0:0:0:0:
447,28,39165,1,2,0:0:0:0:
289,66,39344,2,0,P|229:67|188:54,1,101.999996887207,2|2,0:0|0:0,0:0:0:0:
107,14,39879,1,2,0:0:0:0:
50,136,40058,5,2,0:0:0:0:
49,136,40236,2,0,P|45:110|41:85,1,50.9999984436036,0|2,0:0|0:0,0:0:0:0:
21,212,40594,2,0,B|61:183|61:183|112:193,1,101.999996887207,2|0,0:0|0:0,0:0:0:0:
189,287,41129,1,2,0:0:0:0:
71,345,41308,1,2,0:0:0:0:
203,283,41486,6,0,P|206:232|212:181,1,101.999996887207,2|0,0:0|0:0,0:0:0:0:
341,119,42022,2,0,P|353:167|318:201,1,101.999996887207,2|2,0:0|0:0,0:0:0:0:
212,181,42558,1,2,0:0:0:0:
269,55,42736,1,2,0:0:0:0:
131,75,42915,6,0,P|136:103|137:139,1,50.9999984436036,2|0,0:0|0:0,0:0:0:0:
222,187,43272,1,2,0:0:0:0:
114,262,43451,2,0,P|72:237|73:188,1,101.999996887207,2|0,0:0|3:0,0:0:0:0:
228,101,43986,1,8,0:0:0:0:
340,140,44165,1,2,0:0:0:0:
348,144,44254,1,2,0:0:0:0:
356,149,44344,6,0,P|350:232|347:301,1,136,6|10,3:2|0:0,0:0:0:0:
229,360,44879,2,0,P|173:332|198:276,1,136,2|2,0:0|3:2,0:0:0:0:
383,362,45415,1,10,0:0:0:0:
257,212,45594,6,0,P|190:223|123:223,1,136,2|0,0:0|3:0,0:0:0:0:
43,110,46129,2,0,P|80:110|122:122,1,68,10|0,0:0|0:0,0:0:0:0:
37,262,46486,2,0,P|30:229|44:198,1,68,2|0,0:0|3:0,0:0:0:0:
192,138,46844,1,10,0:0:0:0:
161,311,47022,1,0,1:0:0:0:
158,321,47111,1,0,1:0:0:0:
155,330,47201,6,0,P|236:292|234:205,1,170,6|8,3:2|0:0,0:0:0:0:
347,56,47736,2,0,P|333:140|332:224,1,170,2|0,0:0|3:0,0:0:0:0:
469,295,48272,1,8,0:0:0:0:
266,340,48451,1,2,0:0:0:0:
420,182,48629,6,0,P|432:141|425:99,1,85,2|0,3:2|0:0,0:0:0:0:
292,51,48986,1,10,0:0:0:0:
142,117,49165,2,0,P|184:124|222:107,1,85,2|0,0:0|3:0,0:0:0:0:
73,27,49522,2,0,P|86:135|90:224,1,170,2|0,0:0|0:0,0:0:0:0:
41,340,50058,5,14,0:0:0:0:
264,258,50236,1,0,3:0:0:0:
101,201,50415,1,0,3:0:0:0:
289,365,50594,5,12,0:0:0:0:
274,142,50772,1,0,3:0:0:0:
126,308,50951,1,0,3:0:0:0:
400,370,51129,5,12,0:0:0:0:
339,74,51308,1,0,3:0:0:0:
283,375,51486,5,2,3:2:0:0:
451,175,51665,2,0,P|366:166|283:149,1,170,14|2,0:0|0:0,0:0:0:0:
79,78,52201,5,0,3:0:0:0:
168,321,52379,1,10,3:2:0:0:
177,50,52558,5,8,3:2:0:0:
64,281,52736,1,8,3:2:0:0:
278,116,52915,6,0,B|298:101|318:80|318:80|305:164|298:228,1,203.999993774414,6|10,3:2|0:0,0:0:0:0:
397,110,53451,1,0,0:0:0:0:
196,134,53629,1,2,3:2:0:0:
287,304,53808,1,2,0:0:0:0:
80,272,53986,1,10,0:0:0:0:
167,51,54165,6,0,P|217:49|262:72,1,101.999996887207,2|0,0:0|3:0,0:0:0:0:
72,285,54522,2,0,P|44:242|42:191,1,101.999996887207,2|8,0:0|0:0,0:0:0:0:
296,214,54879,2,0,B|318:239|318:239|299:305,1,101.999996887207,2|0,0:0|3:0,0:0:0:0:
112,103,55236,1,2,0:0:0:0:
154,330,55415,1,10,0:0:0:0:
271,135,55594,1,2,0:0:0:0:
74,201,55772,6,0,B|176:226|160:126|259:145,1,203.999993774414,2|10,3:2|0:0,0:0:0:0:
85,31,56308,2,0,P|69:77|102:114,1,101.999996887207,2|0,0:0|3:0,0:0:0:0:
286,29,56665,1,2,0:0:0:0:
236,232,56844,1,10,0:0:0:0:
117,114,57022,6,0,B|196:111|196:111|232:135|232:135|313:129,1,203.999993774414,2|0,0:0|0:0,0:0:0:0:
412,321,57558,1,8,0:0:0:0:
451,112,57736,1,0,0:0:0:0:
325,285,57915,2,0,P|275:271|225:268,1,101.999996887207,0|0,3:0|0:0,0:0:0:0:
35,350,58272,1,10,0:0:0:0:
120,164,58451,1,2,0:0:0:0:
215,272,58629,6,0,B|177:283|177:283|137:257,1,76.4999976654053,6|0,3:2|0:0,0:0:0:0:
128,248,58986,1,8,0:0:0:0:
263,100,59165,6,0,B|285:82|302:62|302:62|286:143|282:210,1,203.999993774414,6|2,3:2|3:2,0:0:0:0:
181,137,59701,1,10,0:0:0:0:
305,297,59879,6,0,B|343:290|359:259|359:259|362:296|393:314,1,136,2|2,0:0|0:0,0:0:0:0:
282,211,60415,1,10,0:0:0:0:
335,379,60594,6,0,B|385:260|385:139|385:139|377:156|368:167,1,272,6|0,3:2|3:0,0:0:0:0:
444,327,61129,1,10,0:0:0:0:
283,212,61308,1,2,0:0:0:0:
451,78,61486,6,0,P|407:53|357:57,1,101.999996887207,2|0,3:2|0:0,0:0:0:0:
123,139,61844,1,10,0:0:0:0:
283,212,62022,2,0,P|239:237|189:233,1,101.999996887207,2|0,0:0|3:0,0:0:0:0:
225,1,62379,2,0,P|233:76|219:151,1,152.999995330811,2|0,0:0|0:0,0:0:0:0:
134,165,62736,6,0,P|169:115|218:152,1,136,6|8,3:2|0:0,0:0:0:0:
168,321,63272,5,0,3:0:0:0:
415,258,63451,1,8,0:0:0:0:
415,258,63540,1,8,0:0:0:0:
415,258,63629,1,8,0:0:0:0:
113,248,63808,5,8,0:0:0:0:
369,340,63986,1,0,3:0:0:0:
320,72,64165,1,8,0:0:0:0:
317,61,64254,1,8,0:0:0:0:
313,50,64344,6,0,B|307:24|275:3|210:49|217:125|263:162,1,203.999993774414,6|10,3:2|0:0,0:0:0:0:
441,285,64879,1,0,0:0:0:0:
203,359,65058,1,2,3:2:0:0:
266,149,65236,1,2,0:0:0:0:
347,332,65415,1,10,0:0:0:0:
157,230,65594,6,0,P|111:249|36:243,1,101.999996887207,2|0,0:0|3:0,0:0:0:0:
260,159,65951,2,0,P|299:189|332:255,1,101.999996887207,2|8,0:0|0:0,0:0:0:0:
148,106,66308,2,0,B|142:41|142:41|166:13,1,101.999996887207,2|0,0:0|3:0,0:0:0:0:
411,110,66665,1,2,0:0:0:0:
242,258,66844,1,10,0:0:0:0:
307,27,67022,1,2,0:0:0:0:
428,197,67201,6,0,B|336:219|341:117|241:147,1,203.999993774414,2|10,3:2|0:0,0:0:0:0:
20,327,67736,2,0,P|70:330|116:310,1,101.999996887207,2|0,0:0|3:0,0:0:0:0:
175,83,68094,1,2,0:0:0:0:
242,258,68272,1,8,0:0:0:0:
49,131,68451,6,0,P|147:133|268:141,1,203.999993774414,6|0,3:2|3:0,0:0:0:0:
459,101,68986,2,0,P|460:41|417:20,1,101.999996887207,8|0,0:0|0:0,0:0:0:0:
326,240,69344,1,0,3:0:0:0:
258,30,69522,1,2,0:0:0:0:
421,188,69701,1,10,0:0:0:0:
210,259,69879,1,2,0:0:0:0:
344,61,70058,6,0,B|357:99|357:99|337:129,1,76.4999976654053,6|0,3:2|0:0,0:0:0:0:
321,146,70415,1,10,0:0:0:0:
98,71,70594,6,0,B|173:80|255:88|255:88|225:92|212:106,1,203.999993774414,6|0,3:2|3:0,0:0:0:0:
60,273,71129,2,0,P|57:222|51:171,1,101.999996887207,8|0,0:0|0:0,0:0:0:0:
304,334,71486,6,0,P|240:320|156:316,1,136,6|10,3:2|0:0,0:0:0:0:
384,149,72022,2,0,B|409:134|415:102|415:102|452:192|389:271,1,237.999992736817,6|2,3:2|3:2,0:0:0:0:
245,64,72558,5,8,0:0:0:0:
301,322,72736,1,0,3:0:0:0:
93,224,72915,5,14,0:0:0:0:
329,85,73094,1,0,3:0:0:0:
116,324,73272,1,0,3:0:0:0:
250,53,73451,5,12,0:0:0:0:
413,311,73629,1,0,3:0:0:0:
109,311,73808,5,12,0:0:0:0:
258,42,73986,1,12,0:0:0:0:
298,351,74165,1,2,3:2:0:0:
71,198,74344,5,14,3:2:0:0:
408,149,74522,1,8,3:2:0:0:
71,232,74879,5,14,3:2:0:0:
417,242,75058,1,8,3:2:0:0:
67,265,75415,5,14,3:2:0:0:
397,330,75594,1,8,3:2:0:0:
256,16,75772,6,0,B|218:-12|164:13|152:79|207:141,1,203.999993774414,6|8,3:2|0:0,0:0:0:0:
383,242,76308,2,0,B|426:223|430:162|380:119|299:136,1,203.999993774414,4|8,3:2|0:0,0:0:0:0:
121,240,76844,2,0,B|115:285|166:319|229:296|254:219,1,203.999993774414,4|8,3:2|0:0,0:0:0:0:
360,19,77379,5,0,3:0:0:0:
471,227,77558,2,0,P|336:215|235:216,1,203.999993774414,12|8,0:0|0:3,0:0:0:0:
20,306,78094,1,8,0:3:0:0:
101,99,78272,2,0,B|138:95|138:95|182:148|161:202,1,152.999995330811,4|0,0:3|0:0,0:0:0:0:
99,267,78629,6,0,B|177:216|253:244|253:244|227:251|215:262,1,203.999993774414,4|8,3:2|0:0,0:0:0:0:
388,335,79165,2,0,B|399:346|425:353|425:353|349:381|271:330,1,203.999993774414,4|8,3:2|0:0,0:0:0:0:
442,159,79701,6,0,B|462:132|462:132|476:188|476:188|448:243,1,152.999995330811,4|8,3:2|0:0,0:0:0:0:
436,263,80326,1,8,0:0:0:0:
436,263,80415,1,0,3:0:0:0:
271,176,80594,1,8,0:0:0:0:
278,166,80683,1,8,0:0:0:0:
283,154,80772,6,0,P|295:123|300:89,2,67.9999979248048,8|8|8,0:3|0:3|0:3,0:0:0:0:
176,193,81129,2,0,P|185:219|189:247,2,56.6666666666667,4|4|4,0:3|0:3|0:3,0:0:0:0:
79,139,81486,6,0,P|181:150|283:155,1,203.999993774414,4|8,3:2|0:0,0:0:0:0:
141,322,82022,2,0,P|81:335|125:246,1,203.999993774414,4|8,3:2|0:0,0:0:0:0:
291,271,82558,2,0,P|332:315|233:322,1,203.999993774414,4|8,3:2|0:0,0:0:0:0:
141,132,83094,6,0,B|250:123|250:123|282:154,1,152.999995330811,4|0,3:2|0:0,0:0:0:0:
293,169,83451,1,8,0:0:0:0:
146,323,83629,2,0,P|158:271|164:196,1,101.999996887207,4|8,3:2|0:3,0:0:0:0:
346,360,83986,1,4,0:3:0:0:
282,154,84165,6,0,B|254:98|343:46|438:119|319:276,1,305.999990661621,4|0,3:2|3:0,0:0:0:0:
121,159,85415,2,0,P|130:209|134:260,1,101.999996887207,8|0,0:0|3:0,0:0:0:0:
82,323,85951,5,12,0:0:0:0:
403,351,86129,1,8,0:0:0:0:
266,59,86308,1,12,0:0:0:0:
