osu file format v14

[General]
AudioFilename: audio.mp3
AudioLeadIn: 0
PreviewTime: -1
Countdown: 1
SampleSet: Normal
StackLeniency: 0.7
Mode: 1
LetterboxInBreaks: 0
WidescreenStoryboard: 0

[Editor]
DistanceSpacing: 1.8
BeatDivisor: 4
GridSize: 32
TimelineZoom: 5.1

[Metadata]
Title:Cry of The Immortal
TitleUnicode:Cry of The Immortal
Artist:S.H.O
ArtistUnicode:S.H.O
Creator:TimmyAkmed
Version:Immortal Oni
Source:東方Project
Tags:Reach for the moon Touhou project 東方 Cry of the immortal
BeatmapID:980645
BeatmapSetID:457628

[Difficulty]
HPDrainRate:5
CircleSize:2
OverallDifficulty:6
ApproachRate:5
SliderMultiplier:1.3999999666214
SliderTickRate:1

[Events]
//Background and Video events
0,0,"FJWRAMKOBG.jpg",0,100
//Break Periods
2,174914,178687
//Storyboard Layer 0 (Background)
//Storyboard Layer 1 (Fail)
//Storyboard Layer 2 (Pass)
//Storyboard Layer 3 (Foreground)
//Storyboard Sound Samples

[TimingPoints]
52646,344.827586206897,4,1,0,100,1,0
85749,-100,4,1,0,100,0,1
96783,-100,4,1,0,100,0,0
118852,-100,4,1,0,100,0,1
129887,-100,4,1,0,100,0,0
242301,344.827586206897,4,1,0,100,1,1
264369,-100,4,1,0,100,0,0
297473,-100,4,1,0,100,0,1
308507,-100,4,1,0,100,0,0
352645,-83.3333333333333,4,1,0,100,0,1
374714,-71.4285714285714,4,1,0,100,0,0

[HitObjects]
288,224,52645,5,0,0:0:0:0:
288,224,52818,1,0,0:0:0:0:
288,224,52990,1,0,0:0:0:0:
288,224,53077,1,0,0:0:0:0:
288,224,53163,1,0,0:0:0:0:
288,224,53249,1,0,0:0:0:0:
256,224,53335,1,0,0:0:0:0:
256,224,53508,1,0,0:0:0:0:
256,224,53594,1,0,0:0:0:0:
256,224,53766,1,0,0:0:0:0:
256,224,53939,1,0,0:0:0:0:
256,224,54025,1,0,0:0:0:0:
256,224,54197,1,0,0:0:0:0:
256,224,54370,1,0,0:0:0:0:
256,224,54456,1,0,0:0:0:0:
256,224,54542,1,0,0:0:0:0:
256,224,54628,1,0,0:0:0:0:
256,224,54714,1,0,0:0:0:0:
256,224,54887,1,0,0:0:0:0:
256,224,54973,1,0,0:0:0:0:
256,224,55145,1,0,0:0:0:0:
256,224,55318,1,0,0:0:0:0:
256,224,55404,1,0,0:0:0:0:
256,224,55577,1,0,0:0:0:0:
256,224,55749,1,0,0:0:0:0:
256,224,55835,1,0,0:0:0:0:
192,160,55921,1,0,0:0:0:0:
192,160,56008,1,0,0:0:0:0:
192,160,56094,1,0,0:0:0:0:
192,160,56266,1,0,0:0:0:0:
192,160,56352,1,0,0:0:0:0:
192,160,56525,1,0,0:0:0:0:
192,160,56697,1,0,0:0:0:0:
192,160,56783,1,0,0:0:0:0:
192,160,56956,1,0,0:0:0:0:
192,160,57128,1,0,0:0:0:0:
192,160,57214,1,0,0:0:0:0:
192,160,57301,1,0,0:0:0:0:
192,160,57387,1,0,0:0:0:0:
192,160,57473,1,0,0:0:0:0:
192,160,57645,1,0,0:0:0:0:
192,160,57732,1,0,0:0:0:0:
192,160,57904,1,0,0:0:0:0:
128,128,58077,1,0,0:0:0:0:
128,128,58163,1,0,0:0:0:0:
128,128,58335,1,0,0:0:0:0:
128,128,58508,1,0,0:0:0:0:
128,128,58594,1,0,0:0:0:0:
128,128,58680,1,0,0:0:0:0:
128,128,58766,1,0,0:0:0:0:
128,128,58852,1,0,0:0:0:0:
128,128,59025,1,0,0:0:0:0:
128,128,59111,1,0,0:0:0:0:
128,128,59283,1,0,0:0:0:0:
128,128,59456,1,0,0:0:0:0:
128,128,59542,1,0,0:0:0:0:
128,128,59714,1,0,0:0:0:0:
128,128,59887,1,0,0:0:0:0:
128,128,59973,1,0,0:0:0:0:
128,128,60059,1,0,0:0:0:0:
128,128,60145,1,0,0:0:0:0:
128,128,60232,1,0,0:0:0:0:
128,128,60404,1,0,0:0:0:0:
128,128,60490,1,0,0:0:0:0:
128,128,60663,1,0,0:0:0:0:
128,128,60835,1,0,0:0:0:0:
128,128,60921,1,0,0:0:0:0:
128,128,61094,1,0,0:0:0:0:
128,128,61266,1,0,0:0:0:0:
128,128,61352,1,0,0:0:0:0:
128,128,61439,1,0,0:0:0:0:
128,128,61525,1,0,0:0:0:0:
128,128,61611,1,0,0:0:0:0:
128,128,61783,1,0,0:0:0:0:
128,128,61870,1,0,0:0:0:0:
128,128,62042,1,0,0:0:0:0:
128,128,62214,1,0,0:0:0:0:
128,128,62301,1,0,0:0:0:0:
128,128,62473,1,0,0:0:0:0:
128,128,62645,1,0,0:0:0:0:
128,128,62732,1,0,0:0:0:0:
128,128,62818,1,0,0:0:0:0:
128,128,62904,1,0,0:0:0:0:
128,128,62990,1,0,0:0:0:0:
128,128,63077,1,0,0:0:0:0:
128,128,63163,1,0,0:0:0:0:
128,128,63249,1,0,0:0:0:0:
128,128,63335,1,0,0:0:0:0:
128,128,63421,1,0,0:0:0:0:
128,128,63508,1,0,0:0:0:0:
128,128,63594,1,0,0:0:0:0:
320,128,63680,1,2,0:0:0:0:
320,128,63852,1,2,0:0:0:0:
320,128,64025,1,0,0:0:0:0:
320,128,64111,1,0,0:0:0:0:
320,128,64197,1,2,0:0:0:0:
320,128,64370,1,2,0:0:0:0:
320,128,64542,1,2,0:0:0:0:
320,128,64628,1,0,0:0:0:0:
320,128,64801,1,0,0:0:0:0:
224,128,64887,1,2,0:0:0:0:
224,128,65059,1,0,0:0:0:0:
224,128,65232,1,2,0:0:0:0:
224,128,65404,1,0,0:0:0:0:
224,128,65490,1,0,0:0:0:0:
224,128,65577,1,2,0:0:0:0:
224,128,65749,1,0,0:0:0:0:
224,128,65921,1,2,0:0:0:0:
128,128,66008,1,0,0:0:0:0:
128,128,66094,1,0,0:0:0:0:
128,128,66180,1,0,0:0:0:0:
128,128,66266,1,2,0:0:0:0:
128,128,66439,1,0,0:0:0:0:
128,128,66611,1,2,0:0:0:0:
160,128,66783,1,0,0:0:0:0:
160,128,66870,1,0,0:0:0:0:
160,128,66956,1,2,0:0:0:0:
160,128,67128,1,0,0:0:0:0:
160,128,67301,1,2,0:0:0:0:
160,128,67387,1,0,0:0:0:0:
160,128,67559,1,0,0:0:0:0:
160,128,67645,1,2,0:0:0:0:
160,128,67818,1,0,0:0:0:0:
160,128,67990,1,2,0:0:0:0:
160,128,68163,1,0,0:0:0:0:
160,128,68249,1,0,0:0:0:0:
160,128,68335,1,2,0:0:0:0:
160,128,68508,1,0,0:0:0:0:
160,128,68680,1,2,0:0:0:0:
160,128,68766,1,0,0:0:0:0:
160,128,68939,1,0,0:0:0:0:
160,128,69025,1,2,0:0:0:0:
160,128,69197,1,0,0:0:0:0:
160,128,69370,1,2,0:0:0:0:
160,128,69542,1,0,0:0:0:0:
160,128,69628,1,0,0:0:0:0:
160,128,69714,1,2,0:0:0:0:
160,128,69887,1,0,0:0:0:0:
160,128,70059,1,2,0:0:0:0:
160,128,70145,1,0,0:0:0:0:
160,128,70232,1,0,0:0:0:0:
160,128,70318,1,0,0:0:0:0:
160,128,70404,1,2,0:0:0:0:
160,128,70577,1,0,0:0:0:0:
160,128,70749,1,2,0:0:0:0:
160,128,70921,1,0,0:0:0:0:
160,128,71008,1,0,0:0:0:0:
160,128,71094,1,2,0:0:0:0:
160,128,71266,1,0,0:0:0:0:
160,128,71439,1,2,0:0:0:0:
160,128,71525,1,0,0:0:0:0:
160,128,71697,1,0,0:0:0:0:
160,128,71783,1,2,0:0:0:0:
160,128,71956,1,0,0:0:0:0:
160,128,72128,1,2,0:0:0:0:
160,128,72301,1,0,0:0:0:0:
160,128,72387,1,0,0:0:0:0:
160,128,72473,1,2,0:0:0:0:
160,128,72645,1,0,0:0:0:0:
160,128,72818,1,2,0:0:0:0:
160,128,72904,1,0,0:0:0:0:
160,128,72990,1,0,0:0:0:0:
160,128,73077,1,0,0:0:0:0:
160,128,73163,1,2,0:0:0:0:
160,128,73335,1,0,0:0:0:0:
224,160,73508,1,2,0:0:0:0:
224,160,73680,1,0,0:0:0:0:
224,160,73766,1,0,0:0:0:0:
224,160,73852,1,2,0:0:0:0:
224,160,73939,1,0,0:0:0:0:
224,160,74025,1,2,0:0:0:0:
224,160,74197,1,2,0:0:0:0:
224,160,74283,1,2,0:0:0:0:
224,160,74370,1,0,0:0:0:0:
224,160,74456,1,0,0:0:0:0:
224,160,74542,1,2,0:0:0:0:
224,160,74714,1,6,0:0:0:0:
160,128,74887,1,0,0:0:0:0:
160,128,75059,1,0,0:0:0:0:
160,128,75145,1,0,0:0:0:0:
160,128,75232,1,2,0:0:0:0:
160,128,75404,1,0,0:0:0:0:
160,128,75577,1,2,0:0:0:0:
160,128,75663,1,2,0:0:0:0:
160,128,75749,1,0,0:0:0:0:
160,128,75835,1,0,0:0:0:0:
160,128,75921,1,2,0:0:0:0:
160,128,76094,1,0,0:0:0:0:
160,128,76266,1,2,0:0:0:0:
160,128,76439,1,0,0:0:0:0:
160,128,76525,1,0,0:0:0:0:
160,128,76611,1,2,0:0:0:0:
160,128,76783,1,0,0:0:0:0:
160,128,76956,1,2,0:0:0:0:
160,128,77042,1,0,0:0:0:0:
160,128,77214,1,0,0:0:0:0:
160,128,77301,1,2,0:0:0:0:
160,128,77387,1,2,0:0:0:0:
160,128,77473,1,0,0:0:0:0:
160,160,77645,1,2,0:0:0:0:
160,160,77818,1,0,0:0:0:0:
160,160,77904,1,0,0:0:0:0:
160,160,77990,1,2,0:0:0:0:
160,160,78163,1,0,0:0:0:0:
160,160,78335,1,2,0:0:0:0:
160,160,78421,1,0,0:0:0:0:
160,160,78508,1,0,0:0:0:0:
160,160,78594,1,0,0:0:0:0:
160,160,78680,1,2,0:0:0:0:
160,160,78852,1,0,0:0:0:0:
128,128,79025,1,2,0:0:0:0:
128,128,79197,1,0,0:0:0:0:
128,128,79283,1,0,0:0:0:0:
128,128,79370,1,2,0:0:0:0:
128,128,79542,1,0,0:0:0:0:
160,128,79714,1,2,0:0:0:0:
160,128,79801,1,0,0:0:0:0:
160,128,79973,1,0,0:0:0:0:
160,128,80059,1,2,0:0:0:0:
160,128,80145,1,0,0:0:0:0:
160,128,80232,1,2,0:0:0:0:
160,128,80404,1,2,0:0:0:0:
160,128,80577,1,0,0:0:0:0:
160,128,80663,1,0,0:0:0:0:
160,128,80749,1,2,0:0:0:0:
160,128,80921,1,0,0:0:0:0:
160,128,81094,1,2,0:0:0:0:
160,128,81180,1,0,0:0:0:0:
160,128,81266,1,0,0:0:0:0:
160,128,81352,1,0,0:0:0:0:
160,128,81439,1,2,0:0:0:0:
128,160,81611,1,0,0:0:0:0:
128,160,81783,1,2,0:0:0:0:
128,160,81956,1,0,0:0:0:0:
128,160,82042,1,0,0:0:0:0:
128,160,82128,1,2,0:0:0:0:
192,128,82301,1,0,0:0:0:0:
192,128,82473,1,2,0:0:0:0:
192,128,82559,1,0,0:0:0:0:
192,128,82732,1,0,0:0:0:0:
192,128,82818,1,2,0:0:0:0:
192,128,82990,1,0,0:0:0:0:
192,128,83163,1,2,0:0:0:0:
192,128,83335,1,0,0:0:0:0:
192,128,83421,1,0,0:0:0:0:
192,128,83508,1,2,0:0:0:0:
192,128,83594,1,0,0:0:0:0:
192,128,83680,1,2,0:0:0:0:
192,128,83852,1,2,0:0:0:0:
96,128,84025,1,0,0:0:0:0:
96,128,84111,1,0,0:0:0:0:
96,128,84197,1,2,0:0:0:0:
96,128,84370,1,0,0:0:0:0:
256,160,84542,1,2,0:0:0:0:
224,160,84628,1,0,0:0:0:0:
224,160,84714,1,0,0:0:0:0:
224,160,84801,1,2,0:0:0:0:
224,160,84887,1,0,0:0:0:0:
224,160,84973,1,0,0:0:0:0:
224,160,85059,1,2,0:0:0:0:
224,160,85145,1,0,0:0:0:0:
224,160,85232,1,2,0:0:0:0:
224,160,85318,1,0,0:0:0:0:
224,160,85404,1,2,0:0:0:0:
224,160,85490,1,2,0:0:0:0:
224,160,85577,1,0,0:0:0:0:
224,160,85749,1,2,0:0:0:0:
192,224,85835,1,0,0:0:0:0:
192,224,85921,1,2,0:0:0:0:
192,160,86008,1,0,0:0:0:0:
192,160,86094,1,0,0:0:0:0:
192,160,86180,1,0,0:0:0:0:
192,160,86266,1,2,0:0:0:0:
192,160,86352,1,0,0:0:0:0:
192,160,86439,1,0,0:0:0:0:
192,160,86525,1,0,0:0:0:0:
192,160,86611,1,2,0:0:0:0:
192,160,86697,1,2,0:0:0:0:
192,160,86783,1,0,0:0:0:0:
160,160,86870,1,2,0:0:0:0:
160,160,86956,1,0,0:0:0:0:
96,160,87042,1,0,0:0:0:0:
128,160,87128,1,0,0:0:0:0:
128,160,87214,1,0,0:0:0:0:
128,160,87301,1,2,0:0:0:0:
128,160,87387,1,0,0:0:0:0:
128,160,87473,1,0,0:0:0:0:
128,160,87559,1,0,0:0:0:0:
128,160,87645,1,2,0:0:0:0:
128,160,87732,1,0,0:0:0:0:
128,160,87818,1,0,0:0:0:0:
128,160,87904,1,0,0:0:0:0:
128,160,87990,1,2,0:0:0:0:
128,160,88077,1,2,0:0:0:0:
128,160,88163,1,0,0:0:0:0:
128,160,88249,1,0,0:0:0:0:
128,160,88335,1,2,0:0:0:0:
128,160,88421,1,0,0:0:0:0:
128,160,88508,1,2,0:0:0:0:
128,160,88594,1,2,0:0:0:0:
128,160,88680,1,0,0:0:0:0:
128,160,88766,1,0,0:0:0:0:
128,160,88852,1,2,0:0:0:0:
128,160,88939,1,2,0:0:0:0:
128,160,89025,1,0,0:0:0:0:
128,160,89111,1,0,0:0:0:0:
128,160,89197,1,0,0:0:0:0:
128,160,89283,1,0,0:0:0:0:
128,160,89370,1,2,0:0:0:0:
128,160,89456,1,0,0:0:0:0:
128,160,89542,1,2,0:0:0:0:
128,160,89628,1,0,0:0:0:0:
192,160,89714,1,2,0:0:0:0:
192,160,89801,1,2,0:0:0:0:
192,160,89887,1,0,0:0:0:0:
192,160,89973,1,0,0:0:0:0:
192,160,90059,1,2,0:0:0:0:
192,160,90145,1,0,0:0:0:0:
192,160,90232,1,2,0:0:0:0:
192,160,90318,1,2,0:0:0:0:
192,160,90404,1,0,0:0:0:0:
192,160,90490,1,0,0:0:0:0:
192,160,90577,1,0,0:0:0:0:
192,160,90663,1,0,0:0:0:0:
192,160,90749,1,2,0:0:0:0:
192,160,90835,1,2,0:0:0:0:
128,128,90921,1,0,0:0:0:0:
128,128,91008,1,0,0:0:0:0:
128,128,91094,1,2,0:0:0:0:
160,160,91180,1,0,0:0:0:0:
160,160,91266,1,2,0:0:0:0:
160,160,91352,1,2,0:0:0:0:
160,160,91439,1,0,0:0:0:0:
288,288,91525,1,0,0:0:0:0:
288,288,91611,1,0,0:0:0:0:
288,288,91697,1,0,0:0:0:0:
288,288,91783,1,2,0:0:0:0:
288,288,91870,1,2,0:0:0:0:
288,288,91956,1,0,0:0:0:0:
288,288,92042,1,0,0:0:0:0:
288,288,92128,1,2,0:0:0:0:
288,288,92214,1,0,0:0:0:0:
288,288,92301,1,2,0:0:0:0:
288,288,92387,1,2,0:0:0:0:
288,288,92473,1,0,0:0:0:0:
288,288,92559,1,0,0:0:0:0:
288,288,92645,1,2,0:0:0:0:
288,288,92732,1,0,0:0:0:0:
288,288,92818,1,0,0:0:0:0:
288,288,92904,1,0,0:0:0:0:
288,288,92990,1,2,0:0:0:0:
288,288,93077,1,2,0:0:0:0:
288,288,93163,1,0,0:0:0:0:
288,288,93249,1,0,0:0:0:0:
288,288,93335,1,2,0:0:0:0:
288,288,93421,1,0,0:0:0:0:
288,288,93508,1,2,0:0:0:0:
288,288,93594,1,2,0:0:0:0:
288,288,93680,1,0,0:0:0:0:
288,288,93766,1,0,0:0:0:0:
288,288,93852,1,2,0:0:0:0:
288,288,93939,1,0,0:0:0:0:
288,288,94025,1,0,0:0:0:0:
288,288,94111,1,0,0:0:0:0:
288,288,94197,1,2,0:0:0:0:
288,288,94283,1,0,0:0:0:0:
288,288,94370,1,0,0:0:0:0:
288,288,94456,1,0,0:0:0:0:
288,288,94542,1,2,0:0:0:0:
288,288,94628,1,2,0:0:0:0:
288,288,94714,1,0,0:0:0:0:
288,288,94801,1,0,0:0:0:0:
288,288,94887,1,2,0:0:0:0:
288,288,94973,1,0,0:0:0:0:
288,288,95059,1,2,0:0:0:0:
288,288,95145,1,2,0:0:0:0:
288,288,95232,1,0,0:0:0:0:
288,288,95318,1,0,0:0:0:0:
288,288,95404,1,2,0:0:0:0:
288,288,95490,1,0,0:0:0:0:
288,288,95577,1,2,0:0:0:0:
288,288,95663,1,2,0:0:0:0:
288,288,95749,1,0,0:0:0:0:
288,288,95835,1,0,0:0:0:0:
288,288,95921,1,0,0:0:0:0:
288,288,96008,1,0,0:0:0:0:
288,288,96094,1,2,0:0:0:0:
288,288,96180,1,2,0:0:0:0:
288,288,96266,1,0,0:0:0:0:
224,160,96324,1,0,0:0:0:0:
224,128,96381,1,0,0:0:0:0:
224,160,96439,1,2,0:0:0:0:
288,96,96525,1,0,0:0:0:0:
288,128,96611,1,2,0:0:0:0:
288,128,96668,1,2,0:0:0:0:
288,128,96726,1,2,0:0:0:0:
288,128,96783,1,0,0:0:0:0:
320,288,97128,1,2,0:0:0:0:
224,160,97301,1,0,0:0:0:0:
224,160,97387,1,0,0:0:0:0:
224,160,97473,1,2,0:0:0:0:
224,160,97645,1,0,0:0:0:0:
192,160,97732,1,0,0:0:0:0:
224,160,97818,1,2,0:0:0:0:
192,160,97904,1,0,0:0:0:0:
192,160,97990,1,0,0:0:0:0:
192,160,98077,1,0,0:0:0:0:
192,160,98163,1,2,0:0:0:0:
192,160,98335,1,0,0:0:0:0:
192,160,98421,1,0,0:0:0:0:
192,160,98508,1,2,0:0:0:0:
192,160,98680,1,0,0:0:0:0:
192,160,98766,1,0,0:0:0:0:
192,160,98852,1,0,0:0:0:0:
192,160,99025,1,0,0:0:0:0:
192,160,99111,1,0,0:0:0:0:
192,160,99197,1,2,0:0:0:0:
192,160,99283,1,0,0:0:0:0:
192,160,99370,1,2,0:0:0:0:
192,160,99456,1,2,0:0:0:0:
192,160,99542,1,0,0:0:0:0:
192,160,99714,1,0,0:0:0:0:
192,160,99801,1,0,0:0:0:0:
192,160,99887,1,2,0:0:0:0:
192,160,100059,1,0,0:0:0:0:
192,160,100145,1,0,0:0:0:0:
192,160,100232,1,0,0:0:0:0:
192,160,100404,1,0,0:0:0:0:
192,160,100490,1,0,0:0:0:0:
192,160,100577,1,2,0:0:0:0:
192,160,100663,1,0,0:0:0:0:
192,160,100749,1,0,0:0:0:0:
192,160,100835,1,0,0:0:0:0:
192,160,100921,1,2,0:0:0:0:
192,160,101094,1,0,0:0:0:0:
224,128,101180,1,0,0:0:0:0:
224,128,101266,1,0,0:0:0:0:
224,128,101439,1,0,0:0:0:0:
224,128,101525,1,0,0:0:0:0:
224,128,101611,1,2,0:0:0:0:
224,128,101783,1,0,0:0:0:0:
224,128,101870,1,0,0:0:0:0:
224,128,101956,1,2,0:0:0:0:
224,128,102042,1,0,0:0:0:0:
224,128,102128,1,2,0:0:0:0:
224,128,102214,1,2,0:0:0:0:
288,128,102301,1,0,0:0:0:0:
320,288,102646,1,2,0:0:0:0:
224,160,102819,1,0,0:0:0:0:
224,160,102905,1,0,0:0:0:0:
224,160,102991,1,2,0:0:0:0:
224,160,103163,1,0,0:0:0:0:
192,160,103250,1,0,0:0:0:0:
224,160,103336,1,2,0:0:0:0:
192,160,103422,1,0,0:0:0:0:
192,160,103508,1,0,0:0:0:0:
192,160,103595,1,0,0:0:0:0:
192,160,103681,1,2,0:0:0:0:
192,160,103853,1,2,0:0:0:0:
192,160,103939,1,0,0:0:0:0:
192,160,104026,1,2,0:0:0:0:
192,160,104198,1,0,0:0:0:0:
192,160,104284,1,0,0:0:0:0:
192,160,104370,1,2,0:0:0:0:
192,160,104543,1,0,0:0:0:0:
192,160,104629,1,0,0:0:0:0:
192,160,104715,1,2,0:0:0:0:
192,160,104801,1,0,0:0:0:0:
192,160,104888,1,2,0:0:0:0:
192,160,104974,1,2,0:0:0:0:
192,160,105060,1,0,0:0:0:0:
192,160,105232,1,2,0:0:0:0:
192,160,105319,1,0,0:0:0:0:
192,160,105405,1,2,0:0:0:0:
192,160,105577,1,0,0:0:0:0:
192,160,105663,1,0,0:0:0:0:
192,160,105750,1,2,0:0:0:0:
320,256,105835,1,2,0:0:0:0:
192,160,105922,1,0,0:0:0:0:
192,160,106008,1,0,0:0:0:0:
192,160,106095,1,2,0:0:0:0:
192,160,106181,1,0,0:0:0:0:
192,160,106266,1,2,0:0:0:0:
192,160,106353,1,0,0:0:0:0:
192,160,106439,1,2,0:0:0:0:
192,160,106612,1,0,0:0:0:0:
224,128,106698,1,0,0:0:0:0:
224,128,106784,1,2,0:0:0:0:
224,224,106870,1,2,0:0:0:0:
224,128,106957,1,2,0:0:0:0:
224,128,107043,1,0,0:0:0:0:
224,128,107128,1,2,0:0:0:0:
192,128,107214,1,0,0:0:0:0:
224,128,107301,1,2,0:0:0:0:
224,128,107388,1,2,0:0:0:0:
224,128,107473,1,0,0:0:0:0:
224,128,107560,1,2,0:0:0:0:
224,128,107645,1,0,0:0:0:0:
224,128,107732,1,0,0:0:0:0:
224,128,107819,1,2,0:0:0:0:
256,256,107990,1,0,0:0:0:0:
256,224,108163,1,2,0:0:0:0:
256,224,108249,1,0,0:0:0:0:
256,224,108335,1,2,0:0:0:0:
256,224,108421,1,2,0:0:0:0:
256,224,108508,1,0,0:0:0:0:
256,224,108680,1,2,0:0:0:0:
256,224,108766,1,0,0:0:0:0:
256,224,108852,1,0,0:0:0:0:
256,224,108939,1,0,0:0:0:0:
256,224,109025,1,2,0:0:0:0:
224,160,109197,1,0,0:0:0:0:
224,160,109370,1,0,0:0:0:0:
224,160,109456,1,0,0:0:0:0:
224,160,109542,1,2,0:0:0:0:
224,160,109628,1,0,0:0:0:0:
224,160,109714,1,2,0:0:0:0:
128,160,109887,1,0,0:0:0:0:
128,160,110059,1,2,0:0:0:0:
128,160,110145,1,0,0:0:0:0:
128,160,110232,1,0,0:0:0:0:
128,160,110318,1,0,0:0:0:0:
128,160,110404,1,2,0:0:0:0:
128,160,110490,1,0,0:0:0:0:
128,160,110577,1,2,0:0:0:0:
160,192,110749,1,2,0:0:0:0:
160,160,110921,1,0,0:0:0:0:
160,160,111008,1,0,0:0:0:0:
160,160,111094,1,2,0:0:0:0:
160,160,111266,1,0,0:0:0:0:
160,160,111439,1,2,0:0:0:0:
160,160,111525,1,0,0:0:0:0:
160,160,111611,1,2,0:0:0:0:
160,160,111697,1,2,0:0:0:0:
160,160,111783,1,0,0:0:0:0:
160,160,111956,1,2,0:0:0:0:
160,160,112128,1,0,0:0:0:0:
160,160,112301,1,0,0:0:0:0:
160,160,112387,1,0,0:0:0:0:
160,160,112473,1,2,0:0:0:0:
160,160,112559,1,0,0:0:0:0:
160,160,112645,1,2,0:0:0:0:
160,160,112818,1,0,0:0:0:0:
160,160,112904,1,2,0:0:0:0:
160,160,113077,1,0,0:0:0:0:
160,160,113163,1,2,0:0:0:0:
160,160,113249,1,2,0:0:0:0:
160,160,113335,1,0,0:0:0:0:
160,160,113508,1,2,0:0:0:0:
160,160,113680,1,0,0:0:0:0:
160,160,113766,1,0,0:0:0:0:
160,160,113852,1,2,0:0:0:0:
160,160,114025,1,0,0:0:0:0:
160,160,114197,1,2,0:0:0:0:
160,160,114283,1,0,0:0:0:0:
160,160,114456,1,0,0:0:0:0:
160,160,114542,1,2,0:0:0:0:
128,160,114714,1,0,0:0:0:0:
128,192,114887,1,2,0:0:0:0:
128,192,115059,1,0,0:0:0:0:
128,192,115145,1,0,0:0:0:0:
128,192,115232,1,2,0:0:0:0:
128,192,115404,1,0,0:0:0:0:
128,160,115577,1,2,0:0:0:0:
128,160,115663,1,0,0:0:0:0:
128,160,115749,1,0,0:0:0:0:
128,160,115835,1,0,0:0:0:0:
128,160,115921,1,2,0:0:0:0:
128,160,116094,1,0,0:0:0:0:
128,160,116266,1,2,0:0:0:0:
128,160,116439,1,0,0:0:0:0:
128,160,116525,1,0,0:0:0:0:
128,160,116611,1,2,0:0:0:0:
128,160,116783,1,0,0:0:0:0:
128,160,116956,1,2,0:0:0:0:
128,160,117042,1,2,0:0:0:0:
128,160,117128,1,0,0:0:0:0:
128,160,117214,1,0,0:0:0:0:
128,160,117301,1,2,0:0:0:0:
128,160,117473,1,0,0:0:0:0:
320,256,117559,1,0,0:0:0:0:
320,320,117645,1,2,0:0:0:0:
320,320,117732,1,0,0:0:0:0:
320,320,117818,1,2,0:0:0:0:
320,320,117904,1,0,0:0:0:0:
96,128,117990,1,2,0:0:0:0:
96,128,118077,1,2,0:0:0:0:
96,128,118163,1,0,0:0:0:0:
96,128,118249,1,0,0:0:0:0:
96,128,118335,1,0,0:0:0:0:
96,128,118421,1,0,0:0:0:0:
224,192,118508,1,2,0:0:0:0:
224,192,118565,1,2,0:0:0:0:
224,192,118623,1,2,0:0:0:0:
224,192,118680,1,0,0:0:0:0:
352,64,118766,1,2,0:0:0:0:
256,160,118852,1,0,0:0:0:0:
224,160,118939,1,0,0:0:0:0:
224,160,119025,1,2,0:0:0:0:
192,192,119111,1,0,0:0:0:0:
192,192,119197,1,2,0:0:0:0:
192,192,119283,1,0,0:0:0:0:
192,192,119370,1,2,0:0:0:0:
192,160,119456,1,2,0:0:0:0:
192,160,119542,1,0,0:0:0:0:
192,160,119628,1,0,0:0:0:0:
192,160,119714,1,2,0:0:0:0:
192,160,119801,1,0,0:0:0:0:
192,160,119887,1,2,0:0:0:0:
192,160,119973,1,0,0:0:0:0:
128,160,120059,1,2,0:0:0:0:
128,160,120145,1,2,0:0:0:0:
128,160,120232,1,0,0:0:0:0:
128,160,120318,1,0,0:0:0:0:
128,160,120404,1,2,0:0:0:0:
128,160,120490,1,0,0:0:0:0:
128,160,120577,1,2,0:0:0:0:
128,160,120663,1,2,0:0:0:0:
128,160,120749,1,0,0:0:0:0:
128,160,120835,1,0,0:0:0:0:
128,160,120921,1,2,0:0:0:0:
128,160,121008,1,2,0:0:0:0:
128,160,121094,1,0,0:0:0:0:
128,160,121180,1,2,0:0:0:0:
128,160,121266,1,2,0:0:0:0:
128,160,121352,1,2,0:0:0:0:
128,128,121439,1,0,0:0:0:0:
128,128,121525,1,2,0:0:0:0:
128,128,121611,1,0,0:0:0:0:
128,128,121697,1,0,0:0:0:0:
128,128,121783,1,2,0:0:0:0:
128,128,121870,1,2,0:0:0:0:
128,128,121956,1,0,0:0:0:0:
128,128,122042,1,0,0:0:0:0:
128,128,122128,1,2,0:0:0:0:
128,128,122214,1,0,0:0:0:0:
128,128,122301,1,2,0:0:0:0:
128,128,122387,1,0,0:0:0:0:
128,128,122473,1,2,0:0:0:0:
128,128,122559,1,2,0:0:0:0:
128,128,122645,1,0,0:0:0:0:
128,160,122732,1,0,0:0:0:0:
128,160,122818,1,2,0:0:0:0:
128,160,122904,1,2,0:0:0:0:
128,160,122990,1,0,0:0:0:0:
128,192,123077,1,0,0:0:0:0:
128,192,123163,1,0,0:0:0:0:
128,192,123249,1,2,0:0:0:0:
128,192,123335,1,2,0:0:0:0:
128,192,123421,1,2,0:0:0:0:
128,192,123508,1,0,0:0:0:0:
128,192,123594,1,0,0:0:0:0:
128,192,123680,1,2,0:0:0:0:
128,192,123766,1,0,0:0:0:0:
128,192,123852,1,2,0:0:0:0:
128,192,123939,1,2,0:0:0:0:
128,192,124025,1,0,0:0:0:0:
128,192,124111,1,0,0:0:0:0:
128,192,124197,1,0,0:0:0:0:
128,192,124283,1,0,0:0:0:0:
128,192,124370,1,2,0:0:0:0:
192,160,124456,1,2,0:0:0:0:
192,160,124542,1,0,0:0:0:0:
192,160,124628,1,0,0:0:0:0:
192,160,124714,1,2,0:0:0:0:
192,160,124801,1,0,0:0:0:0:
192,160,124887,1,2,0:0:0:0:
192,160,124973,1,2,0:0:0:0:
192,160,125059,1,0,0:0:0:0:
192,160,125145,1,0,0:0:0:0:
192,160,125232,1,0,0:0:0:0:
192,160,125318,1,0,0:0:0:0:
192,160,125404,1,2,0:0:0:0:
192,160,125490,1,0,0:0:0:0:
192,160,125577,1,2,0:0:0:0:
192,160,125663,1,2,0:0:0:0:
192,160,125749,1,0,0:0:0:0:
192,160,125835,1,0,0:0:0:0:
192,160,125921,1,0,0:0:0:0:
192,160,126008,1,2,0:0:0:0:
192,160,126094,1,2,0:0:0:0:
192,160,126180,1,2,0:0:0:0:
192,160,126266,1,0,0:0:0:0:
192,160,126352,1,0,0:0:0:0:
192,160,126439,1,2,0:0:0:0:
192,160,126525,1,0,0:0:0:0:
192,160,126611,1,2,0:0:0:0:
192,160,126697,1,2,0:0:0:0:
192,160,126783,1,0,0:0:0:0:
192,160,126870,1,0,0:0:0:0:
192,160,126956,1,0,0:0:0:0:
192,160,127042,1,0,0:0:0:0:
192,160,127128,1,2,0:0:0:0:
192,160,127214,1,2,0:0:0:0:
192,160,127301,1,0,0:0:0:0:
192,160,127387,1,0,0:0:0:0:
192,160,127473,1,2,0:0:0:0:
192,160,127559,1,0,0:0:0:0:
192,160,127645,1,2,0:0:0:0:
192,160,127732,1,2,0:0:0:0:
192,160,127818,1,0,0:0:0:0:
192,160,127904,1,0,0:0:0:0:
192,160,127990,1,0,0:0:0:0:
192,160,128077,1,2,0:0:0:0:
192,160,128163,1,2,0:0:0:0:
192,160,128249,1,0,0:0:0:0:
192,160,128335,1,2,0:0:0:0:
192,160,128421,1,2,0:0:0:0:
192,160,128508,1,0,0:0:0:0:
192,160,128594,1,0,0:0:0:0:
192,160,128680,1,0,0:0:0:0:
192,160,128766,1,2,0:0:0:0:
192,160,128852,1,0,0:0:0:0:
192,160,128939,1,2,0:0:0:0:
192,160,129025,1,2,0:0:0:0:
192,160,129111,1,2,0:0:0:0:
192,160,129197,1,0,0:0:0:0:
192,160,129283,1,0,0:0:0:0:
192,160,129370,1,0,0:0:0:0:
192,160,129456,1,0,0:0:0:0:
192,160,129542,1,2,0:0:0:0:
192,160,129628,1,2,0:0:0:0:
192,160,129714,1,0,0:0:0:0:
192,160,129801,1,0,0:0:0:0:
192,160,129973,1,2,0:0:0:0:
192,160,130059,1,0,0:0:0:0:
160,192,130145,1,0,0:0:0:0:
160,192,130232,1,0,0:0:0:0:
288,320,130318,1,0,0:0:0:0:
288,320,130404,1,2,0:0:0:0:
288,320,130490,1,2,0:0:0:0:
288,320,130577,1,2,0:0:0:0:
288,320,130663,1,0,0:0:0:0:
288,320,130749,1,0,0:0:0:0:
288,320,130835,1,0,0:0:0:0:
192,192,130921,1,2,0:0:0:0:
192,192,131008,1,2,0:0:0:0:
192,192,131094,1,2,0:0:0:0:
192,192,131180,1,2,0:0:0:0:
192,192,131266,1,0,0:0:0:0:
192,352,131352,1,0,0:0:0:0:
192,352,131439,1,2,0:0:0:0:
192,352,131525,1,0,0:0:0:0:
192,352,131611,1,2,0:0:0:0:
192,352,131697,1,2,0:0:0:0:
192,352,131783,1,0,0:0:0:0:
192,352,131870,1,0,0:0:0:0:
192,352,131956,1,2,0:0:0:0:
192,352,132042,1,0,0:0:0:0:
192,352,132128,1,0,0:0:0:0:
192,352,132214,1,0,0:0:0:0:
192,352,132301,1,2,0:0:0:0:
192,352,132387,1,0,0:0:0:0:
192,352,132473,1,0,0:0:0:0:
192,352,132559,1,0,0:0:0:0:
192,352,132645,1,2,0:0:0:0:
192,352,132732,1,0,0:0:0:0:
192,352,132818,1,0,0:0:0:0:
192,352,132904,1,0,0:0:0:0:
192,352,132990,1,2,0:0:0:0:
192,352,133077,1,0,0:0:0:0:
192,352,133163,1,2,0:0:0:0:
192,352,133249,1,2,0:0:0:0:
192,352,133335,1,0,0:0:0:0:
192,352,133421,1,0,0:0:0:0:
192,352,133508,1,2,0:0:0:0:
192,352,133594,1,0,0:0:0:0:
192,352,133680,1,2,0:0:0:0:
192,352,133766,1,2,0:0:0:0:
192,352,133852,1,0,0:0:0:0:
192,352,133939,1,0,0:0:0:0:
192,352,134025,1,2,0:0:0:0:
192,352,134111,1,2,0:0:0:0:
192,352,134197,1,0,0:0:0:0:
192,352,134283,1,0,0:0:0:0:
192,352,134370,1,2,0:0:0:0:
192,352,134456,1,2,0:0:0:0:
192,352,134542,1,2,0:0:0:0:
192,352,134628,1,0,0:0:0:0:
192,352,134714,1,2,0:0:0:0:
192,352,134801,1,0,0:0:0:0:
192,352,134887,1,0,0:0:0:0:
192,352,134973,1,0,0:0:0:0:
192,352,135059,1,2,0:0:0:0:
192,352,135145,1,2,0:0:0:0:
192,352,135232,1,0,0:0:0:0:
192,352,135318,1,0,0:0:0:0:
192,352,135404,1,2,0:0:0:0:
192,352,135490,1,0,0:0:0:0:
192,352,135577,1,0,0:0:0:0:
192,352,135663,1,0,0:0:0:0:
192,352,135749,1,2,0:0:0:0:
192,352,135835,1,0,0:0:0:0:
192,352,135921,1,0,0:0:0:0:
192,352,136008,1,0,0:0:0:0:
192,352,136094,1,2,0:0:0:0:
192,352,136180,1,0,0:0:0:0:
192,352,136266,1,2,0:0:0:0:
192,352,136352,1,2,0:0:0:0:
192,352,136439,1,0,0:0:0:0:
192,352,136525,1,0,0:0:0:0:
192,352,136611,1,0,0:0:0:0:
192,352,136697,1,2,0:0:0:0:
192,352,136783,1,2,0:0:0:0:
192,352,136870,1,2,0:0:0:0:
192,352,136956,1,0,0:0:0:0:
192,352,137042,1,0,0:0:0:0:
192,352,137128,1,2,0:0:0:0:
192,352,137214,1,0,0:0:0:0:
192,352,137301,1,2,0:0:0:0:
192,352,137387,1,2,0:0:0:0:
192,352,137473,1,0,0:0:0:0:
192,352,137559,1,2,0:0:0:0:
192,352,137645,1,0,0:0:0:0:
192,352,137732,1,0,0:0:0:0:
192,352,137818,1,2,0:0:0:0:
192,352,137904,1,2,0:0:0:0:
192,352,137990,1,0,0:0:0:0:
192,352,138077,1,0,0:0:0:0:
192,352,138163,1,2,0:0:0:0:
192,352,138249,1,0,0:0:0:0:
192,352,138335,1,0,0:0:0:0:
192,352,138421,1,0,0:0:0:0:
192,352,138508,1,2,0:0:0:0:
192,352,138594,1,0,0:0:0:0:
192,352,138680,1,0,0:0:0:0:
192,352,138766,1,0,0:0:0:0:
192,352,138852,1,2,0:0:0:0:
192,352,138939,1,2,0:0:0:0:
192,352,139025,1,0,0:0:0:0:
192,352,139111,1,2,0:0:0:0:
192,352,139197,1,2,0:0:0:0:
192,352,139283,1,2,0:0:0:0:
192,352,139370,1,0,0:0:0:0:
192,352,139456,1,2,0:0:0:0:
192,352,139542,1,2,0:0:0:0:
192,352,139628,1,0,0:0:0:0:
192,352,139714,1,0,0:0:0:0:
192,352,139801,1,0,0:0:0:0:
192,352,139887,1,2,0:0:0:0:
192,352,139973,1,0,0:0:0:0:
192,352,140059,1,2,0:0:0:0:
192,352,140145,1,2,0:0:0:0:
192,352,140232,1,0,0:0:0:0:
192,352,140318,1,0,0:0:0:0:
192,352,140404,1,0,0:0:0:0:
192,352,140490,1,0,0:0:0:0:
192,352,140577,1,2,0:0:0:0:
192,352,140663,1,2,0:0:0:0:
192,352,140749,1,0,0:0:0:0:
192,352,140835,1,0,0:0:0:0:
192,352,140921,1,2,0:0:0:0:
192,352,141008,1,2,0:0:0:0:
192,352,141094,1,0,0:0:0:0:
192,352,141180,1,0,0:0:0:0:
192,352,141266,1,2,0:0:0:0:
192,352,141352,1,0,0:0:0:0:
192,352,141439,1,0,0:0:0:0:
192,352,141525,1,0,0:0:0:0:
192,352,141611,1,2,0:0:0:0:
192,352,141697,1,0,0:0:0:0:
192,352,141783,1,0,0:0:0:0:
192,352,141870,1,0,0:0:0:0:
192,352,141956,1,0,0:0:0:0:
192,352,142042,1,0,0:0:0:0:
192,352,142128,1,0,0:0:0:0:
192,352,142214,1,0,0:0:0:0:
192,352,142301,1,2,0:0:0:0:
288,288,142387,1,0,0:0:0:0:
288,288,142473,1,2,0:0:0:0:
288,288,142559,1,0,0:0:0:0:
288,288,142645,1,0,0:0:0:0:
288,288,142732,1,0,0:0:0:0:
288,288,142818,1,2,0:0:0:0:
288,288,142904,1,0,0:0:0:0:
288,288,142990,1,2,0:0:0:0:
288,288,143077,1,2,0:0:0:0:
288,288,143163,1,2,0:0:0:0:
288,288,143249,1,0,0:0:0:0:
288,288,143335,1,2,0:0:0:0:
288,288,143421,1,0,0:0:0:0:
288,288,143508,1,0,0:0:0:0:
288,288,143594,1,0,0:0:0:0:
288,288,143680,1,2,0:0:0:0:
288,288,143766,1,0,0:0:0:0:
288,288,143852,1,2,0:0:0:0:
288,288,143939,1,2,0:0:0:0:
288,288,144025,1,0,0:0:0:0:
288,288,144111,1,0,0:0:0:0:
288,288,144197,1,0,0:0:0:0:
288,288,144283,1,2,0:0:0:0:
288,288,144370,1,0,0:0:0:0:
288,288,144456,1,2,0:0:0:0:
288,288,144542,1,2,0:0:0:0:
288,288,144628,1,0,0:0:0:0:
288,288,144714,1,2,0:0:0:0:
288,288,144801,1,2,0:0:0:0:
288,288,144887,1,0,0:0:0:0:
288,288,144973,1,0,0:0:0:0:
288,288,145059,1,2,0:0:0:0:
288,288,145145,1,0,0:0:0:0:
288,288,145232,1,2,0:0:0:0:
288,288,145318,1,2,0:0:0:0:
288,288,145404,1,0,0:0:0:0:
288,288,145490,1,2,0:0:0:0:
288,288,145577,1,0,0:0:0:0:
288,288,145663,1,0,0:0:0:0:
288,288,145749,1,0,0:0:0:0:
288,288,145835,1,2,0:0:0:0:
288,288,145921,1,0,0:0:0:0:
288,288,146008,1,0,0:0:0:0:
288,288,146094,1,0,0:0:0:0:
288,288,146180,1,2,0:0:0:0:
288,288,146266,1,0,0:0:0:0:
288,288,146352,1,2,0:0:0:0:
288,288,146439,1,2,0:0:0:0:
288,288,146525,1,2,0:0:0:0:
288,288,146611,1,0,0:0:0:0:
288,288,146697,1,2,0:0:0:0:
288,288,146783,1,0,0:0:0:0:
288,288,146870,1,0,0:0:0:0:
288,288,146956,1,2,0:0:0:0:
288,288,147042,1,0,0:0:0:0:
288,288,147128,1,0,0:0:0:0:
288,288,147214,1,2,0:0:0:0:
288,288,147301,1,0,0:0:0:0:
288,288,147387,1,2,0:0:0:0:
288,288,147473,1,2,0:0:0:0:
288,288,147559,1,0,0:0:0:0:
288,288,147645,1,0,0:0:0:0:
288,288,147732,1,0,0:0:0:0:
288,288,147818,1,2,0:0:0:0:
288,288,147904,1,0,0:0:0:0:
288,288,147990,1,2,0:0:0:0:
288,288,148077,1,2,0:0:0:0:
288,288,148163,1,2,0:0:0:0:
288,288,148249,1,0,0:0:0:0:
288,288,148335,1,2,0:0:0:0:
288,288,148421,1,2,0:0:0:0:
288,288,148508,1,2,0:0:0:0:
288,288,148594,1,0,0:0:0:0:
288,288,148680,1,2,0:0:0:0:
288,288,148766,1,2,0:0:0:0:
288,288,148852,1,0,0:0:0:0:
288,288,148939,1,0,0:0:0:0:
288,288,149025,1,2,0:0:0:0:
288,288,149111,1,0,0:0:0:0:
288,288,149197,1,2,0:0:0:0:
288,288,149283,1,2,0:0:0:0:
288,288,149370,1,0,0:0:0:0:
288,288,149456,1,2,0:0:0:0:
288,288,149542,1,0,0:0:0:0:
288,288,149628,1,0,0:0:0:0:
288,288,149714,1,2,0:0:0:0:
288,288,149801,1,0,0:0:0:0:
288,288,149887,1,0,0:0:0:0:
288,288,149973,1,0,0:0:0:0:
288,288,150059,1,2,0:0:0:0:
288,288,150145,1,0,0:0:0:0:
288,288,150232,1,2,0:0:0:0:
288,288,150318,1,2,0:0:0:0:
288,288,150404,1,2,0:0:0:0:
288,288,150490,1,0,0:0:0:0:
288,288,150577,1,0,0:0:0:0:
288,288,150663,1,0,0:0:0:0:
288,288,150749,1,2,0:0:0:0:
288,288,150835,1,0,0:0:0:0:
288,288,150921,1,2,0:0:0:0:
288,288,151008,1,0,0:0:0:0:
288,288,151094,1,0,0:0:0:0:
288,288,151180,1,0,0:0:0:0:
288,288,151266,1,2,0:0:0:0:
288,288,151352,1,0,0:0:0:0:
288,288,151439,1,0,0:0:0:0:
288,288,151525,1,0,0:0:0:0:
288,288,151611,1,2,0:0:0:0:
288,288,151697,1,0,0:0:0:0:
288,288,151783,1,0,0:0:0:0:
288,288,151870,1,0,0:0:0:0:
288,288,151956,1,2,0:0:0:0:
288,288,152042,1,0,0:0:0:0:
288,288,152128,1,2,0:0:0:0:
288,288,152214,1,2,0:0:0:0:
288,288,152301,1,0,0:0:0:0:
288,288,152387,1,0,0:0:0:0:
288,288,152473,1,2,0:0:0:0:
288,288,152559,1,0,0:0:0:0:
288,288,152645,1,2,0:0:0:0:
288,288,152732,1,2,0:0:0:0:
288,288,152818,1,2,0:0:0:0:
288,288,152904,1,2,0:0:0:0:
288,288,152990,1,0,0:0:0:0:
288,288,153077,1,2,0:0:0:0:
288,288,153163,1,2,0:0:0:0:
288,288,153249,1,0,0:0:0:0:
288,288,153335,1,2,0:0:0:0:
288,288,153421,1,2,0:0:0:0:
288,288,153508,1,0,0:0:0:0:
288,288,153594,1,0,0:0:0:0:
288,288,153680,1,2,0:0:0:0:
288,288,153766,1,2,0:0:0:0:
288,288,153852,1,0,0:0:0:0:
288,288,153939,1,0,0:0:0:0:
288,288,154025,1,2,0:0:0:0:
288,288,154111,1,2,0:0:0:0:
224,192,154197,1,0,0:0:0:0:
224,192,154283,1,2,0:0:0:0:
224,192,154370,1,2,0:0:0:0:
224,192,154456,1,0,0:0:0:0:
224,192,154542,1,2,0:0:0:0:
160,160,154628,1,2,0:0:0:0:
160,160,154714,1,0,0:0:0:0:
160,160,154801,1,0,0:0:0:0:
160,160,154887,1,2,0:0:0:0:
160,160,154973,1,0,0:0:0:0:
160,160,155059,1,0,0:0:0:0:
160,160,155145,1,2,0:0:0:0:
160,160,155232,1,0,0:0:0:0:
160,160,155318,1,2,0:0:0:0:
160,160,155404,1,0,0:0:0:0:
288,256,155490,1,0,0:0:0:0:
288,256,155577,1,0,0:0:0:0:
288,256,155663,1,2,0:0:0:0:
288,256,155749,1,0,0:0:0:0:
288,256,155835,1,2,0:0:0:0:
288,256,155921,1,2,0:0:0:0:
288,256,156008,1,0,0:0:0:0:
288,256,156094,1,2,0:0:0:0:
288,256,156180,1,2,0:0:0:0:
288,256,156266,1,0,0:0:0:0:
256,256,156352,1,0,0:0:0:0:
256,256,156439,1,2,0:0:0:0:
256,256,156525,1,0,0:0:0:0:
256,256,156611,1,2,0:0:0:0:
256,256,156697,1,2,0:0:0:0:
256,256,156783,1,2,0:0:0:0:
256,256,156870,1,0,0:0:0:0:
256,256,156956,1,2,0:0:0:0:
256,256,157042,1,0,0:0:0:0:
256,256,157128,1,2,0:0:0:0:
256,224,157214,1,2,0:0:0:0:
256,224,157301,1,0,0:0:0:0:
160,160,157387,1,0,0:0:0:0:
160,160,157473,1,2,0:0:0:0:
192,160,157559,1,0,0:0:0:0:
192,160,157645,1,0,0:0:0:0:
192,160,157732,1,0,0:0:0:0:
192,160,157818,1,2,0:0:0:0:
320,256,157904,1,2,0:0:0:0:
320,256,157990,1,2,0:0:0:0:
320,256,158077,1,0,0:0:0:0:
320,256,158163,1,2,0:0:0:0:
320,256,158249,1,0,0:0:0:0:
320,256,158335,1,0,0:0:0:0:
320,256,158421,1,0,0:0:0:0:
320,256,158508,1,2,0:0:0:0:
320,256,158594,1,0,0:0:0:0:
320,256,158680,1,0,0:0:0:0:
320,256,158766,1,0,0:0:0:0:
320,256,158852,1,2,0:0:0:0:
320,256,158939,1,2,0:0:0:0:
320,256,159025,1,0,0:0:0:0:
320,256,159111,1,0,0:0:0:0:
320,256,159197,1,2,0:0:0:0:
320,256,159283,1,0,0:0:0:0:
320,256,159370,1,2,0:0:0:0:
320,256,159456,1,2,0:0:0:0:
320,256,159542,1,0,0:0:0:0:
320,256,159628,1,0,0:0:0:0:
320,256,159714,1,0,0:0:0:0:
320,256,159801,1,0,0:0:0:0:
320,256,159887,1,2,0:0:0:0:
320,256,159973,1,0,0:0:0:0:
320,256,160059,1,0,0:0:0:0:
320,256,160145,1,0,0:0:0:0:
384,320,160232,1,2,0:0:0:0:
416,320,160318,1,2,0:0:0:0:
416,320,160404,1,2,0:0:0:0:
416,320,160490,1,0,0:0:0:0:
416,320,160577,1,2,0:0:0:0:
416,320,160663,1,2,0:0:0:0:
416,320,160749,1,0,0:0:0:0:
416,320,160835,1,2,0:0:0:0:
416,320,160921,1,2,0:0:0:0:
416,320,161008,1,0,0:0:0:0:
416,320,161094,1,2,0:0:0:0:
416,320,161180,1,2,0:0:0:0:
416,320,161266,1,0,0:0:0:0:
416,320,161352,1,0,0:0:0:0:
416,320,161439,1,2,0:0:0:0:
416,320,161525,1,2,0:0:0:0:
416,320,161611,1,0,0:0:0:0:
416,320,161697,1,2,0:0:0:0:
416,320,161783,1,0,0:0:0:0:
416,320,161870,1,0,0:0:0:0:
416,320,161956,1,2,0:0:0:0:
416,320,162042,1,0,0:0:0:0:
416,320,162128,1,0,0:0:0:0:
416,320,162214,1,2,0:0:0:0:
416,320,162301,1,2,0:0:0:0:
416,320,162387,1,0,0:0:0:0:
416,320,162473,1,2,0:0:0:0:
416,320,162559,1,2,0:0:0:0:
416,320,162645,1,2,0:0:0:0:
416,320,162732,1,0,0:0:0:0:
416,320,162818,1,0,0:0:0:0:
416,320,162904,1,0,0:0:0:0:
416,320,162990,1,2,0:0:0:0:
416,320,163077,1,2,0:0:0:0:
416,320,163163,1,0,0:0:0:0:
416,320,163249,1,0,0:0:0:0:
416,320,163335,1,2,0:0:0:0:
416,320,163421,1,0,0:0:0:0:
416,320,163508,1,2,0:0:0:0:
416,320,163594,1,2,0:0:0:0:
416,320,163680,1,0,0:0:0:0:
416,320,163766,1,0,0:0:0:0:
416,320,163852,1,0,0:0:0:0:
416,320,163939,1,0,0:0:0:0:
416,320,164025,1,2,0:0:0:0:
416,320,164111,1,0,0:0:0:0:
416,320,164197,1,0,0:0:0:0:
416,320,164283,1,0,0:0:0:0:
416,320,164370,1,2,0:0:0:0:
416,320,164456,1,2,0:0:0:0:
416,320,164542,1,2,0:0:0:0:
416,320,164628,1,2,0:0:0:0:
416,320,164714,1,0,0:0:0:0:
416,320,164801,1,0,0:0:0:0:
416,320,164887,1,0,0:0:0:0:
416,320,164973,1,2,0:0:0:0:
416,320,165059,1,2,0:0:0:0:
416,320,165145,1,2,0:0:0:0:
416,320,165232,1,2,0:0:0:0:
416,320,165318,1,0,0:0:0:0:
416,320,165404,1,0,0:0:0:0:
416,320,165490,1,0,0:0:0:0:
416,320,165577,1,2,0:0:0:0:
416,320,165663,1,0,0:0:0:0:
416,320,165749,1,2,0:0:0:0:
416,320,165835,1,2,0:0:0:0:
416,320,165921,1,0,0:0:0:0:
416,320,166008,1,2,0:0:0:0:
416,320,166094,1,2,0:0:0:0:
416,320,166180,1,2,0:0:0:0:
416,320,166266,1,0,0:0:0:0:
416,320,166352,1,0,0:0:0:0:
416,320,166439,1,2,0:0:0:0:
416,320,166525,1,0,0:0:0:0:
416,320,166611,1,2,0:0:0:0:
416,320,166697,1,2,0:0:0:0:
416,320,166783,1,0,0:0:0:0:
416,320,166870,1,0,0:0:0:0:
416,320,166956,1,0,0:0:0:0:
416,320,167042,1,0,0:0:0:0:
416,320,167128,1,2,0:0:0:0:
416,320,167214,1,2,0:0:0:0:
416,320,167301,1,2,0:0:0:0:
416,320,167387,1,2,0:0:0:0:
416,320,167473,1,0,0:0:0:0:
416,320,167559,1,0,0:0:0:0:
416,320,167645,1,2,0:0:0:0:
416,320,167732,1,2,0:0:0:0:
416,320,167818,1,0,0:0:0:0:
384,288,167904,1,2,0:0:0:0:
416,320,167990,1,0,0:0:0:0:
384,288,168077,1,0,0:0:0:0:
384,288,168163,1,2,0:0:0:0:
384,288,168249,1,0,0:0:0:0:
384,288,168335,1,0,0:0:0:0:
384,288,168421,1,0,0:0:0:0:
384,288,168508,1,2,0:0:0:0:
384,288,168594,1,0,0:0:0:0:
384,288,168680,1,2,0:0:0:0:
384,288,168766,1,2,0:0:0:0:
384,288,168852,1,0,0:0:0:0:
384,288,168939,1,0,0:0:0:0:
384,288,169025,1,0,0:0:0:0:
384,288,169111,1,0,0:0:0:0:
384,288,169197,1,2,0:0:0:0:
384,288,169283,1,2,0:0:0:0:
384,288,169370,1,0,0:0:0:0:
384,288,169456,1,0,0:0:0:0:
384,288,169542,1,0,0:0:0:0:
384,288,169628,1,2,0:0:0:0:
384,288,169714,1,2,0:0:0:0:
384,288,169801,1,0,0:0:0:0:
384,288,169887,1,2,0:0:0:0:
384,288,169973,1,2,0:0:0:0:
384,288,170059,1,0,0:0:0:0:
384,288,170145,1,0,0:0:0:0:
384,288,170232,1,2,0:0:0:0:
384,288,170318,1,0,0:0:0:0:
416,288,170404,1,2,0:0:0:0:
416,288,170490,1,2,0:0:0:0:
416,288,170577,1,0,0:0:0:0:
416,288,170663,1,0,0:0:0:0:
416,288,170749,1,0,0:0:0:0:
416,288,170835,1,2,0:0:0:0:
416,288,170921,1,0,0:0:0:0:
416,288,171008,1,2,0:0:0:0:
416,288,171094,1,2,0:0:0:0:
416,288,171180,1,2,0:0:0:0:
416,288,171266,1,0,0:0:0:0:
416,288,171352,1,0,0:0:0:0:
416,288,171439,1,0,0:0:0:0:
416,288,171525,1,2,0:0:0:0:
416,288,171611,1,0,0:0:0:0:
416,288,171697,1,0,0:0:0:0:
416,288,171783,1,2,0:0:0:0:
416,288,171870,1,2,0:0:0:0:
416,288,171956,1,0,0:0:0:0:
416,288,172042,1,0,0:0:0:0:
416,288,172128,1,2,0:0:0:0:
416,288,172214,1,0,0:0:0:0:
416,288,172301,1,0,0:0:0:0:
416,288,172387,1,2,0:0:0:0:
416,288,172473,1,0,0:0:0:0:
416,288,172559,1,0,0:0:0:0:
416,288,172645,1,2,0:0:0:0:
416,288,172732,1,2,0:0:0:0:
416,288,172818,1,0,0:0:0:0:
416,288,172904,1,0,0:0:0:0:
416,288,172990,1,2,0:0:0:0:
416,288,173077,1,0,0:0:0:0:
416,288,173163,1,0,0:0:0:0:
416,288,173249,1,2,0:0:0:0:
416,288,173335,1,2,0:0:0:0:
416,288,173421,1,0,0:0:0:0:
416,288,173508,1,2,0:0:0:0:
416,288,173594,1,2,0:0:0:0:
416,288,173680,1,0,0:0:0:0:
416,288,173766,1,2,0:0:0:0:
416,288,173852,1,2,0:0:0:0:
416,288,173939,1,2,0:0:0:0:
416,288,174025,1,0,0:0:0:0:
416,288,174111,1,0,0:0:0:0:
416,288,174197,1,0,0:0:0:0:
416,288,174283,1,2,0:0:0:0:
416,288,174370,1,0,0:0:0:0:
416,288,174456,1,2,0:0:0:0:
416,288,174542,1,2,0:0:0:0:
416,288,174628,1,2,0:0:0:0:
416,288,174714,1,0,0:0:0:0:
256,256,179887,5,0,0:0:0:0:
256,256,180002,1,0,0:0:0:0:
96,160,180117,1,0,0:0:0:0:
160,160,180232,1,4,0:0:0:0:
352,256,184370,1,0,0:0:0:0:
352,256,184485,1,0,0:0:0:0:
352,256,184600,1,0,0:0:0:0:
352,256,184714,1,2,0:0:0:0:
352,256,184829,1,2,0:0:0:0:
352,256,184944,1,2,0:0:0:0:
352,256,185059,1,0,0:0:0:0:
352,256,185174,1,0,0:0:0:0:
352,256,185289,1,0,0:0:0:0:
352,256,185404,1,0,0:0:0:0:
352,256,185519,1,0,0:0:0:0:
352,256,185634,1,0,0:0:0:0:
352,256,185749,1,6,0:0:0:0:
320,224,188508,1,0,0:0:0:0:
320,224,188623,1,0,0:0:0:0:
320,224,188852,1,0,0:0:0:0:
320,224,189082,1,0,0:0:0:0:
320,224,189197,1,4,0:0:0:0:
224,224,191266,1,4,0:0:0:0:
352,288,194025,1,0,0:0:0:0:
352,288,194140,1,0,0:0:0:0:
352,288,194370,1,0,0:0:0:0:
352,288,194600,1,0,0:0:0:0:
352,288,194714,1,4,0:0:0:0:
320,288,194829,1,0,0:0:0:0:
256,288,196094,1,2,0:0:0:0:
256,288,196209,1,2,0:0:0:0:
256,288,196324,1,2,0:0:0:0:
256,288,196439,1,0,0:0:0:0:
256,288,196554,1,0,0:0:0:0:
256,288,196668,1,0,0:0:0:0:
256,288,196783,1,4,0:0:0:0:
256,256,197128,1,0,0:0:0:0:
256,160,197473,1,0,0:0:0:0:
288,224,197818,1,0,0:0:0:0:
288,224,198163,1,0,0:0:0:0:
288,224,198508,1,0,0:0:0:0:
288,224,198852,1,0,0:0:0:0:
288,224,199197,1,0,0:0:0:0:
288,224,199542,1,0,0:0:0:0:
224,192,199657,1,0,0:0:0:0:
224,224,199887,1,0,0:0:0:0:
224,224,200117,1,0,0:0:0:0:
224,224,200232,1,4,0:0:0:0:
320,288,202301,1,4,0:0:0:0:
288,256,202645,1,0,0:0:0:0:
288,256,202990,1,0,0:0:0:0:
288,256,203335,1,0,0:0:0:0:
288,256,203680,1,0,0:0:0:0:
288,256,204025,1,0,0:0:0:0:
288,256,204370,1,0,0:0:0:0:
288,256,204714,1,0,0:0:0:0:
288,256,205059,1,0,0:0:0:0:
288,256,205174,1,0,0:0:0:0:
288,256,205404,1,0,0:0:0:0:
288,256,205634,1,0,0:0:0:0:
288,256,205749,1,4,0:0:0:0:
192,128,205921,1,2,0:0:0:0:
256,160,207128,1,0,0:0:0:0:
256,160,207243,1,0,0:0:0:0:
256,160,207358,1,0,0:0:0:0:
256,160,207473,1,2,0:0:0:0:
256,160,207588,1,2,0:0:0:0:
256,160,207703,1,2,0:0:0:0:
256,160,207818,1,0,0:0:0:0:
416,320,208048,1,0,0:0:0:0:
416,320,208163,1,2,0:0:0:0:
416,320,208278,1,0,0:0:0:0:
416,320,208393,1,0,0:0:0:0:
416,320,208508,1,0,0:0:0:0:
416,320,208623,1,0,0:0:0:0:
416,320,208737,1,0,0:0:0:0:
416,320,208852,1,2,0:0:0:0:
416,320,208967,1,0,0:0:0:0:
416,320,209082,1,0,0:0:0:0:
416,320,209197,1,0,0:0:0:0:
416,320,209312,1,0,0:0:0:0:
416,320,209427,1,0,0:0:0:0:
416,320,209542,1,2,0:0:0:0:
416,320,209657,1,0,0:0:0:0:
416,320,209772,1,0,0:0:0:0:
416,320,209887,1,0,0:0:0:0:
416,320,210002,1,0,0:0:0:0:
416,320,210117,1,0,0:0:0:0:
416,320,210232,1,2,0:0:0:0:
416,320,210347,1,0,0:0:0:0:
416,320,210462,1,0,0:0:0:0:
416,320,210577,1,0,0:0:0:0:
416,320,210691,1,0,0:0:0:0:
416,320,210806,1,0,0:0:0:0:
416,320,210921,1,2,0:0:0:0:
416,320,211036,1,0,0:0:0:0:
416,320,211151,1,0,0:0:0:0:
416,320,211266,1,0,0:0:0:0:
416,320,211381,1,0,0:0:0:0:
416,320,211496,1,0,0:0:0:0:
416,320,211611,1,2,0:0:0:0:
416,320,211726,1,0,0:0:0:0:
416,320,211841,1,0,0:0:0:0:
416,320,211956,1,0,0:0:0:0:
416,320,212071,1,0,0:0:0:0:
416,320,212186,1,0,0:0:0:0:
416,320,212301,1,2,0:0:0:0:
416,320,212416,1,0,0:0:0:0:
416,320,212531,1,0,0:0:0:0:
416,320,212645,1,0,0:0:0:0:
416,320,212760,1,0,0:0:0:0:
416,320,212875,1,0,0:0:0:0:
416,320,212990,1,2,0:0:0:0:
416,320,213105,1,0,0:0:0:0:
416,320,213220,1,0,0:0:0:0:
416,320,213335,1,0,0:0:0:0:
416,320,213450,1,0,0:0:0:0:
416,320,213565,1,0,0:0:0:0:
416,320,213680,1,2,0:0:0:0:
416,320,213795,1,0,0:0:0:0:
416,320,213910,1,0,0:0:0:0:
416,320,214025,1,0,0:0:0:0:
416,320,214140,1,0,0:0:0:0:
416,320,214255,1,0,0:0:0:0:
416,320,214370,1,2,0:0:0:0:
416,320,214485,1,0,0:0:0:0:
416,320,214600,1,0,0:0:0:0:
416,320,214714,1,0,0:0:0:0:
416,320,214829,1,0,0:0:0:0:
416,320,214944,1,0,0:0:0:0:
416,320,215059,1,2,0:0:0:0:
416,320,215174,1,0,0:0:0:0:
416,320,215289,1,0,0:0:0:0:
416,320,215404,1,0,0:0:0:0:
416,320,215519,1,0,0:0:0:0:
416,320,215634,1,0,0:0:0:0:
416,320,215749,1,2,0:0:0:0:
416,320,215864,1,0,0:0:0:0:
416,320,215979,1,0,0:0:0:0:
416,320,216094,1,0,0:0:0:0:
416,320,216209,1,0,0:0:0:0:
416,320,216324,1,0,0:0:0:0:
416,320,216439,1,2,0:0:0:0:
416,320,216554,1,0,0:0:0:0:
416,320,216669,1,0,0:0:0:0:
416,320,216783,1,0,0:0:0:0:
416,320,216898,1,0,0:0:0:0:
416,320,217013,1,0,0:0:0:0:
416,320,217128,1,2,0:0:0:0:
416,320,217243,1,0,0:0:0:0:
416,320,217358,1,0,0:0:0:0:
160,160,217473,1,0,0:0:0:0:
416,320,217588,1,0,0:0:0:0:
416,320,217703,1,0,0:0:0:0:
416,320,217818,1,2,0:0:0:0:
416,320,217933,1,0,0:0:0:0:
416,320,218048,1,0,0:0:0:0:
416,320,218163,1,0,0:0:0:0:
416,320,218278,1,0,0:0:0:0:
416,320,218393,1,0,0:0:0:0:
416,320,218508,1,6,0:0:0:0:
416,320,218738,1,0,0:0:0:0:
416,320,218852,1,2,0:0:0:0:
416,320,218967,1,2,0:0:0:0:
416,320,219082,1,2,0:0:0:0:
416,320,219197,1,2,0:0:0:0:
416,320,219312,1,0,0:0:0:0:
416,320,219427,1,0,0:0:0:0:
416,320,219542,1,0,0:0:0:0:
416,320,219657,1,0,0:0:0:0:
416,320,219772,1,0,0:0:0:0:
416,320,219887,1,2,0:0:0:0:
416,320,220002,1,0,0:0:0:0:
416,320,220117,1,0,0:0:0:0:
416,320,220232,1,2,0:0:0:0:
416,320,220347,1,2,0:0:0:0:
416,320,220462,1,2,0:0:0:0:
416,320,220577,1,0,0:0:0:0:
416,320,220692,1,2,0:0:0:0:
416,320,220807,1,2,0:0:0:0:
416,320,220921,1,2,0:0:0:0:
416,320,221036,1,2,0:0:0:0:
416,320,221151,1,2,0:0:0:0:
416,320,221266,1,0,0:0:0:0:
416,320,221381,1,2,0:0:0:0:
416,320,221496,1,2,0:0:0:0:
416,320,221611,1,0,0:0:0:0:
416,320,221726,1,0,0:0:0:0:
416,320,221841,1,0,0:0:0:0:
416,320,221956,1,2,0:0:0:0:
192,192,222071,1,0,0:0:0:0:
192,192,222186,1,0,0:0:0:0:
192,192,222301,1,0,0:0:0:0:
192,160,222416,1,0,0:0:0:0:
192,160,222531,1,0,0:0:0:0:
192,192,222646,1,2,0:0:0:0:
288,288,222760,1,0,0:0:0:0:
288,288,222875,1,0,0:0:0:0:
288,288,222990,1,2,0:0:0:0:
288,256,223105,1,2,0:0:0:0:
288,256,223220,1,2,0:0:0:0:
320,320,223335,1,0,0:0:0:0:
320,320,223450,1,2,0:0:0:0:
320,256,223565,1,2,0:0:0:0:
320,256,223680,1,2,0:0:0:0:
320,256,223795,1,2,0:0:0:0:
320,256,223910,1,2,0:0:0:0:
320,320,224025,1,0,0:0:0:0:
320,320,224140,1,2,0:0:0:0:
320,320,224255,1,2,0:0:0:0:
256,256,224370,1,0,0:0:0:0:
256,256,224485,1,0,0:0:0:0:
256,256,224600,1,0,0:0:0:0:
256,256,224714,1,2,0:0:0:0:
192,192,224829,1,0,0:0:0:0:
192,192,224944,1,0,0:0:0:0:
192,160,225059,1,0,0:0:0:0:
192,160,225174,1,0,0:0:0:0:
288,256,225289,1,0,0:0:0:0:
288,256,225404,1,2,0:0:0:0:
288,256,225519,1,0,0:0:0:0:
288,256,225634,1,0,0:0:0:0:
288,256,225749,1,2,0:0:0:0:
288,256,225864,1,2,0:0:0:0:
288,256,225979,1,2,0:0:0:0:
288,256,226094,1,0,0:0:0:0:
288,288,226209,1,2,0:0:0:0:
288,288,226324,1,2,0:0:0:0:
288,288,226439,1,2,0:0:0:0:
288,288,226554,1,2,0:0:0:0:
288,288,226668,1,2,0:0:0:0:
288,288,226783,1,0,0:0:0:0:
288,288,226898,1,2,0:0:0:0:
288,288,227013,1,2,0:0:0:0:
352,352,227128,1,0,0:0:0:0:
352,352,227243,1,0,0:0:0:0:
352,352,227358,1,0,0:0:0:0:
352,352,227473,1,2,0:0:0:0:
320,320,227588,1,0,0:0:0:0:
320,320,227703,1,0,0:0:0:0:
320,320,227818,1,0,0:0:0:0:
320,320,227933,1,0,0:0:0:0:
320,320,228048,1,0,0:0:0:0:
320,320,228163,1,2,0:0:0:0:
320,320,228278,1,0,0:0:0:0:
320,320,228393,1,0,0:0:0:0:
320,320,228508,1,2,0:0:0:0:
320,320,228623,1,2,0:0:0:0:
320,320,228737,1,2,0:0:0:0:
320,320,228852,1,0,0:0:0:0:
384,320,228967,1,2,0:0:0:0:
384,320,229082,1,2,0:0:0:0:
320,224,229197,1,0,0:0:0:0:
320,224,229283,1,0,0:0:0:0:
320,224,229370,1,2,0:0:0:0:
320,224,229456,1,0,0:0:0:0:
320,224,229542,1,2,0:0:0:0:
320,224,229628,1,2,0:0:0:0:
320,224,229714,1,2,0:0:0:0:
320,224,229801,1,0,0:0:0:0:
320,224,229887,1,2,0:0:0:0:
288,224,230059,1,2,0:0:0:0:
352,320,230318,1,0,0:0:0:0:
352,320,230404,1,2,0:0:0:0:
352,320,230577,1,0,0:0:0:0:
352,320,230749,1,2,0:0:0:0:
352,320,230835,1,0,0:0:0:0:
352,320,231008,1,0,0:0:0:0:
352,320,231094,1,2,0:0:0:0:
352,320,231266,1,0,0:0:0:0:
352,320,231439,1,2,0:0:0:0:
352,320,231697,1,0,0:0:0:0:
352,320,231783,1,2,0:0:0:0:
352,320,231956,1,0,0:0:0:0:
352,320,232042,1,0,0:0:0:0:
352,320,232128,1,2,0:0:0:0:
352,320,232214,1,0,0:0:0:0:
352,320,232387,1,0,0:0:0:0:
352,320,232473,1,2,0:0:0:0:
352,320,232646,1,0,0:0:0:0:
352,320,232904,1,2,0:0:0:0:
352,320,233077,1,0,0:0:0:0:
352,320,233163,1,0,0:0:0:0:
352,320,233335,1,0,0:0:0:0:
320,320,233508,1,2,0:0:0:0:
320,320,233594,1,0,0:0:0:0:
320,320,233680,1,2,0:0:0:0:
320,320,233766,1,2,0:0:0:0:
320,320,233852,1,2,0:0:0:0:
320,320,233939,1,0,0:0:0:0:
320,320,234025,1,0,0:0:0:0:
320,320,234111,1,0,0:0:0:0:
320,320,234197,1,2,0:0:0:0:
320,320,234283,1,2,0:0:0:0:
320,320,234370,1,2,0:0:0:0:
320,320,234456,1,0,0:0:0:0:
320,320,234628,1,0,0:0:0:0:
192,192,234714,1,0,0:0:0:0:
192,192,234801,1,0,0:0:0:0:
192,192,234887,1,2,0:0:0:0:
192,192,234973,1,0,0:0:0:0:
192,192,235059,1,2,0:0:0:0:
192,192,235146,1,0,0:0:0:0:
192,192,235232,1,0,0:0:0:0:
192,192,235318,1,0,0:0:0:0:
192,192,235404,1,2,0:0:0:0:
320,256,235462,1,0,0:0:0:0:
320,256,235519,1,0,0:0:0:0:
320,256,235577,1,0,0:0:0:0:
256,128,235634,1,2,0:0:0:0:
320,256,235691,1,0,0:0:0:0:
320,256,235749,1,0,0:0:0:0:
320,256,235806,1,0,0:0:0:0:
320,256,235864,1,0,0:0:0:0:
320,256,235921,1,0,0:0:0:0:
320,256,235979,1,0,0:0:0:0:
320,256,236036,1,0,0:0:0:0:
320,256,236094,1,2,0:0:0:0:
320,256,236151,1,0,0:0:0:0:
320,256,236209,1,0,0:0:0:0:
320,256,236266,1,0,0:0:0:0:
320,256,236324,1,0,0:0:0:0:
320,256,236381,1,0,0:0:0:0:
320,256,236439,1,0,0:0:0:0:
320,256,236496,1,0,0:0:0:0:
320,256,236554,1,2,0:0:0:0:
160,192,236611,1,0,0:0:0:0:
160,192,236668,1,0,0:0:0:0:
160,192,236726,1,0,0:0:0:0:
160,192,236783,1,0,0:0:0:0:
160,192,236841,1,0,0:0:0:0:
160,192,236898,1,0,0:0:0:0:
160,192,236956,1,0,0:0:0:0:
160,192,237013,1,2,0:0:0:0:
160,192,237071,1,0,0:0:0:0:
160,192,237128,1,0,0:0:0:0:
160,192,237186,1,0,0:0:0:0:
160,192,237243,1,0,0:0:0:0:
160,192,237301,1,0,0:0:0:0:
160,192,237358,1,0,0:0:0:0:
160,192,237416,1,0,0:0:0:0:
160,192,237473,1,2,0:0:0:0:
160,192,237531,1,0,0:0:0:0:
160,192,237588,1,0,0:0:0:0:
160,192,237646,1,0,0:0:0:0:
160,192,237703,1,0,0:0:0:0:
160,192,237760,1,0,0:0:0:0:
160,192,237818,1,2,0:0:0:0:
160,192,237904,1,2,0:0:0:0:
192,160,237990,1,2,0:0:0:0:
192,160,238077,1,2,0:0:0:0:
192,160,238163,1,0,0:0:0:0:
192,160,238335,1,0,0:0:0:0:
192,160,238421,1,0,0:0:0:0:
192,160,238508,1,2,0:0:0:0:
192,160,238680,1,0,0:0:0:0:
192,160,238766,1,0,0:0:0:0:
192,160,238852,1,2,0:0:0:0:
192,160,238939,1,2,0:0:0:0:
192,160,239025,1,0,0:0:0:0:
192,160,239111,1,0,0:0:0:0:
192,160,239197,1,2,0:0:0:0:
192,160,239283,1,2,0:0:0:0:
192,160,239370,1,2,0:0:0:0:
192,160,239456,1,2,0:0:0:0:
192,160,239542,1,0,0:0:0:0:
192,160,239628,1,0,0:0:0:0:
192,160,239714,1,2,0:0:0:0:
288,288,239801,1,0,0:0:0:0:
288,288,239887,1,0,0:0:0:0:
288,288,239973,1,2,0:0:0:0:
288,288,240059,1,0,0:0:0:0:
288,288,240146,1,2,0:0:0:0:
288,288,240232,1,2,0:0:0:0:
288,288,240318,1,2,0:0:0:0:
288,288,240404,1,0,0:0:0:0:
288,288,240490,1,0,0:0:0:0:
288,288,240577,1,0,0:0:0:0:
288,288,240663,1,0,0:0:0:0:
288,288,240749,1,0,0:0:0:0:
288,288,240835,1,0,0:0:0:0:
288,288,240921,1,6,0:0:0:0:
224,192,241439,1,6,0:0:0:0:
320,320,242301,1,2,0:0:0:0:
320,320,242387,1,0,0:0:0:0:
320,256,242473,1,0,0:0:0:0:
320,256,242559,1,0,0:0:0:0:
320,256,242645,1,2,0:0:0:0:
320,256,242732,1,2,0:0:0:0:
320,256,242818,1,0,0:0:0:0:
320,256,242904,1,0,0:0:0:0:
320,256,242990,1,2,0:0:0:0:
320,256,243076,1,2,0:0:0:0:
320,256,243163,1,0,0:0:0:0:
320,256,243249,1,0,0:0:0:0:
320,256,243335,1,2,0:0:0:0:
320,256,243421,1,0,0:0:0:0:
320,256,243507,1,2,0:0:0:0:
320,256,243594,1,2,0:0:0:0:
320,256,243680,1,0,0:0:0:0:
320,256,243766,1,0,0:0:0:0:
320,256,243852,1,2,0:0:0:0:
320,256,243938,1,0,0:0:0:0:
320,256,244025,1,2,0:0:0:0:
320,256,244111,1,0,0:0:0:0:
320,256,244197,1,0,0:0:0:0:
320,256,244283,1,0,0:0:0:0:
320,256,244369,1,2,0:0:0:0:
320,256,244456,1,0,0:0:0:0:
320,256,244542,1,2,0:0:0:0:
320,256,244628,1,0,0:0:0:0:
128,128,244714,1,2,0:0:0:0:
128,128,244801,1,0,0:0:0:0:
128,128,244887,1,0,0:0:0:0:
128,128,244973,1,0,0:0:0:0:
128,128,245059,1,2,0:0:0:0:
128,128,245145,1,2,0:0:0:0:
128,128,245232,1,0,0:0:0:0:
128,128,245318,1,0,0:0:0:0:
128,128,245404,1,2,0:0:0:0:
128,128,245490,1,0,0:0:0:0:
128,128,245576,1,2,0:0:0:0:
128,128,245663,1,2,0:0:0:0:
128,128,245749,1,0,0:0:0:0:
128,128,245835,1,0,0:0:0:0:
128,128,245921,1,2,0:0:0:0:
128,128,246007,1,0,0:0:0:0:
128,128,246094,1,2,0:0:0:0:
128,128,246180,1,2,0:0:0:0:
128,128,246266,1,0,0:0:0:0:
128,128,246352,1,2,0:0:0:0:
128,128,246438,1,0,0:0:0:0:
128,128,246525,1,0,0:0:0:0:
128,128,246611,1,2,0:0:0:0:
128,128,246697,1,0,0:0:0:0:
128,128,246783,1,0,0:0:0:0:
128,128,246869,1,0,0:0:0:0:
128,128,246956,1,2,0:0:0:0:
128,128,247042,1,0,0:0:0:0:
128,128,247128,1,2,0:0:0:0:
128,128,247214,1,2,0:0:0:0:
128,128,247301,1,0,0:0:0:0:
128,128,247387,1,0,0:0:0:0:
128,128,247473,1,2,0:0:0:0:
128,128,247559,1,0,0:0:0:0:
128,128,247645,1,2,0:0:0:0:
128,128,247732,1,2,0:0:0:0:
128,128,247818,1,0,0:0:0:0:
128,128,247904,1,0,0:0:0:0:
128,128,247990,1,2,0:0:0:0:
128,128,248076,1,0,0:0:0:0:
128,128,248163,1,2,0:0:0:0:
128,128,248249,1,0,0:0:0:0:
128,128,248335,1,0,0:0:0:0:
128,128,248421,1,2,0:0:0:0:
128,128,248507,1,0,0:0:0:0:
128,128,248594,1,0,0:0:0:0:
128,128,248680,1,0,0:0:0:0:
128,128,248766,1,2,0:0:0:0:
128,128,248852,1,0,0:0:0:0:
128,128,248938,1,2,0:0:0:0:
128,128,249025,1,0,0:0:0:0:
128,128,249111,1,2,0:0:0:0:
128,128,249197,1,2,0:0:0:0:
128,128,249283,1,2,0:0:0:0:
128,128,249369,1,0,0:0:0:0:
128,128,249456,1,2,0:0:0:0:
96,128,249542,1,2,0:0:0:0:
96,128,249628,1,2,0:0:0:0:
96,128,249714,1,0,0:0:0:0:
96,128,249801,1,0,0:0:0:0:
96,128,249887,1,2,0:0:0:0:
96,128,249973,1,0,0:0:0:0:
96,128,250059,1,2,0:0:0:0:
96,128,250145,1,2,0:0:0:0:
96,128,250232,1,0,0:0:0:0:
96,128,250318,1,0,0:0:0:0:
96,128,250404,1,2,0:0:0:0:
96,128,250490,1,0,0:0:0:0:
96,128,250576,1,2,0:0:0:0:
96,128,250663,1,2,0:0:0:0:
96,128,250749,1,2,0:0:0:0:
96,128,250835,1,0,0:0:0:0:
96,128,250921,1,0,0:0:0:0:
96,128,251007,1,0,0:0:0:0:
96,128,251094,1,2,0:0:0:0:
96,128,251180,1,0,0:0:0:0:
96,128,251266,1,0,0:0:0:0:
128,160,251352,1,0,0:0:0:0:
128,160,251438,1,2,0:0:0:0:
128,160,251525,1,0,0:0:0:0:
128,160,251611,1,2,0:0:0:0:
128,160,251697,1,2,0:0:0:0:
128,128,251783,1,0,0:0:0:0:
128,128,251869,1,2,0:0:0:0:
128,128,251956,1,0,0:0:0:0:
128,128,252042,1,0,0:0:0:0:
128,128,252128,1,2,0:0:0:0:
128,128,252214,1,0,0:0:0:0:
128,128,252301,1,0,0:0:0:0:
128,128,252387,1,2,0:0:0:0:
128,128,252473,1,0,0:0:0:0:
128,128,252559,1,0,0:0:0:0:
128,128,252645,1,2,0:0:0:0:
128,128,252732,1,0,0:0:0:0:
128,128,252818,1,2,0:0:0:0:
128,128,252904,1,2,0:0:0:0:
128,128,252990,1,0,0:0:0:0:
128,128,253076,1,0,0:0:0:0:
128,128,253163,1,2,0:0:0:0:
128,128,253249,1,2,0:0:0:0:
320,320,253335,1,2,0:0:0:0:
320,320,253421,1,0,0:0:0:0:
320,256,253507,1,0,0:0:0:0:
320,256,253593,1,0,0:0:0:0:
320,256,253679,1,2,0:0:0:0:
320,256,253766,1,2,0:0:0:0:
320,256,253852,1,0,0:0:0:0:
320,256,253938,1,0,0:0:0:0:
320,256,254024,1,2,0:0:0:0:
320,256,254110,1,2,0:0:0:0:
320,256,254197,1,0,0:0:0:0:
320,256,254283,1,0,0:0:0:0:
320,256,254369,1,2,0:0:0:0:
320,256,254455,1,0,0:0:0:0:
320,256,254541,1,2,0:0:0:0:
320,256,254628,1,2,0:0:0:0:
320,256,254714,1,0,0:0:0:0:
320,256,254800,1,0,0:0:0:0:
320,256,254886,1,2,0:0:0:0:
320,256,254972,1,0,0:0:0:0:
320,256,255059,1,2,0:0:0:0:
320,256,255145,1,0,0:0:0:0:
320,256,255231,1,0,0:0:0:0:
320,256,255317,1,0,0:0:0:0:
320,256,255403,1,2,0:0:0:0:
320,256,255490,1,0,0:0:0:0:
320,256,255576,1,2,0:0:0:0:
320,256,255662,1,0,0:0:0:0:
128,128,255748,1,2,0:0:0:0:
128,128,255835,1,0,0:0:0:0:
128,128,255921,1,0,0:0:0:0:
128,128,256007,1,0,0:0:0:0:
128,128,256093,1,2,0:0:0:0:
128,128,256179,1,2,0:0:0:0:
128,128,256266,1,0,0:0:0:0:
128,128,256352,1,0,0:0:0:0:
128,128,256438,1,2,0:0:0:0:
128,128,256524,1,0,0:0:0:0:
128,128,256610,1,2,0:0:0:0:
128,128,256697,1,2,0:0:0:0:
128,128,256783,1,0,0:0:0:0:
128,128,256869,1,0,0:0:0:0:
128,128,256955,1,2,0:0:0:0:
128,128,257041,1,0,0:0:0:0:
128,128,257128,1,2,0:0:0:0:
128,128,257214,1,2,0:0:0:0:
128,128,257300,1,0,0:0:0:0:
128,128,257386,1,2,0:0:0:0:
128,128,257472,1,0,0:0:0:0:
128,128,257559,1,0,0:0:0:0:
128,128,257645,1,2,0:0:0:0:
128,128,257731,1,0,0:0:0:0:
128,128,257817,1,0,0:0:0:0:
128,128,257903,1,0,0:0:0:0:
128,128,257990,1,2,0:0:0:0:
128,128,258076,1,0,0:0:0:0:
128,128,258162,1,2,0:0:0:0:
128,128,258248,1,2,0:0:0:0:
128,128,258335,1,0,0:0:0:0:
128,128,258421,1,0,0:0:0:0:
128,128,258507,1,2,0:0:0:0:
128,128,258593,1,0,0:0:0:0:
128,128,258679,1,2,0:0:0:0:
128,128,258766,1,2,0:0:0:0:
128,128,258852,1,0,0:0:0:0:
128,128,258938,1,0,0:0:0:0:
128,128,259024,1,2,0:0:0:0:
128,128,259110,1,0,0:0:0:0:
128,128,259197,1,2,0:0:0:0:
128,128,259283,1,0,0:0:0:0:
128,128,259369,1,0,0:0:0:0:
128,128,259455,1,2,0:0:0:0:
128,128,259541,1,0,0:0:0:0:
128,128,259628,1,0,0:0:0:0:
128,128,259714,1,0,0:0:0:0:
128,128,259800,1,2,0:0:0:0:
128,128,259886,1,0,0:0:0:0:
128,128,259972,1,2,0:0:0:0:
128,128,260059,1,0,0:0:0:0:
128,128,260145,1,2,0:0:0:0:
128,128,260231,1,2,0:0:0:0:
128,128,260317,1,2,0:0:0:0:
128,128,260403,1,0,0:0:0:0:
128,128,260490,1,2,0:0:0:0:
96,128,260576,1,2,0:0:0:0:
96,128,260662,1,2,0:0:0:0:
96,128,260748,1,0,0:0:0:0:
96,128,260835,1,0,0:0:0:0:
96,128,260921,1,2,0:0:0:0:
96,128,261007,1,0,0:0:0:0:
96,128,261093,1,2,0:0:0:0:
96,128,261179,1,2,0:0:0:0:
96,128,261266,1,0,0:0:0:0:
96,128,261352,1,0,0:0:0:0:
96,128,261438,1,2,0:0:0:0:
96,128,261524,1,0,0:0:0:0:
96,128,261610,1,2,0:0:0:0:
96,128,261697,1,2,0:0:0:0:
96,128,261783,1,2,0:0:0:0:
96,128,261869,1,0,0:0:0:0:
96,128,261955,1,0,0:0:0:0:
96,128,262041,1,0,0:0:0:0:
96,128,262128,1,2,0:0:0:0:
96,128,262214,1,0,0:0:0:0:
96,128,262300,1,0,0:0:0:0:
128,160,262386,1,0,0:0:0:0:
128,160,262472,1,2,0:0:0:0:
128,160,262559,1,0,0:0:0:0:
128,160,262645,1,2,0:0:0:0:
128,160,262731,1,2,0:0:0:0:
128,128,262817,1,0,0:0:0:0:
128,128,262903,1,2,0:0:0:0:
128,128,262990,1,0,0:0:0:0:
128,128,263076,1,0,0:0:0:0:
128,128,263162,1,2,0:0:0:0:
128,128,263248,1,0,0:0:0:0:
128,128,263335,1,0,0:0:0:0:
128,128,263421,1,2,0:0:0:0:
128,128,263507,1,0,0:0:0:0:
128,128,263593,1,0,0:0:0:0:
128,128,263679,1,2,0:0:0:0:
128,128,263766,1,0,0:0:0:0:
128,128,263852,1,2,0:0:0:0:
128,128,263938,1,2,0:0:0:0:
128,128,264024,1,0,0:0:0:0:
128,128,264110,1,0,0:0:0:0:
128,128,264197,1,2,0:0:0:0:
128,128,264283,1,2,0:0:0:0:
256,224,264369,1,0,0:0:0:0:
320,256,265059,1,2,0:0:0:0:
384,288,265404,1,0,0:0:0:0:
384,288,265749,1,2,0:0:0:0:
352,288,266094,1,0,0:0:0:0:
352,288,266266,1,0,0:0:0:0:
352,288,266438,1,2,0:0:0:0:
352,288,266783,1,0,0:0:0:0:
352,288,267128,1,2,0:0:0:0:
320,288,267473,1,2,0:0:0:0:
320,288,267645,1,0,0:0:0:0:
320,288,267818,1,2,0:0:0:0:
320,288,267990,1,0,0:0:0:0:
320,288,268335,1,0,0:0:0:0:
320,288,268507,1,2,0:0:0:0:
320,256,268680,1,0,0:0:0:0:
320,256,268852,1,2,0:0:0:0:
320,256,269197,1,2,0:0:0:0:
320,256,269369,1,0,0:0:0:0:
320,256,269714,1,0,0:0:0:0:
320,256,269801,1,0,0:0:0:0:
320,256,269887,1,2,0:0:0:0:
320,256,270232,1,0,0:0:0:0:
320,256,270576,1,2,0:0:0:0:
320,256,270921,1,2,0:0:0:0:
192,160,271266,1,0,0:0:0:0:
256,192,271611,1,2,0:0:0:0:
256,192,271783,1,0,0:0:0:0:
256,192,271956,1,2,0:0:0:0:
256,192,272128,1,2,0:0:0:0:
256,192,272301,1,0,0:0:0:0:
256,192,272387,1,0,0:0:0:0:
256,192,272473,1,2,0:0:0:0:
256,192,272559,1,2,0:0:0:0:
256,192,272645,1,0,0:0:0:0:
352,288,272818,1,0,0:0:0:0:
352,320,272990,1,2,0:0:0:0:
352,320,273076,1,2,0:0:0:0:
352,320,273163,1,0,0:0:0:0:
352,320,273249,1,0,0:0:0:0:
352,320,273335,1,2,0:0:0:0:
352,320,273507,1,2,0:0:0:0:
352,320,273594,1,2,0:0:0:0:
352,320,273680,1,0,0:0:0:0:
352,320,273766,1,2,0:0:0:0:
352,320,273938,1,2,0:0:0:0:
96,160,274025,1,0,0:0:0:0:
128,192,274197,1,2,0:0:0:0:
128,192,274369,1,0,0:0:0:0:
128,192,274456,1,0,0:0:0:0:
128,192,274542,1,2,0:0:0:0:
128,192,274628,1,2,0:0:0:0:
128,192,274714,1,0,0:0:0:0:
384,320,275404,1,4,0:0:0:0:
320,288,275576,1,2,0:0:0:0:
256,288,275749,1,0,0:0:0:0:
256,288,275835,1,0,0:0:0:0:
256,288,275921,1,2,0:0:0:0:
256,288,276094,1,0,0:0:0:0:
256,288,276266,1,2,0:0:0:0:
256,288,276352,1,0,0:0:0:0:
256,288,276438,1,0,0:0:0:0:
256,288,276525,1,0,0:0:0:0:
256,288,276611,1,2,0:0:0:0:
256,288,276783,1,0,0:0:0:0:
256,288,276956,1,2,0:0:0:0:
256,288,277128,1,0,0:0:0:0:
256,288,277214,1,0,0:0:0:0:
256,288,277301,1,2,0:0:0:0:
256,288,277473,1,0,0:0:0:0:
256,288,277645,1,2,0:0:0:0:
256,288,277732,1,0,0:0:0:0:
128,160,277818,1,0,0:0:0:0:
128,160,277904,1,0,0:0:0:0:
128,160,277990,1,2,0:0:0:0:
128,160,278163,1,0,0:0:0:0:
160,160,278335,1,2,0:0:0:0:
160,160,278507,1,0,0:0:0:0:
160,160,278594,1,0,0:0:0:0:
160,160,278680,1,2,0:0:0:0:
160,160,278766,1,0,0:0:0:0:
160,160,278852,1,2,0:0:0:0:
160,160,279025,1,2,0:0:0:0:
160,160,279111,1,2,0:0:0:0:
160,160,279197,1,0,0:0:0:0:
160,160,279283,1,0,0:0:0:0:
160,160,279369,1,2,0:0:0:0:
160,160,279542,1,0,0:0:0:0:
160,160,279714,1,2,0:0:0:0:
160,160,279887,1,0,0:0:0:0:
160,160,279973,1,0,0:0:0:0:
160,160,280059,1,2,0:0:0:0:
160,160,280145,1,2,0:0:0:0:
160,160,280232,1,0,0:0:0:0:
160,160,280404,1,2,0:0:0:0:
160,160,280490,1,0,0:0:0:0:
160,160,280663,1,0,0:0:0:0:
160,160,280749,1,2,0:0:0:0:
160,160,280921,1,0,0:0:0:0:
160,160,281094,1,2,0:0:0:0:
160,160,281180,1,0,0:0:0:0:
160,160,281352,1,0,0:0:0:0:
160,160,281438,1,2,0:0:0:0:
160,160,281611,1,0,0:0:0:0:
160,160,281783,1,2,0:0:0:0:
160,160,281869,1,0,0:0:0:0:
160,160,281956,1,0,0:0:0:0:
160,160,282042,1,0,0:0:0:0:
160,160,282128,1,2,0:0:0:0:
160,160,282301,1,0,0:0:0:0:
160,160,282473,1,2,0:0:0:0:
160,160,282645,1,0,0:0:0:0:
160,160,282732,1,0,0:0:0:0:
160,160,282818,1,2,0:0:0:0:
160,160,282990,1,0,0:0:0:0:
160,160,283163,1,2,0:0:0:0:
96,160,283249,1,0,0:0:0:0:
96,160,283421,1,0,0:0:0:0:
96,160,283507,1,2,0:0:0:0:
96,160,283680,1,0,0:0:0:0:
96,160,283852,1,2,0:0:0:0:
96,160,284025,1,0,0:0:0:0:
96,160,284111,1,0,0:0:0:0:
96,160,284197,1,2,0:0:0:0:
96,160,284369,1,0,0:0:0:0:
96,160,284542,1,2,0:0:0:0:
96,160,284628,1,0,0:0:0:0:
96,160,284714,1,0,0:0:0:0:
96,160,284801,1,0,0:0:0:0:
96,160,284887,1,2,0:0:0:0:
96,192,285059,1,0,0:0:0:0:
96,192,285232,1,2,0:0:0:0:
96,192,285404,1,0,0:0:0:0:
96,192,285490,1,0,0:0:0:0:
96,192,285576,1,2,0:0:0:0:
96,192,285749,1,0,0:0:0:0:
96,192,285921,1,2,0:0:0:0:
96,192,286007,1,2,0:0:0:0:
96,192,286094,1,2,0:0:0:0:
96,192,286180,1,0,0:0:0:0:
96,192,286266,1,0,0:0:0:0:
96,192,286352,1,0,0:0:0:0:
384,320,286438,1,2,0:0:0:0:
128,128,286611,1,2,0:0:0:0:
128,160,286783,1,0,0:0:0:0:
96,128,286869,1,0,0:0:0:0:
96,128,286956,1,2,0:0:0:0:
96,128,287128,1,0,0:0:0:0:
96,128,287301,1,2,0:0:0:0:
96,128,287387,1,0,0:0:0:0:
96,128,287559,1,0,0:0:0:0:
96,128,287645,1,2,0:0:0:0:
96,128,287818,1,0,0:0:0:0:
96,128,287990,1,2,0:0:0:0:
96,128,288163,1,0,0:0:0:0:
96,128,288249,1,0,0:0:0:0:
96,128,288335,1,2,0:0:0:0:
96,128,288421,1,0,0:0:0:0:
96,128,288507,1,0,0:0:0:0:
96,128,288594,1,0,0:0:0:0:
96,128,288680,1,2,0:0:0:0:
96,128,288852,1,0,0:0:0:0:
96,160,289025,1,2,0:0:0:0:
96,128,289197,1,0,0:0:0:0:
96,128,289369,1,2,0:0:0:0:
96,128,289456,1,0,0:0:0:0:
96,128,289542,1,0,0:0:0:0:
96,128,289628,1,0,0:0:0:0:
96,128,289714,1,2,0:0:0:0:
96,128,289887,1,0,0:0:0:0:
96,128,290059,1,2,0:0:0:0:
96,128,290145,1,0,0:0:0:0:
96,128,290318,1,0,0:0:0:0:
96,128,290404,1,2,0:0:0:0:
96,128,290576,1,0,0:0:0:0:
96,128,290749,1,2,0:0:0:0:
96,128,290921,1,0,0:0:0:0:
96,128,291007,1,0,0:0:0:0:
96,128,291094,1,2,0:0:0:0:
96,128,291266,1,0,0:0:0:0:
96,128,291438,1,2,0:0:0:0:
96,128,291525,1,0,0:0:0:0:
96,128,291697,1,0,0:0:0:0:
96,128,291783,1,2,0:0:0:0:
96,128,291956,1,0,0:0:0:0:
96,128,292128,1,2,0:0:0:0:
96,128,292301,1,0,0:0:0:0:
96,128,292387,1,0,0:0:0:0:
96,128,292473,1,2,0:0:0:0:
96,128,292645,1,0,0:0:0:0:
96,128,292818,1,2,0:0:0:0:
96,128,292904,1,0,0:0:0:0:
96,128,292990,1,0,0:0:0:0:
96,128,293076,1,0,0:0:0:0:
96,128,293163,1,2,0:0:0:0:
96,128,293335,1,0,0:0:0:0:
96,128,293507,1,2,0:0:0:0:
96,128,293680,1,0,0:0:0:0:
96,128,293766,1,0,0:0:0:0:
96,128,293852,1,2,0:0:0:0:
96,128,294025,1,0,0:0:0:0:
96,128,294197,1,2,0:0:0:0:
96,128,294283,1,0,0:0:0:0:
96,160,294369,1,0,0:0:0:0:
96,160,294456,1,0,0:0:0:0:
96,160,294542,1,2,0:0:0:0:
96,160,294714,1,0,0:0:0:0:
96,160,294887,1,2,0:0:0:0:
96,160,295059,1,0,0:0:0:0:
96,160,295145,1,0,0:0:0:0:
96,160,295232,1,2,0:0:0:0:
96,160,295404,1,0,0:0:0:0:
96,160,295576,1,2,0:0:0:0:
96,160,295663,1,0,0:0:0:0:
96,160,295835,1,0,0:0:0:0:
96,160,295921,1,2,0:0:0:0:
64,192,296094,1,0,0:0:0:0:
256,160,296266,1,2,0:0:0:0:
224,160,296352,1,0,0:0:0:0:
224,160,296438,1,0,0:0:0:0:
224,160,296525,1,2,0:0:0:0:
224,160,296611,1,0,0:0:0:0:
224,160,296697,1,0,0:0:0:0:
224,160,296783,1,2,0:0:0:0:
224,160,296869,1,0,0:0:0:0:
224,160,296956,1,2,0:0:0:0:
224,160,297042,1,0,0:0:0:0:
224,160,297128,1,2,0:0:0:0:
224,160,297214,1,2,0:0:0:0:
224,160,297301,1,0,0:0:0:0:
224,160,297473,1,2,0:0:0:0:
192,224,297559,1,0,0:0:0:0:
192,224,297645,1,2,0:0:0:0:
192,160,297732,1,0,0:0:0:0:
192,160,297818,1,0,0:0:0:0:
192,160,297904,1,0,0:0:0:0:
192,160,297990,1,2,0:0:0:0:
192,160,298076,1,0,0:0:0:0:
192,160,298163,1,0,0:0:0:0:
192,160,298249,1,0,0:0:0:0:
192,160,298335,1,2,0:0:0:0:
192,160,298421,1,2,0:0:0:0:
192,160,298507,1,0,0:0:0:0:
160,160,298594,1,2,0:0:0:0:
160,160,298680,1,0,0:0:0:0:
96,160,298766,1,0,0:0:0:0:
128,160,298852,1,0,0:0:0:0:
128,160,298938,1,0,0:0:0:0:
128,160,299025,1,2,0:0:0:0:
128,160,299111,1,0,0:0:0:0:
128,160,299197,1,0,0:0:0:0:
128,160,299283,1,0,0:0:0:0:
128,160,299369,1,2,0:0:0:0:
128,160,299456,1,0,0:0:0:0:
128,160,299542,1,0,0:0:0:0:
128,160,299628,1,0,0:0:0:0:
128,160,299714,1,2,0:0:0:0:
128,160,299801,1,2,0:0:0:0:
128,160,299887,1,0,0:0:0:0:
128,160,299973,1,0,0:0:0:0:
128,160,300059,1,2,0:0:0:0:
128,160,300145,1,0,0:0:0:0:
128,160,300232,1,2,0:0:0:0:
128,160,300318,1,2,0:0:0:0:
128,160,300404,1,0,0:0:0:0:
128,160,300490,1,0,0:0:0:0:
128,160,300576,1,2,0:0:0:0:
128,160,300663,1,2,0:0:0:0:
128,160,300749,1,0,0:0:0:0:
128,160,300835,1,0,0:0:0:0:
128,160,300921,1,0,0:0:0:0:
128,160,301007,1,0,0:0:0:0:
128,160,301094,1,2,0:0:0:0:
128,160,301180,1,0,0:0:0:0:
128,160,301266,1,2,0:0:0:0:
128,160,301352,1,0,0:0:0:0:
192,160,301438,1,2,0:0:0:0:
192,160,301525,1,2,0:0:0:0:
192,160,301611,1,0,0:0:0:0:
192,160,301697,1,0,0:0:0:0:
192,160,301783,1,2,0:0:0:0:
192,160,301869,1,0,0:0:0:0:
192,160,301956,1,2,0:0:0:0:
192,160,302042,1,2,0:0:0:0:
192,160,302128,1,0,0:0:0:0:
192,160,302214,1,0,0:0:0:0:
192,160,302301,1,0,0:0:0:0:
192,160,302387,1,0,0:0:0:0:
192,160,302473,1,2,0:0:0:0:
192,160,302559,1,2,0:0:0:0:
128,128,302645,1,2,0:0:0:0:
128,128,302732,1,0,0:0:0:0:
128,128,302818,1,2,0:0:0:0:
160,160,302904,1,0,0:0:0:0:
160,160,302990,1,2,0:0:0:0:
160,160,303076,1,2,0:0:0:0:
160,160,303163,1,2,0:0:0:0:
288,288,303249,1,0,0:0:0:0:
288,288,303335,1,0,0:0:0:0:
288,288,303421,1,0,0:0:0:0:
288,288,303507,1,2,0:0:0:0:
288,288,303594,1,2,0:0:0:0:
288,288,303680,1,0,0:0:0:0:
288,288,303766,1,0,0:0:0:0:
288,288,303852,1,2,0:0:0:0:
288,288,303938,1,0,0:0:0:0:
288,288,304025,1,2,0:0:0:0:
288,288,304111,1,2,0:0:0:0:
288,288,304197,1,0,0:0:0:0:
288,288,304283,1,0,0:0:0:0:
288,288,304369,1,2,0:0:0:0:
288,288,304456,1,0,0:0:0:0:
288,288,304542,1,0,0:0:0:0:
288,288,304628,1,0,0:0:0:0:
288,288,304714,1,2,0:0:0:0:
288,288,304801,1,2,0:0:0:0:
288,288,304887,1,0,0:0:0:0:
288,288,304973,1,0,0:0:0:0:
288,288,305059,1,2,0:0:0:0:
288,288,305145,1,0,0:0:0:0:
288,288,305232,1,2,0:0:0:0:
288,288,305318,1,2,0:0:0:0:
288,288,305404,1,0,0:0:0:0:
288,288,305490,1,0,0:0:0:0:
288,288,305576,1,2,0:0:0:0:
288,288,305663,1,0,0:0:0:0:
288,288,305749,1,0,0:0:0:0:
288,288,305835,1,0,0:0:0:0:
288,288,305921,1,2,0:0:0:0:
288,288,306007,1,0,0:0:0:0:
288,288,306094,1,0,0:0:0:0:
288,288,306180,1,0,0:0:0:0:
288,288,306266,1,2,0:0:0:0:
288,288,306352,1,2,0:0:0:0:
288,288,306438,1,0,0:0:0:0:
288,288,306525,1,0,0:0:0:0:
288,288,306611,1,2,0:0:0:0:
288,288,306697,1,0,0:0:0:0:
288,288,306783,1,2,0:0:0:0:
288,288,306869,1,2,0:0:0:0:
288,288,306956,1,0,0:0:0:0:
288,288,307042,1,0,0:0:0:0:
288,288,307128,1,2,0:0:0:0:
288,288,307214,1,0,0:0:0:0:
288,288,307301,1,2,0:0:0:0:
288,288,307387,1,2,0:0:0:0:
288,288,307473,1,0,0:0:0:0:
288,288,307559,1,0,0:0:0:0:
288,288,307645,1,0,0:0:0:0:
288,288,307732,1,0,0:0:0:0:
288,288,307818,1,2,0:0:0:0:
288,288,307904,1,2,0:0:0:0:
288,288,307990,1,0,0:0:0:0:
224,160,308048,1,0,0:0:0:0:
224,128,308105,1,0,0:0:0:0:
224,160,308163,1,2,0:0:0:0:
288,96,308249,1,0,0:0:0:0:
288,128,308335,1,2,0:0:0:0:
288,128,308392,1,2,0:0:0:0:
288,128,308450,1,2,0:0:0:0:
288,128,308507,1,0,0:0:0:0:
288,224,308594,1,0,0:0:0:0:
288,224,308680,1,0,0:0:0:0:
192,192,308766,1,0,0:0:0:0:
192,192,308852,1,2,0:0:0:0:
192,160,308938,1,0,0:0:0:0:
192,160,309025,1,0,0:0:0:0:
192,160,309111,1,0,0:0:0:0:
192,160,309197,1,0,0:0:0:0:
96,160,309283,1,0,0:0:0:0:
96,160,309369,1,0,0:0:0:0:
96,160,309456,1,0,0:0:0:0:
96,160,309542,1,2,0:0:0:0:
96,160,309628,1,0,0:0:0:0:
96,160,309714,1,0,0:0:0:0:
96,160,309801,1,0,0:0:0:0:
96,160,309887,1,0,0:0:0:0:
96,160,309973,1,0,0:0:0:0:
96,160,310059,1,0,0:0:0:0:
96,160,310145,1,0,0:0:0:0:
96,160,310232,1,2,0:0:0:0:
96,160,310318,1,2,0:0:0:0:
96,160,310404,1,0,0:0:0:0:
96,160,310490,1,0,0:0:0:0:
96,160,310576,1,0,0:0:0:0:
96,160,310663,1,0,0:0:0:0:
96,160,310749,1,0,0:0:0:0:
96,160,310835,1,0,0:0:0:0:
96,160,310921,1,2,0:0:0:0:
96,160,311007,1,2,0:0:0:0:
96,160,311094,1,0,0:0:0:0:
96,160,311180,1,2,0:0:0:0:
96,160,311266,1,0,0:0:0:0:
96,160,311352,1,0,0:0:0:0:
96,160,311438,1,0,0:0:0:0:
96,160,311525,1,0,0:0:0:0:
96,160,311611,1,2,0:0:0:0:
384,320,311697,1,2,0:0:0:0:
384,320,311783,1,0,0:0:0:0:
384,320,311869,1,0,0:0:0:0:
384,320,311956,1,2,0:0:0:0:
384,320,312042,1,0,0:0:0:0:
384,320,312128,1,0,0:0:0:0:
384,320,312214,1,0,0:0:0:0:
384,320,312301,1,2,0:0:0:0:
384,320,312387,1,0,0:0:0:0:
384,320,312473,1,0,0:0:0:0:
384,320,312559,1,0,0:0:0:0:
384,320,312645,1,0,0:0:0:0:
384,320,312732,1,0,0:0:0:0:
384,320,312818,1,0,0:0:0:0:
384,320,312904,1,0,0:0:0:0:
384,320,312990,1,2,0:0:0:0:
384,320,313076,1,2,0:0:0:0:
384,320,313163,1,0,0:0:0:0:
384,320,313249,1,0,0:0:0:0:
384,320,313335,1,2,0:0:0:0:
384,320,313421,1,0,0:0:0:0:
384,320,313507,1,0,0:0:0:0:
384,320,313594,1,0,0:0:0:0:
384,320,313680,1,2,0:0:0:0:
384,320,313766,1,0,0:0:0:0:
384,320,313852,1,0,0:0:0:0:
384,320,313938,1,0,0:0:0:0:
384,320,314025,1,0,0:0:0:0:
384,320,314111,1,0,0:0:0:0:
384,320,314197,1,0,0:0:0:0:
384,320,314283,1,0,0:0:0:0:
384,320,314369,1,2,0:0:0:0:
384,320,314456,1,0,0:0:0:0:
384,320,314542,1,2,0:0:0:0:
384,320,314628,1,2,0:0:0:0:
384,320,314714,1,0,0:0:0:0:
384,320,314801,1,0,0:0:0:0:
384,320,314887,1,0,0:0:0:0:
384,320,314973,1,0,0:0:0:0:
384,320,315059,1,2,0:0:0:0:
384,320,315145,1,0,0:0:0:0:
384,320,315232,1,0,0:0:0:0:
384,320,315318,1,0,0:0:0:0:
384,320,315404,1,0,0:0:0:0:
384,320,315490,1,0,0:0:0:0:
384,320,315576,1,0,0:0:0:0:
128,192,315663,1,0,0:0:0:0:
160,192,315749,1,2,0:0:0:0:
160,192,315835,1,2,0:0:0:0:
160,192,315921,1,0,0:0:0:0:
160,192,316007,1,0,0:0:0:0:
160,192,316094,1,2,0:0:0:0:
160,192,316180,1,0,0:0:0:0:
160,192,316266,1,0,0:0:0:0:
160,192,316352,1,0,0:0:0:0:
160,192,316438,1,2,0:0:0:0:
160,192,316525,1,0,0:0:0:0:
160,192,316611,1,0,0:0:0:0:
160,192,316697,1,0,0:0:0:0:
160,192,316783,1,0,0:0:0:0:
160,192,316869,1,0,0:0:0:0:
160,192,316956,1,0,0:0:0:0:
224,192,317042,1,0,0:0:0:0:
224,160,317128,1,2,0:0:0:0:
224,192,317214,1,2,0:0:0:0:
224,160,317301,1,0,0:0:0:0:
224,192,317387,1,2,0:0:0:0:
224,160,317473,1,0,0:0:0:0:
224,160,317559,1,0,0:0:0:0:
224,160,317645,1,0,0:0:0:0:
224,160,317732,1,0,0:0:0:0:
224,160,317818,1,2,0:0:0:0:
224,160,317904,1,0,0:0:0:0:
224,160,317990,1,0,0:0:0:0:
224,160,318076,1,0,0:0:0:0:
224,160,318163,1,2,0:0:0:0:
224,160,318249,1,0,0:0:0:0:
224,160,318335,1,0,0:0:0:0:
224,160,318421,1,0,0:0:0:0:
224,160,318507,1,2,0:0:0:0:
224,160,318594,1,0,0:0:0:0:
224,160,318680,1,0,0:0:0:0:
224,160,318766,1,0,0:0:0:0:
224,160,318852,1,2,0:0:0:0:
224,160,318938,1,2,0:0:0:0:
224,160,319025,1,0,0:0:0:0:
224,160,319111,1,0,0:0:0:0:
224,160,319197,1,2,0:0:0:0:
224,160,319283,1,2,0:0:0:0:
224,160,319369,1,0,0:0:0:0:
224,160,319456,1,0,0:0:0:0:
224,160,319542,1,2,0:0:0:0:
224,160,319628,1,0,0:0:0:0:
224,160,319714,1,2,0:0:0:0:
224,160,319801,1,2,0:0:0:0:
224,160,319887,1,2,0:0:0:0:
224,160,319973,1,0,0:0:0:0:
224,160,320059,1,2,0:0:0:0:
224,160,320145,1,0,0:0:0:0:
224,160,320232,1,0,0:0:0:0:
224,160,320318,1,0,0:0:0:0:
224,160,320404,1,2,0:0:0:0:
224,160,320490,1,0,0:0:0:0:
224,160,320576,1,0,0:0:0:0:
224,160,320663,1,0,0:0:0:0:
224,160,320749,1,2,0:0:0:0:
224,160,320835,1,0,0:0:0:0:
224,160,320921,1,2,0:0:0:0:
224,160,321007,1,2,0:0:0:0:
224,160,321094,1,0,0:0:0:0:
224,160,321180,1,2,0:0:0:0:
224,160,321266,1,2,0:0:0:0:
224,160,321352,1,2,0:0:0:0:
224,160,321438,1,0,0:0:0:0:
224,160,321525,1,0,0:0:0:0:
224,160,321611,1,2,0:0:0:0:
224,160,321697,1,2,0:0:0:0:
224,160,321783,1,0,0:0:0:0:
224,160,321869,1,2,0:0:0:0:
224,160,321956,1,2,0:0:0:0:
224,160,322042,1,2,0:0:0:0:
224,160,322128,1,0,0:0:0:0:
128,128,322214,1,0,0:0:0:0:
128,128,322301,1,2,0:0:0:0:
128,128,322387,1,0,0:0:0:0:
128,128,322473,1,2,0:0:0:0:
128,128,322559,1,2,0:0:0:0:
128,128,322645,1,0,0:0:0:0:
128,128,322732,1,0,0:0:0:0:
128,128,322818,1,2,0:0:0:0:
128,128,322904,1,0,0:0:0:0:
128,128,322990,1,0,0:0:0:0:
128,128,323076,1,0,0:0:0:0:
128,128,323163,1,2,0:0:0:0:
128,128,323249,1,0,0:0:0:0:
128,128,323335,1,2,0:0:0:0:
128,128,323421,1,2,0:0:0:0:
128,128,323507,1,0,0:0:0:0:
128,128,323594,1,0,0:0:0:0:
128,128,323680,1,0,0:0:0:0:
128,128,323766,1,0,0:0:0:0:
128,128,323852,1,2,0:0:0:0:
128,128,323938,1,0,0:0:0:0:
128,128,324025,1,2,0:0:0:0:
128,128,324111,1,2,0:0:0:0:
128,128,324197,1,0,0:0:0:0:
128,128,324283,1,0,0:0:0:0:
128,128,324369,1,2,0:0:0:0:
128,128,324456,1,0,0:0:0:0:
128,128,324542,1,2,0:0:0:0:
128,128,324628,1,2,0:0:0:0:
128,128,324714,1,0,0:0:0:0:
128,128,324801,1,0,0:0:0:0:
128,128,324887,1,2,0:0:0:0:
128,128,324973,1,2,0:0:0:0:
128,128,325059,1,0,0:0:0:0:
128,128,325145,1,0,0:0:0:0:
128,128,325232,1,2,0:0:0:0:
128,128,325318,1,0,0:0:0:0:
128,128,325404,1,2,0:0:0:0:
128,128,325490,1,2,0:0:0:0:
128,128,325576,1,0,0:0:0:0:
128,128,325663,1,0,0:0:0:0:
128,128,325749,1,2,0:0:0:0:
128,128,325835,1,2,0:0:0:0:
128,128,325921,1,0,0:0:0:0:
128,128,326007,1,2,0:0:0:0:
128,128,326094,1,2,0:0:0:0:
128,128,326180,1,2,0:0:0:0:
128,128,326266,1,0,0:0:0:0:
128,128,326352,1,0,0:0:0:0:
128,128,326438,1,2,0:0:0:0:
128,128,326525,1,0,0:0:0:0:
128,128,326611,1,2,0:0:0:0:
128,128,326697,1,0,0:0:0:0:
128,128,326783,1,0,0:0:0:0:
128,128,326869,1,0,0:0:0:0:
128,128,326956,1,2,0:0:0:0:
128,128,327042,1,0,0:0:0:0:
128,128,327128,1,0,0:0:0:0:
128,128,327214,1,0,0:0:0:0:
128,128,327301,1,2,0:0:0:0:
128,128,327387,1,2,0:0:0:0:
128,128,327473,1,0,0:0:0:0:
128,96,327559,1,2,0:0:0:0:
128,96,327645,1,0,0:0:0:0:
128,96,327732,1,0,0:0:0:0:
128,96,327818,1,2,0:0:0:0:
128,96,327904,1,0,0:0:0:0:
128,96,327990,1,2,0:0:0:0:
128,96,328076,1,2,0:0:0:0:
128,128,328163,1,0,0:0:0:0:
128,96,328249,1,0,0:0:0:0:
128,96,328335,1,2,0:0:0:0:
128,96,328421,1,2,0:0:0:0:
352,224,328507,1,2,0:0:0:0:
352,224,328594,1,2,0:0:0:0:
352,224,328680,1,0,0:0:0:0:
352,224,328766,1,2,0:0:0:0:
352,224,328852,1,2,0:0:0:0:
352,224,328938,1,2,0:0:0:0:
352,224,329025,1,0,0:0:0:0:
352,224,329111,1,0,0:0:0:0:
352,224,329197,1,2,0:0:0:0:
352,224,329283,1,0,0:0:0:0:
352,224,329369,1,2,0:0:0:0:
352,224,329456,1,2,0:0:0:0:
352,224,329542,1,0,0:0:0:0:
352,224,329628,1,0,0:0:0:0:
352,224,329714,1,0,0:0:0:0:
352,224,329801,1,2,0:0:0:0:
352,224,329887,1,2,0:0:0:0:
352,224,329973,1,2,0:0:0:0:
352,224,330059,1,0,0:0:0:0:
352,224,330145,1,0,0:0:0:0:
352,224,330232,1,2,0:0:0:0:
352,224,330318,1,0,0:0:0:0:
352,224,330404,1,2,0:0:0:0:
352,224,330490,1,2,0:0:0:0:
352,224,330576,1,0,0:0:0:0:
192,160,330749,1,2,0:0:0:0:
192,192,330921,1,0,0:0:0:0:
192,192,331007,1,0,0:0:0:0:
192,192,331094,1,2,0:0:0:0:
192,192,331180,1,0,0:0:0:0:
192,192,331266,1,2,0:0:0:0:
192,192,331438,1,2,0:0:0:0:
192,192,331525,1,0,0:0:0:0:
192,192,331611,1,0,0:0:0:0:
192,192,331697,1,0,0:0:0:0:
192,192,331783,1,2,0:0:0:0:
192,192,331869,1,0,0:0:0:0:
192,192,331956,1,2,0:0:0:0:
128,160,332128,1,2,0:0:0:0:
128,160,332301,1,0,0:0:0:0:
224,160,332387,1,0,0:0:0:0:
224,160,332473,1,2,0:0:0:0:
224,128,332559,1,0,0:0:0:0:
224,128,332645,1,2,0:0:0:0:
224,128,332732,1,2,0:0:0:0:
224,128,332818,1,0,0:0:0:0:
224,128,332990,1,2,0:0:0:0:
224,128,333076,1,0,0:0:0:0:
224,128,333163,1,2,0:0:0:0:
224,128,333335,1,0,0:0:0:0:
160,128,333507,1,2,0:0:0:0:
192,128,333680,1,0,0:0:0:0:
192,128,333766,1,0,0:0:0:0:
192,128,333852,1,2,0:0:0:0:
192,128,333938,1,0,0:0:0:0:
192,128,334025,1,0,0:0:0:0:
192,128,334197,1,2,0:0:0:0:
96,128,334369,1,0,0:0:0:0:
128,128,334456,1,0,0:0:0:0:
128,128,334542,1,2,0:0:0:0:
128,128,334714,1,0,0:0:0:0:
128,128,334887,1,2,0:0:0:0:
96,128,335059,1,0,0:0:0:0:
96,128,335145,1,0,0:0:0:0:
96,128,335232,1,2,0:0:0:0:
160,128,335404,1,0,0:0:0:0:
96,128,335490,1,0,0:0:0:0:
96,128,335576,1,2,0:0:0:0:
64,160,335663,1,0,0:0:0:0:
96,160,335835,1,0,0:0:0:0:
96,160,335921,1,2,0:0:0:0:
96,160,336007,1,2,0:0:0:0:
96,160,336094,1,0,0:0:0:0:
224,224,336266,1,2,0:0:0:0:
224,224,336438,1,0,0:0:0:0:
224,224,336525,1,0,0:0:0:0:
224,224,336611,1,2,0:0:0:0:
224,224,336783,1,0,0:0:0:0:
224,224,336956,1,2,0:0:0:0:
224,224,337042,1,0,0:0:0:0:
224,224,337128,1,0,0:0:0:0:
224,224,337214,1,0,0:0:0:0:
224,224,337301,1,2,0:0:0:0:
224,224,337473,1,0,0:0:0:0:
224,224,337559,1,0,0:0:0:0:
224,224,337645,1,2,0:0:0:0:
224,224,337818,1,0,0:0:0:0:
224,224,337904,1,0,0:0:0:0:
224,224,337990,1,2,0:0:0:0:
224,224,338076,1,0,0:0:0:0:
224,224,338163,1,2,0:0:0:0:
224,224,338335,1,2,0:0:0:0:
224,224,338421,1,0,0:0:0:0:
224,224,338594,1,0,0:0:0:0:
224,224,338680,1,2,0:0:0:0:
192,160,338852,1,0,0:0:0:0:
192,160,339025,1,2,0:0:0:0:
192,160,339197,1,0,0:0:0:0:
192,160,339283,1,0,0:0:0:0:
192,160,339369,1,2,0:0:0:0:
192,160,339542,1,0,0:0:0:0:
192,160,339714,1,2,0:0:0:0:
192,160,339801,1,0,0:0:0:0:
192,160,339887,1,0,0:0:0:0:
192,160,339973,1,0,0:0:0:0:
192,160,340059,1,2,0:0:0:0:
192,160,340145,1,0,0:0:0:0:
192,160,340232,1,2,0:0:0:0:
128,160,340404,1,2,0:0:0:0:
128,160,340576,1,0,0:0:0:0:
128,160,340663,1,0,0:0:0:0:
128,160,340749,1,2,0:0:0:0:
128,160,340921,1,0,0:0:0:0:
128,160,341094,1,2,0:0:0:0:
128,160,341180,1,2,0:0:0:0:
128,160,341266,1,2,0:0:0:0:
128,160,341352,1,0,0:0:0:0:
128,160,341438,1,0,0:0:0:0:
128,160,341525,1,0,0:0:0:0:
352,224,341611,1,2,0:0:0:0:
192,160,341784,1,2,0:0:0:0:
192,192,341956,1,0,0:0:0:0:
192,192,342042,1,0,0:0:0:0:
192,192,342129,1,2,0:0:0:0:
192,192,342215,1,0,0:0:0:0:
192,192,342301,1,2,0:0:0:0:
192,192,342473,1,2,0:0:0:0:
192,192,342560,1,0,0:0:0:0:
192,192,342646,1,0,0:0:0:0:
192,192,342732,1,0,0:0:0:0:
192,192,342818,1,2,0:0:0:0:
192,192,342904,1,0,0:0:0:0:
192,192,342991,1,2,0:0:0:0:
128,160,343163,1,2,0:0:0:0:
128,160,343336,1,0,0:0:0:0:
224,160,343422,1,0,0:0:0:0:
224,160,343508,1,2,0:0:0:0:
224,128,343594,1,0,0:0:0:0:
224,128,343680,1,2,0:0:0:0:
224,128,343767,1,2,0:0:0:0:
224,128,343853,1,0,0:0:0:0:
224,128,344025,1,2,0:0:0:0:
224,128,344111,1,0,0:0:0:0:
224,128,344198,1,2,0:0:0:0:
224,128,344370,1,0,0:0:0:0:
160,128,344542,1,2,0:0:0:0:
192,128,344715,1,0,0:0:0:0:
192,128,344801,1,0,0:0:0:0:
192,128,344887,1,2,0:0:0:0:
192,128,344973,1,0,0:0:0:0:
192,128,345060,1,0,0:0:0:0:
192,128,345232,1,2,0:0:0:0:
96,128,345404,1,0,0:0:0:0:
128,128,345491,1,0,0:0:0:0:
128,128,345577,1,2,0:0:0:0:
128,128,345749,1,0,0:0:0:0:
128,128,345922,1,2,0:0:0:0:
96,128,346094,1,0,0:0:0:0:
96,128,346180,1,0,0:0:0:0:
96,128,346267,1,2,0:0:0:0:
160,128,346439,1,0,0:0:0:0:
96,128,346525,1,0,0:0:0:0:
96,128,346611,1,2,0:0:0:0:
64,160,346698,1,0,0:0:0:0:
96,160,346870,1,0,0:0:0:0:
96,160,346956,1,2,0:0:0:0:
96,160,347042,1,2,0:0:0:0:
96,160,347129,1,0,0:0:0:0:
224,224,347301,1,2,0:0:0:0:
224,224,347473,1,0,0:0:0:0:
224,224,347560,1,0,0:0:0:0:
224,224,347646,1,2,0:0:0:0:
224,224,347818,1,0,0:0:0:0:
224,224,347991,1,2,0:0:0:0:
224,224,348077,1,0,0:0:0:0:
224,224,348163,1,0,0:0:0:0:
224,224,348249,1,0,0:0:0:0:
224,224,348336,1,2,0:0:0:0:
224,224,348508,1,0,0:0:0:0:
224,224,348594,1,0,0:0:0:0:
224,224,348680,1,2,0:0:0:0:
224,224,348853,1,0,0:0:0:0:
224,224,348939,1,0,0:0:0:0:
224,224,349025,1,2,0:0:0:0:
224,224,349111,1,0,0:0:0:0:
224,224,349198,1,2,0:0:0:0:
224,224,349370,1,2,0:0:0:0:
224,224,349456,1,0,0:0:0:0:
224,224,349629,1,0,0:0:0:0:
224,224,349715,1,2,0:0:0:0:
192,160,349887,1,0,0:0:0:0:
192,160,350060,1,2,0:0:0:0:
192,160,350232,1,0,0:0:0:0:
192,160,350318,1,0,0:0:0:0:
192,160,350404,1,2,0:0:0:0:
192,160,350577,1,0,0:0:0:0:
192,160,350749,1,2,0:0:0:0:
192,160,350836,1,0,0:0:0:0:
192,160,350922,1,0,0:0:0:0:
192,160,351008,1,0,0:0:0:0:
192,160,351094,1,2,0:0:0:0:
192,160,351180,1,0,0:0:0:0:
192,160,351267,1,2,0:0:0:0:
128,160,351439,1,2,0:0:0:0:
128,160,351611,1,0,0:0:0:0:
128,160,351698,1,0,0:0:0:0:
128,160,351784,1,2,0:0:0:0:
128,160,351956,1,0,0:0:0:0:
128,160,352129,1,2,0:0:0:0:
128,160,352215,1,2,0:0:0:0:
128,160,352301,1,2,0:0:0:0:
128,160,352387,1,0,0:0:0:0:
128,160,352473,1,0,0:0:0:0:
128,160,352560,1,0,0:0:0:0:
352,224,352645,1,2,0:0:0:0:
192,160,352818,1,2,0:0:0:0:
192,192,352990,1,0,0:0:0:0:
192,192,353076,1,0,0:0:0:0:
192,192,353163,1,2,0:0:0:0:
192,192,353249,1,0,0:0:0:0:
192,192,353335,1,2,0:0:0:0:
192,192,353507,1,2,0:0:0:0:
192,192,353594,1,0,0:0:0:0:
192,192,353680,1,2,0:0:0:0:
192,192,353766,1,0,0:0:0:0:
192,192,353852,1,0,0:0:0:0:
192,192,353938,1,0,0:0:0:0:
192,192,354025,1,2,0:0:0:0:
128,160,354197,1,2,0:0:0:0:
128,160,354370,1,0,0:0:0:0:
224,160,354456,1,0,0:0:0:0:
224,160,354542,1,2,0:0:0:0:
224,128,354628,1,0,0:0:0:0:
224,128,354714,1,2,0:0:0:0:
224,128,354801,1,2,0:0:0:0:
224,128,354887,1,0,0:0:0:0:
160,160,354973,1,0,0:0:0:0:
224,128,355059,1,2,0:0:0:0:
224,128,355145,1,0,0:0:0:0:
224,128,355232,1,2,0:0:0:0:
224,128,355404,1,0,0:0:0:0:
256,288,355490,1,0,0:0:0:0:
160,128,355576,1,2,0:0:0:0:
192,128,355749,1,0,0:0:0:0:
192,128,355835,1,0,0:0:0:0:
192,128,355921,1,2,0:0:0:0:
192,128,356007,1,0,0:0:0:0:
192,128,356094,1,2,0:0:0:0:
192,128,356266,1,2,0:0:0:0:
160,160,356352,1,0,0:0:0:0:
96,128,356438,1,0,0:0:0:0:
128,128,356525,1,0,0:0:0:0:
128,128,356611,1,2,0:0:0:0:
128,128,356783,1,0,0:0:0:0:
160,128,356869,1,0,0:0:0:0:
128,128,356956,1,2,0:0:0:0:
96,128,357128,1,0,0:0:0:0:
96,128,357214,1,0,0:0:0:0:
96,128,357301,1,2,0:0:0:0:
160,96,357387,1,2,0:0:0:0:
160,128,357473,1,0,0:0:0:0:
96,128,357559,1,0,0:0:0:0:
96,128,357645,1,2,0:0:0:0:
64,160,357732,1,0,0:0:0:0:
96,160,357904,1,0,0:0:0:0:
96,160,357990,1,2,0:0:0:0:
96,160,358076,1,2,0:0:0:0:
96,160,358163,1,0,0:0:0:0:
320,288,358249,1,0,0:0:0:0:
224,224,358335,1,2,0:0:0:0:
224,224,358507,1,0,0:0:0:0:
224,224,358594,1,0,0:0:0:0:
224,224,358680,1,2,0:0:0:0:
224,224,358852,1,0,0:0:0:0:
352,256,358938,1,2,0:0:0:0:
224,224,359025,1,2,0:0:0:0:
224,224,359111,1,0,0:0:0:0:
224,224,359197,1,0,0:0:0:0:
224,224,359283,1,0,0:0:0:0:
224,224,359370,1,2,0:0:0:0:
224,224,359542,1,0,0:0:0:0:
224,224,359628,1,0,0:0:0:0:
224,224,359714,1,2,0:0:0:0:
224,224,359887,1,0,0:0:0:0:
224,224,359973,1,0,0:0:0:0:
224,224,360059,1,2,0:0:0:0:
224,224,360145,1,0,0:0:0:0:
224,224,360232,1,2,0:0:0:0:
224,224,360404,1,2,0:0:0:0:
224,224,360490,1,0,0:0:0:0:
224,224,360663,1,0,0:0:0:0:
224,224,360749,1,2,0:0:0:0:
352,288,360835,1,0,0:0:0:0:
192,160,360921,1,2,0:0:0:0:
192,160,361094,1,2,0:0:0:0:
96,192,361180,1,2,0:0:0:0:
192,160,361266,1,0,0:0:0:0:
192,160,361352,1,0,0:0:0:0:
192,160,361438,1,2,0:0:0:0:
192,160,361611,1,0,0:0:0:0:
192,160,361783,1,2,0:0:0:0:
192,160,361870,1,0,0:0:0:0:
192,160,361956,1,0,0:0:0:0:
192,160,362042,1,0,0:0:0:0:
192,160,362128,1,2,0:0:0:0:
192,160,362214,1,0,0:0:0:0:
192,160,362301,1,2,0:0:0:0:
128,160,362473,1,2,0:0:0:0:
288,192,362559,1,2,0:0:0:0:
128,160,362645,1,0,0:0:0:0:
128,160,362732,1,0,0:0:0:0:
128,160,362818,1,2,0:0:0:0:
160,192,362904,1,0,0:0:0:0:
128,160,362990,1,2,0:0:0:0:
192,128,363076,1,2,0:0:0:0:
128,160,363163,1,0,0:0:0:0:
128,160,363249,1,0,0:0:0:0:
128,160,363335,1,0,0:0:0:0:
128,160,363421,1,2,0:0:0:0:
128,160,363507,1,2,0:0:0:0:
128,160,363594,1,2,0:0:0:0:
352,224,363680,1,0,0:0:0:0:
192,160,363853,1,2,0:0:0:0:
192,192,364025,1,0,0:0:0:0:
192,192,364111,1,0,0:0:0:0:
192,192,364198,1,2,0:0:0:0:
192,192,364284,1,0,0:0:0:0:
192,192,364370,1,2,0:0:0:0:
192,160,364456,1,2,0:0:0:0:
192,192,364542,1,0,0:0:0:0:
320,160,364628,1,0,0:0:0:0:
192,192,364715,1,2,0:0:0:0:
192,192,364801,1,0,0:0:0:0:
192,192,364887,1,2,0:0:0:0:
192,192,365060,1,2,0:0:0:0:
320,224,365145,1,2,0:0:0:0:
128,160,365232,1,2,0:0:0:0:
128,160,365405,1,0,0:0:0:0:
224,160,365491,1,0,0:0:0:0:
224,160,365577,1,2,0:0:0:0:
224,128,365663,1,0,0:0:0:0:
224,128,365749,1,2,0:0:0:0:
224,128,365836,1,2,0:0:0:0:
224,128,365922,1,0,0:0:0:0:
352,256,366007,1,0,0:0:0:0:
224,128,366094,1,2,0:0:0:0:
224,128,366180,1,0,0:0:0:0:
224,128,366267,1,2,0:0:0:0:
224,128,366439,1,0,0:0:0:0:
160,128,366611,1,2,0:0:0:0:
192,128,366784,1,0,0:0:0:0:
192,128,366870,1,0,0:0:0:0:
192,128,366956,1,2,0:0:0:0:
192,128,367042,1,0,0:0:0:0:
192,128,367129,1,2,0:0:0:0:
192,192,367214,1,2,0:0:0:0:
192,128,367301,1,2,0:0:0:0:
96,128,367473,1,0,0:0:0:0:
128,128,367560,1,0,0:0:0:0:
128,128,367646,1,2,0:0:0:0:
256,192,367732,1,0,0:0:0:0:
128,128,367818,1,2,0:0:0:0:
224,192,367904,1,2,0:0:0:0:
128,128,367990,1,0,0:0:0:0:
256,192,368076,1,0,0:0:0:0:
96,128,368163,1,2,0:0:0:0:
96,128,368249,1,0,0:0:0:0:
96,128,368336,1,2,0:0:0:0:
160,128,368508,1,0,0:0:0:0:
96,128,368594,1,0,0:0:0:0:
96,128,368680,1,2,0:0:0:0:
64,160,368767,1,0,0:0:0:0:
96,160,368939,1,2,0:0:0:0:
96,160,369025,1,0,0:0:0:0:
96,160,369111,1,0,0:0:0:0:
96,160,369198,1,2,0:0:0:0:
224,224,369370,1,2,0:0:0:0:
224,224,369542,1,0,0:0:0:0:
224,224,369629,1,0,0:0:0:0:
224,224,369715,1,2,0:0:0:0:
224,224,369887,1,0,0:0:0:0:
256,192,369973,1,0,0:0:0:0:
224,224,370060,1,2,0:0:0:0:
224,224,370146,1,0,0:0:0:0:
224,224,370232,1,0,0:0:0:0:
224,224,370318,1,0,0:0:0:0:
224,224,370405,1,2,0:0:0:0:
224,224,370577,1,0,0:0:0:0:
224,224,370663,1,0,0:0:0:0:
224,224,370749,1,2,0:0:0:0:
224,224,370922,1,0,0:0:0:0:
224,224,371008,1,0,0:0:0:0:
224,224,371094,1,2,0:0:0:0:
224,224,371180,1,0,0:0:0:0:
352,256,371352,1,2,0:0:0:0:
224,224,371439,1,2,0:0:0:0:
224,224,371525,1,0,0:0:0:0:
224,224,371698,1,0,0:0:0:0:
224,224,371784,1,2,0:0:0:0:
192,160,371956,1,2,0:0:0:0:
256,96,372042,1,0,0:0:0:0:
192,160,372129,1,2,0:0:0:0:
224,160,372214,1,2,0:0:0:0:
192,160,372301,1,0,0:0:0:0:
192,160,372387,1,0,0:0:0:0:
192,160,372473,1,2,0:0:0:0:
192,160,372646,1,0,0:0:0:0:
320,288,372732,1,2,0:0:0:0:
192,160,372818,1,2,0:0:0:0:
192,160,372905,1,0,0:0:0:0:
192,160,372991,1,0,0:0:0:0:
192,160,373077,1,0,0:0:0:0:
192,160,373163,1,2,0:0:0:0:
192,160,373249,1,0,0:0:0:0:
192,160,373336,1,2,0:0:0:0:
320,256,373421,1,2,0:0:0:0:
128,160,373508,1,2,0:0:0:0:
320,256,373594,1,0,0:0:0:0:
128,160,373680,1,0,0:0:0:0:
128,160,373767,1,0,0:0:0:0:
128,160,373853,1,2,0:0:0:0:
352,320,373938,1,2,0:0:0:0:
128,160,374025,1,0,0:0:0:0:
352,320,374111,1,0,0:0:0:0:
128,160,374198,1,2,0:0:0:0:
128,160,374284,1,2,0:0:0:0:
128,160,374370,1,2,0:0:0:0:
128,160,374456,1,0,0:0:0:0:
128,160,374542,1,0,0:0:0:0:
128,160,374629,1,0,0:0:0:0:
128,160,374715,1,2,0:0:0:0:
416,288,374887,1,2,0:0:0:0:
416,288,375059,1,2,0:0:0:0:
416,288,375145,1,2,0:0:0:0:
416,288,375232,1,2,0:0:0:0:
416,288,375318,1,2,0:0:0:0:
416,288,375404,1,2,0:0:0:0:
416,288,375576,1,2,0:0:0:0:
416,288,375663,1,2,0:0:0:0:
416,288,375835,1,2,0:0:0:0:
128,160,376007,1,2,0:0:0:0:
128,160,376094,1,2,0:0:0:0:
128,160,376266,1,2,0:0:0:0:
128,160,376438,1,2,0:0:0:0:
128,160,376525,1,2,0:0:0:0:
128,160,376611,1,2,0:0:0:0:
128,160,376697,1,2,0:0:0:0:
128,160,376783,1,2,0:0:0:0:
128,160,376956,1,2,0:0:0:0:
128,160,377042,1,2,0:0:0:0:
128,160,377214,1,2,0:0:0:0:
128,160,377387,1,2,0:0:0:0:
128,160,377473,1,2,0:0:0:0:
128,160,377645,1,2,0:0:0:0:
128,160,377818,1,2,0:0:0:0:
128,160,377904,1,2,0:0:0:0:
160,128,377990,1,2,0:0:0:0:
160,128,378076,1,2,0:0:0:0:
160,128,378163,1,2,0:0:0:0:
160,128,378335,1,2,0:0:0:0:
160,128,378421,1,2,0:0:0:0:
160,128,378594,1,2,0:0:0:0:
160,128,378766,1,2,0:0:0:0:
160,128,378852,1,2,0:0:0:0:
160,128,379025,1,2,0:0:0:0:
160,128,379197,1,2,0:0:0:0:
160,128,379283,1,2,0:0:0:0:
160,128,379369,1,2,0:0:0:0:
160,128,379456,1,2,0:0:0:0:
160,128,379542,1,2,0:0:0:0:
160,128,379714,1,2,0:0:0:0:
160,128,379801,1,2,0:0:0:0:
160,128,379973,1,2,0:0:0:0:
160,128,380145,1,2,0:0:0:0:
160,128,380232,1,2,0:0:0:0:
