osu file format v14

[General]
AudioFilename: audio.mp3
AudioLeadIn: 0
PreviewTime: 105242
Countdown: 0
SampleSet: Soft
StackLeniency: 0.7
Mode: 0
LetterboxInBreaks: 0
WidescreenStoryboard: 1

[Editor]
DistanceSpacing: 0.9
BeatDivisor: 4
GridSize: 8
TimelineZoom: 2.899999

[Metadata]
Title:Dienos Advento
TitleUnicode:Dienos Advento
Artist:S.F.A
ArtistUnicode:S.F.A
Creator:Nathan
Version:Normal
Source:Tree of Savior
Tags:tos sukinathan siae luscent 404 aimnotfound 404anf sfa lithuanian metal video game 트리 오브 세이비어
BeatmapID:2552302
BeatmapSetID:1085630

[Difficulty]
HPDrainRate:3
CircleSize:3.5
OverallDifficulty:4
ApproachRate:5
SliderMultiplier:1.2
SliderTickRate:1

[Events]
//Background and Video events
0,0,"76838049_p0.jpg",0,0
//Break Periods
2,66067,68096
2,138067,149953
//Storyboard Layer 0 (Background)
//Storyboard Layer 1 (Fail)
//Storyboard Layer 2 (Pass)
//Storyboard Layer 3 (Foreground)
//Storyboard Layer 4 (Overlay)
//Storyboard Sound Samples

[TimingPoints]
725,428.571428571429,4,2,1,80,1,0
1582,-100,4,2,1,80,0,0
2224,-100,4,2,1,80,0,0
5010,-100,4,2,1,80,0,0
7582,-100,4,2,1,80,0,1
21296,-100,4,2,1,80,0,0
23010,-100,4,2,1,80,0,0
24510,-100,4,2,1,80,0,0
24724,-100,4,2,1,80,0,0
25582,-100,4,2,1,80,0,0
26010,-100,4,2,1,80,0,0
26439,-100,4,2,1,80,0,0
29867,-100,4,2,1,80,0,0
31367,-100,4,2,1,80,0,0
35010,-100,4,2,1,80,0,0
35439,-100,4,2,1,80,0,0
35867,-100,4,2,1,80,0,0
36296,-100,4,2,1,80,0,0
38439,-100,4,2,1,80,0,0
38867,-100,4,2,1,80,0,0
39028,-100,4,2,1,5,0,0
39082,-100,4,2,1,80,0,0
39296,-100,4,2,1,80,0,0
39457,-100,4,2,1,5,0,0
39510,-100,4,2,1,80,0,0
39724,-100,4,2,1,80,0,0
39885,-100,4,2,1,5,0,0
39939,-100,4,2,1,80,0,0
40099,-100,4,2,1,5,0,0
40153,-100,4,2,1,80,0,0
40582,-100,4,2,1,80,0,0
40742,-100,4,2,1,5,0,0
40796,-100,4,2,1,80,0,0
41010,-100,4,2,1,80,0,0
41171,-100,4,2,1,5,0,0
41224,-100,4,2,1,80,0,0
41439,-100,4,2,1,80,0,0
41599,-100,4,2,1,5,0,0
41653,-100,4,2,1,80,0,0
41867,-100,4,2,1,80,0,0
42296,-100,4,2,1,80,0,0
42457,-100,4,2,1,5,0,0
42510,-100,4,2,1,80,0,0
42724,-100,4,2,1,80,0,0
42885,-100,4,2,1,5,0,0
42939,-100,4,2,1,80,0,0
43153,-100,4,2,1,80,0,0
43314,-100,4,2,1,5,0,0
43367,-100,4,2,1,80,0,0
43582,-100,4,2,1,80,0,0
44010,-100,4,2,1,80,0,0
44439,-100,4,2,1,80,0,0
44867,-100,4,2,1,80,0,0
45082,-100,4,2,1,80,0,0
46153,-100,4,2,1,80,0,0
47010,-100,4,2,1,80,0,1
48724,-100,4,2,1,80,0,1
49582,-100,4,2,1,80,0,1
52153,-100,4,2,1,80,0,0
53010,-100,4,2,1,80,0,0
53867,-100,4,2,1,80,0,1
55582,-100,4,2,1,80,0,1
56439,-100,4,2,1,80,0,1
59010,-100,4,2,1,80,0,0
59439,-100,4,2,1,80,0,0
60725,-100,4,2,1,80,0,1
61582,-100,4,2,1,80,0,1
63296,-100,4,2,1,80,0,1
65867,-100,4,2,1,80,0,0
69296,-100,4,2,1,50,0,0
81296,-100,4,2,1,80,0,0
88153,-100,4,2,1,80,0,1
88314,-100,4,2,1,5,0,1
88367,-100,4,2,1,80,0,1
88528,-100,4,2,1,5,0,1
88582,-100,4,2,1,80,0,1
88742,-100,4,2,1,5,0,1
88796,-100,4,2,1,80,0,1
88957,-100,4,2,1,5,0,1
89010,-100,4,2,1,80,0,1
89439,-100,4,2,1,80,0,0
89867,-100,4,2,1,80,0,1
90028,-100,4,2,1,5,0,1
90082,-100,4,2,1,80,0,1
90242,-100,4,2,1,5,0,1
90296,-100,4,2,1,80,0,1
90457,-100,4,2,1,5,0,1
90510,-100,4,2,1,80,0,1
90671,-100,4,2,1,5,0,1
90724,-100,4,2,1,80,0,1
91153,-100,4,2,1,80,0,0
91582,-100,4,2,1,80,0,1
92439,-100,4,2,1,80,0,1
95010,-100,4,2,1,80,0,0
101867,-100,4,2,1,80,0,1
102028,-100,4,2,1,5,0,1
102081,-100,4,2,1,80,0,1
102242,-100,4,2,1,5,0,1
102296,-100,4,2,1,80,0,1
102456,-100,4,2,1,5,0,1
102510,-100,4,2,1,80,0,1
102671,-100,4,2,1,5,0,1
102724,-100,4,2,1,80,0,1
103153,-100,4,2,1,80,0,0
103582,-100,4,2,1,80,0,1
103742,-100,4,2,1,5,0,1
103796,-100,4,2,1,80,0,1
103957,-100,4,2,1,5,0,1
104010,-100,4,2,1,80,0,1
104171,-100,4,2,1,5,0,1
104224,-100,4,2,1,80,0,1
104385,-100,4,2,1,5,0,1
104439,-100,4,2,1,80,0,1
104867,-100,4,2,1,80,0,0
105296,-100,4,2,1,80,0,1
106153,-100,4,2,1,80,0,1
108725,-100,4,2,1,80,0,0
110439,-100,4,2,1,80,0,1
117082,-100,4,2,1,80,0,1
117296,-100,4,2,1,80,0,1
122707,-100,4,2,1,5,0,1
122760,-100,4,2,1,80,0,1
123028,-100,4,2,1,5,0,1
123082,-100,4,2,1,80,0,1
123242,-100,4,2,1,5,0,1
123296,-100,4,2,1,80,0,1
123564,-100,4,2,1,5,0,1
123617,-100,4,2,1,80,0,1
123885,-100,4,2,1,5,0,1
123939,-100,4,2,1,80,0,1
124099,-100,4,2,1,5,0,1
124153,-100,4,2,1,80,0,0
124207,-100,4,2,1,5,0,0
125867,-100,4,2,1,80,0,0
126724,-100,4,2,1,80,0,0
131010,-100,4,2,1,80,0,0
134439,-100,4,2,1,80,0,0
153296,-100,4,2,1,80,0,0
160153,-100,4,2,1,80,0,1
160314,-100,4,2,1,5,0,1
160367,-100,4,2,1,80,0,1
160528,-100,4,2,1,5,0,1
160582,-100,4,2,1,80,0,1
160742,-100,4,2,1,5,0,1
160796,-100,4,2,1,80,0,1
160957,-100,4,2,1,5,0,1
161010,-100,4,2,1,80,0,1
161439,-100,4,2,1,80,0,0
161867,-100,4,2,1,80,0,1
162028,-100,4,2,1,5,0,1
162082,-100,4,2,1,80,0,1
162242,-100,4,2,1,5,0,1
162296,-100,4,2,1,80,0,1
162457,-100,4,2,1,5,0,1
162510,-100,4,2,1,80,0,1
162671,-100,4,2,1,5,0,1
162724,-100,4,2,1,80,0,1
163153,-100,4,2,1,80,0,0
163582,-100,4,2,1,80,0,1
164439,-100,4,2,1,80,0,1
167010,-100,4,2,1,80,0,0
173867,-100,4,2,1,80,0,1
174028,-100,4,2,1,5,0,1
174081,-100,4,2,1,80,0,1
174242,-100,4,2,1,5,0,1
174296,-100,4,2,1,80,0,1
174456,-100,4,2,1,5,0,1
174510,-100,4,2,1,80,0,1
174671,-100,4,2,1,5,0,1
174724,-100,4,2,1,80,0,1
175153,-100,4,2,1,80,0,0
175582,-100,4,2,1,80,0,1
175742,-100,4,2,1,5,0,1
175796,-100,4,2,1,80,0,1
175957,-100,4,2,1,5,0,1
176010,-100,4,2,1,80,0,1
176171,-100,4,2,1,5,0,1
176224,-100,4,2,1,80,0,1
176385,-100,4,2,1,5,0,1
176439,-100,4,2,1,80,0,1
176867,-100,4,2,1,80,0,0
177296,-100,4,2,1,80,0,1
178153,-100,4,2,1,80,0,1
182439,-100,4,2,1,80,0,0
182867,-100,4,2,1,80,0,0
183296,-100,4,2,1,80,0,0
183724,-100,4,2,1,80,0,0
184153,-100,4,2,1,80,0,0
187367,-100,4,2,1,80,0,1
199582,-100,4,2,1,80,0,0
201296,-100,4,2,1,80,0,0
204724,-100,4,2,1,80,0,0
206439,-100,4,2,1,80,0,0
208153,-100,4,2,1,80,0,0
211582,-100,4,2,1,80,0,0
213296,-100,4,2,1,80,0,0
213724,-100,4,2,1,80,0,0
214153,-100,4,2,1,80,0,0
214582,-100,4,2,1,80,0,0
215010,-100,4,2,1,80,0,0

[Colours]
Combo1 : 106,106,181
Combo2 : 255,4,4
Combo3 : 144,144,144

[HitObjects]
388,96,725,6,0,P|369:160|375:214,1,120,6|2,3:2|0:0,0:0:0:0:
295,285,1582,2,0,L|155:302,1,120,2|0,0:0|0:0,0:0:0:0:
122,305,2224,6,0,B|139:188|86:250|110:117,1,180,6|0,3:2|0:0,0:0:0:0:
169,40,3296,2,0,P|199:45|246:48,1,60,8|0,0:0|3:0,0:0:0:0:
282,52,3724,1,10,0:0:0:0:
226,147,4153,6,0,P|176:137|102:128,1,120,6|2,3:2|0:0,0:0:0:0:
148,228,5010,2,0,P|207:235|287:255,1,120,2|8,0:0|0:0,0:0:0:0:
318,259,5653,2,0,B|390:238|429:169|429:169|413:227|460:265,1,240,6|8,3:2|0:0,0:0:0:0:
496,281,6724,1,6,3:2:0:0:
378,99,7582,5,6,3:2:0:0:
281,148,8010,1,6,3:2:0:0:
285,39,8439,1,6,3:2:0:0:
233,54,8653,2,0,P|192:48|166:33,1,60,14|0,0:0|3:0,0:0:0:0:
125,20,9082,2,0,P|150:57|164:200,1,180,14|0,0:0|3:0,0:0:0:0:
194,292,10153,1,6,3:2:0:0:
103,351,10582,1,6,3:2:0:0:
68,248,11010,6,0,L|82:129,1,120,6|6,3:2|3:2,0:0:0:0:
152,46,11867,1,6,3:2:0:0:
204,58,12082,2,0,P|236:58|276:47,1,60,14|0,0:0|3:0,0:0:0:0:
316,41,12510,2,0,B|432:40|360:98|485:88,1,180,14|2,0:0|3:2,0:0:0:0:
484,196,13582,1,6,3:2:0:0:
425,286,14010,1,0,3:0:0:0:
332,230,14439,6,0,P|299:227|219:298,1,120,6|6,3:2|3:2,0:0:0:0:
127,309,15296,1,6,3:2:0:0:
73,300,15510,2,0,P|50:260|52:227,1,60,14|0,0:0|3:0,0:0:0:0:
53,193,15939,2,0,P|136:194|225:151,1,180,14|0,0:0|3:0,0:0:0:0:
209,45,17010,1,6,3:2:0:0:
308,86,17439,1,6,3:2:0:0:
405,39,17867,6,0,P|399:143|383:170,1,120,6|0,3:2|3:0,0:0:0:0:
307,221,18724,1,6,3:2:0:0:
348,256,18939,2,0,L|360:328,1,60,14|0,0:0|3:0,0:0:0:0:
370,367,19367,2,0,P|300:344|187:338,1,180,14|2,0:0|3:2,0:0:0:0:
89,308,20439,1,14,0:0:0:0:
63,203,20867,1,0,3:0:0:0:
167,232,21296,6,0,B|193:175|193:175|175:108,1,120,6|6,3:2|3:2,0:0:0:0:
125,25,22153,2,0,L|220:42,1,90,6|0,3:2|3:0,0:0:0:0:
282,84,22796,2,0,B|331:79|331:79|352:84|352:84|422:78,2,120,14|8|8,0:0|0:0|0:0,0:0:0:0:
256,189,24082,2,0,L|267:260,1,60,14|0,0:0|3:0,0:0:0:0:
279,300,24510,6,0,B|328:266|388:257|388:257|435:309,1,180,14|8,0:0|0:0,0:0:0:0:
483,208,25582,1,8,0:0:0:0:
394,145,26010,2,0,P|364:150|326:152,1,60,8|0,0:0|3:0,0:0:0:0:
281,140,26439,2,0,L|267:33,2,90,14|0|6,0:0|0:0|3:2,0:0:0:0:
223,231,27510,2,0,L|212:313,2,60,8|6|6,0:0|3:2|3:2,0:0:0:0:
191,186,28153,1,6,3:2:0:0:
113,261,28582,1,6,3:2:0:0:
59,167,29010,1,6,3:2:0:0:
49,113,29224,2,0,P|53:68|60:44,1,60,14|0,0:0|3:0,0:0:0:0:
109,41,29653,6,0,P|168:36|237:20,2,120,14|8|8,0:0|0:0|0:0,0:0:0:0:
136,145,30939,2,0,P|170:168|199:250,1,120,14|14,0:0|0:0,0:0:0:0:
221,287,31582,2,0,B|270:251|270:251|329:247,1,120,6|8,3:2|0:0,0:0:0:0:
401,328,32439,2,0,L|423:124,1,180,14|0,0:0|3:0,0:0:0:0:
424,95,33296,2,0,P|467:80|529:77,2,90,6|6|14,3:2|3:2|0:0,0:0:0:0:
383,59,34153,2,0,P|334:49|283:28,1,90,14|0,0:0|3:0,0:0:0:0:
215,26,34796,1,6,3:2:0:0:
166,49,35010,5,6,3:2:0:0:
256,192,35117,12,6,36724,3:2:0:0:
104,103,37582,6,0,L|125:224,1,120,14|14,0:0|0:0,0:0:0:0:
186,309,38439,2,0,P|254:261|294:257,2,120,6|10|10,3:2|0:0|0:0,0:0:0:0:
280,360,39724,2,0,L|339:371,1,60,10|2,0:0|3:2,0:0:0:0:
393,367,40153,2,0,B|431:317|431:317|411:252,1,120,14|10,0:0|0:0,0:0:0:0:
342,182,41010,2,0,L|354:45,1,120,10|10,0:0|0:0,0:0:0:0:
316,22,41653,1,0,3:0:0:0:
266,42,41867,6,0,P|197:43|132:17,1,120,14|10,0:0|0:0,0:0:0:0:
73,104,42724,2,0,L|50:233,1,120,10|10,0:0|0:0,0:0:0:0:
138,287,43582,2,0,L|161:148,1,120,14|10,0:0|0:0,0:0:0:0:
256,124,44439,1,10,0:0:0:0:
330,202,44867,2,0,L|395:191,1,60,2|2,3:2|3:2,0:0:0:0:
442,183,45296,5,14,0:0:0:0:
282,37,46153,2,0,L|172:21,2,90,14|6|6,0:0|3:2|3:2,0:0:0:0:
312,81,47010,6,0,B|268:121|268:121|197:110,1,120,6|0,3:2|3:0,0:0:0:0:
101,131,47867,2,0,L|90:41,2,90,0|0|8,3:0|3:0|0:0,0:0:0:0:
142,165,48724,2,0,P|162:218|155:293,1,120,6|0,3:2|3:0,0:0:0:0:
255,329,49582,5,6,3:2:0:0:
334,315,49903,1,6,3:2:0:0:
414,303,50224,1,14,0:0:0:0:
467,292,50439,2,0,B|469:231|469:231|448:178|448:178|457:116,1,180,6|8,3:2|0:0,0:0:0:0:
466,63,51296,2,0,B|405:61|405:61|352:82|352:82|288:51,1,180,6|0,3:2|3:0,0:0:0:0:
247,31,52153,5,14,0:0:0:0:
129,212,53010,2,0,P|57:183|30:184,2,90,14|6|6,0:0|3:2|3:2,0:0:0:0:
172,244,53867,2,0,P|208:200|280:183,1,120,6|0,3:2|3:0,0:0:0:0:
374,195,54724,2,0,L|391:301,2,90,0|0|8,3:0|3:0|0:0,0:0:0:0:
348,146,55582,6,0,L|372:11,1,120,6|0,3:2|3:0,0:0:0:0:
262,44,56439,1,6,3:2:0:0:
182,56,56760,1,6,3:2:0:0:
101,68,57082,1,14,0:0:0:0:
72,113,57296,2,0,B|50:168|50:168|62:218|101:283,1,180,6|8,3:2|0:0,0:0:0:0:
152,277,58153,2,0,B|249:265|217:325|326:309,1,180,6|0,3:2|3:0,0:0:0:0:
378,308,59010,5,14,0:0:0:0:
322,214,59439,2,0,P|375:208|396:200,1,60,0|2,3:0|3:2,0:0:0:0:
434,200,59867,2,0,P|437:136|456:90,2,90,14|6|6,0:0|3:2|3:2,0:0:0:0:
478,230,60725,2,0,P|491:284|459:356,1,120,6|0,3:2|3:0,0:0:0:0:
364,317,61582,2,0,P|323:355|245:363,1,120,6|0,3:2|0:0,0:0:0:0:
211,348,62224,1,8,0:0:0:0:
166,317,62439,2,0,P|107:326|63:366,1,120,6|0,3:2|3:0,0:0:0:0:
39,261,63296,5,6,3:2:0:0:
57,182,63617,1,6,3:2:0:0:
76,103,63939,1,14,0:0:0:0:
126,82,64153,2,0,B|180:65|180:65|264:81,1,120,6|0,3:2|3:0,0:0:0:0:
267,182,65010,2,0,B|310:130|367:140|367:140|388:218|479:210,1,240,6|6,3:2|3:2,0:0:0:0:
123,116,69296,6,0,P|208:53|355:50,2,240,2|2|2,3:2|0:0|0:0,0:0:0:0:
188,202,71439,2,0,P|190:240|164:274,1,60,0|2,0:0|0:0,0:0:0:0:
160,309,71867,2,0,L|284:294,1,120,2|0,0:0|0:0,0:0:0:0:
383,268,72724,6,0,P|380:144|416:18,2,240,2|2|2,0:0|0:0|0:0,0:0:0:0:
283,311,74867,2,0,P|296:266|290:228,1,60,2|0,0:0|0:0,0:0:0:0:
292,199,75296,2,0,L|87:225,1,180,2|0,0:0|0:0,0:0:0:0:
59,230,76153,5,2,0:0:0:0:
13,132,76582,1,2,0:0:0:0:
90,56,77010,1,2,0:0:0:0:
193,87,77439,2,0,L|262:75,1,60,2|2,0:0|0:0,0:0:0:0:
304,64,77867,2,0,B|344:105|357:159|357:159|330:179|330:179|324:226|359:275,1,240,6|14,3:2|0:0,0:0:0:0:
140,294,79582,5,6,3:2:0:0:
256,192,79689,12,6,81296,3:2:0:0:
52,177,82153,6,0,L|149:163,1,90,6|6,3:2|3:2,0:0:0:0:
221,151,82796,2,0,B|262:192|262:192|255:263,1,120,12|8,0:0|0:0,0:0:0:0:
242,306,83439,1,0,3:0:0:0:
349,311,83867,2,0,L|429:302,1,60,6|8,3:2|0:0,0:0:0:0:
462,298,84296,2,0,L|453:223,1,60,6|8,3:2|0:0,0:0:0:0:
463,185,84724,6,0,P|383:172|345:137,1,120,6|0,3:2|3:0,0:0:0:0:
304,52,85582,1,6,3:2:0:0:
228,80,85903,1,6,3:2:0:0:
152,108,86224,2,0,P|99:136|61:186,1,120,14|8,0:0|0:0,0:0:0:0:
47,234,86867,1,0,3:0:0:0:
129,303,87296,2,0,L|256:315,1,120,6|2,3:2|3:2,0:0:0:0:
333,248,88153,6,0,P|333:220|344:173,2,60,6|6|6,3:2|3:2|3:2,0:0:0:0:
351,299,88796,1,6,3:2:0:0:
391,334,89010,1,6,3:2:0:0:
447,235,89439,1,14,0:0:0:0:
439,127,89867,6,0,P|467:127|514:138,2,60,6|6|6,3:2|3:2|3:2,0:0:0:0:
388,145,90510,1,6,3:2:0:0:
353,185,90724,1,6,3:2:0:0:
244,182,91153,2,0,L|170:173,1,60,14|8,0:0|0:0,0:0:0:0:
130,170,91582,6,0,L|117:63,1,90,6|2,3:2|3:2,0:0:0:0:
182,30,92224,1,2,3:2:0:0:
235,35,92439,2,0,L|336:42,1,90,14|2,0:0|3:2,0:0:0:0:
399,73,93082,1,10,0:0:0:0:
426,119,93296,2,0,B|480:240|393:207|449:362,1,240,6|6,3:2|3:2,0:0:0:0:
338,364,94582,1,0,3:0:0:0:
247,304,95010,6,0,L|109:296,1,120,6|0,3:2|3:0,0:0:0:0:
41,230,95867,2,0,B|26:169|26:169|64:118,1,120,6|0,3:2|0:0,0:0:0:0:
106,95,96510,2,0,P|151:138|268:130,1,180,14|0,0:0|3:0,0:0:0:0:
362,90,97582,6,0,B|377:115|377:115|365:156,1,60,6|8,3:2|0:0,0:0:0:0:
365,198,98010,2,0,B|350:223|350:223|362:264,1,60,6|8,3:2|0:0,0:0:0:0:
397,289,98439,2,0,L|268:313,1,120,6|0,3:2|3:0,0:0:0:0:
170,316,99296,1,6,3:2:0:0:
186,236,99617,1,6,3:2:0:0:
202,156,99939,1,14,0:0:0:0:
211,102,100153,6,0,L|65:124,1,120,0|0,3:2|3:0,0:0:0:0:
84,227,101010,2,0,L|63:361,1,120,6|2,3:2|3:2,0:0:0:0:
165,305,101867,6,0,L|175:229,2,60,6|6|6,3:2|3:2|3:2,0:0:0:0:
207,338,102510,1,6,3:2:0:0:
256,316,102724,1,6,3:2:0:0:
329,236,103153,1,14,0:0:0:0:
240,173,103582,6,0,L|164:163,2,60,6|6|6,3:2|3:2|3:2,0:0:0:0:
273,131,104225,1,6,3:2:0:0:
251,82,104439,1,6,3:2:0:0:
143,84,104867,1,14,0:0:0:0:
89,177,105296,6,0,L|102:289,1,90,6|2,3:2|3:2,0:0:0:0:
165,312,105939,1,2,3:2:0:0:
209,281,106153,2,0,L|312:291,1,90,14|6,0:0|3:2,0:0:0:0:
378,303,106796,1,6,3:2:0:0:
431,307,107010,1,14,0:0:0:0:
256,192,107117,12,6,108724,3:2:0:0:
444,231,110010,6,0,L|366:217,1,60,10|10,0:0|0:0,0:0:0:0:
331,211,110439,2,0,L|310:76,1,120,6|2,3:2|3:2,0:0:0:0:
212,50,111296,2,0,B|181:45|181:45|157:62,1,60,6|8,3:2|0:0,0:0:0:0:
133,109,111724,1,2,3:2:0:0:
81,203,112153,6,0,P|122:219|200:188,1,120,6|2,3:2|3:2,0:0:0:0:
296,221,113010,2,0,L|372:235,1,60,6|10,3:2|0:0,0:0:0:0:
408,237,113439,2,0,L|422:313,1,60,6|10,3:2|0:0,0:0:0:0:
425,349,113867,2,0,B|377:374|377:374|308:355,1,120,6|2,3:2|3:2,0:0:0:0:
221,299,114724,2,0,B|173:274|173:274|104:293,1,120,6|2,3:2|3:2,0:0:0:0:
61,194,115582,5,6,3:2:0:0:
104,125,115903,1,6,3:2:0:0:
148,57,116224,1,10,0:0:0:0:
184,96,116439,2,0,B|227:140|300:156|300:156|346:124,1,180,6|6,3:2|3:2,0:0:0:0:
389,109,117296,6,0,P|385:172|369:244,1,120,6|2,3:2|3:2,0:0:0:0:
350,276,117939,1,10,0:0:0:0:
298,292,118153,2,0,L|161:273,1,120,6|2,3:2|3:2,0:0:0:0:
89,214,119010,2,0,B|62:178|57:158|57:158|90:102,1,120,6|0,3:2|3:0,0:0:0:0:
188,79,119867,2,0,P|234:90|261:90,1,60,6|10,3:2|0:0,0:0:0:0:
299,81,120296,2,0,P|328:84|357:92,1,60,6|10,3:2|0:2,0:0:0:0:
403,120,120724,6,0,L|419:248,1,120,6|2,3:2|3:2,0:0:0:0:
346,320,121582,2,0,B|288:329|288:329|230:295,1,120,6|2,3:2|3:2,0:0:0:0:
206,193,122439,1,6,3:2:0:0:
125,184,122760,1,6,3:2:0:0:
172,117,123082,1,6,3:2:0:0:
225,111,123296,2,0,L|336:102,1,90,6|6,3:2|3:2,0:0:0:0:
395,95,123939,1,6,3:2:0:0:
448,90,124153,5,6,3:2:0:0:
256,192,124260,12,6,125867,3:2:0:0:
452,248,126724,6,0,P|379:234|332:191,1,120,6|2,0:0|0:0,0:0:0:0:
364,100,127582,2,0,L|234:118,1,120,6|6,3:2|0:0,0:0:0:0:
155,56,128439,2,0,L|135:182,1,120,6|0,3:2|0:0,0:0:0:0:
96,275,129296,5,6,3:2:0:0:
201,298,129724,1,0,0:0:0:0:
308,308,130153,2,0,P|365:296|387:284,1,60,14|0,0:0|3:0,0:0:0:0:
417,277,130582,2,0,P|457:249|479:223,1,60,0|0,3:0|3:0,0:0:0:0:
484,190,131010,6,0,P|486:102|474:53,1,120,6|2,3:2|3:2,0:0:0:0:
373,51,131867,2,0,L|227:30,1,120,14|6,0:0|0:0,0:0:0:0:
200,30,132510,1,0,3:0:0:0:
146,24,132724,2,0,L|164:158,2,120,6|6|6,3:2|0:0|0:0,0:0:0:0:
62,223,134439,5,6,3:2:0:0:
142,229,134760,1,6,3:2:0:0:
222,236,135082,1,6,3:2:0:0:
275,242,135296,2,0,B|297:205|297:205|286:159,2,90,6|6|6,3:2|3:2|3:2,0:0:0:0:
312,280,136153,1,0,3:0:0:0:
256,192,136260,12,6,137867,3:2:0:0:
57,271,151153,6,0,L|122:260,1,60,6|0,3:2|0:0,0:0:0:0:
170,258,151582,2,0,L|182:74,1,180,6|8,3:2|0:0,0:0:0:0:
235,82,152439,2,0,B|253:134|290:146|290:146|327:139,1,120,0|0,3:0|1:0,0:0:0:0:
425,109,153296,6,0,P|457:168|453:238,1,120,6|0,3:2|3:0,0:0:0:0:
352,242,154153,2,0,L|257:260,1,90,6|6,3:2|3:2,0:0:0:0:
200,310,154796,2,0,B|168:297|159:269|159:269|166:198,1,120,12|8,0:0|0:0,0:0:0:0:
189,160,155439,1,0,3:0:0:0:
145,61,155867,2,0,L|65:70,1,60,6|8,3:2|0:0,0:0:0:0:
39,96,156296,2,0,L|48:171,1,60,6|8,3:2|0:0,0:0:0:0:
71,203,156724,6,0,P|87:259|86:334,1,120,6|0,3:2|3:0,0:0:0:0:
193,344,157582,1,6,3:2:0:0:
272,329,157903,1,6,3:2:0:0:
350,309,158224,2,0,L|482:326,1,120,14|8,0:0|0:0,0:0:0:0:
496,277,158867,1,0,3:0:0:0:
498,168,159296,2,0,L|371:156,1,120,6|2,3:2|3:2,0:0:0:0:
271,145,160153,6,0,B|271:175|271:175|266:205,2,60,6|6|6,3:2|3:2|3:2,0:0:0:0:
252,93,160796,1,6,3:2:0:0:
201,69,161010,1,6,3:2:0:0:
133,153,161439,1,14,0:0:0:0:
83,248,161867,6,0,B|53:248|53:248|23:243,2,60,6|6|6,3:2|3:2|3:2,0:0:0:0:
131,272,162510,1,6,3:2:0:0:
183,260,162724,1,6,3:2:0:0:
268,202,163153,2,0,L|342:211,1,60,14|8,0:0|0:0,0:0:0:0:
382,214,163582,6,0,B|400:254|400:254|389:319,1,90,6|2,3:2|3:2,0:0:0:0:
330,354,164224,1,2,3:2:0:0:
277,349,164439,2,0,L|176:342,1,90,14|2,0:0|3:2,0:0:0:0:
113,311,165082,1,10,0:0:0:0:
86,265,165296,2,0,B|63:175|63:175|93:136|93:136|63:22,1,240,6|6,3:2|3:2,0:0:0:0:
174,20,166582,1,0,3:0:0:0:
265,80,167010,6,0,L|403:88,1,120,6|0,3:2|3:0,0:0:0:0:
471,154,167867,2,0,B|491:198|486:215|486:215|448:266,1,120,6|0,3:2|0:0,0:0:0:0:
406,288,168510,2,0,L|217:262,1,180,14|0,0:0|3:0,0:0:0:0:
128,307,169582,6,0,B|113:282|113:282|125:241,1,60,6|8,3:2|0:0,0:0:0:0:
144,203,170010,2,0,B|159:178|159:178|147:137,1,60,6|8,3:2|0:0,0:0:0:0:
117,106,170439,2,0,P|176:106|246:82,1,120,6|0,3:2|3:0,0:0:0:0:
342,68,171296,1,6,3:2:0:0:
326,148,171617,1,6,3:2:0:0:
310,228,171939,1,14,0:0:0:0:
301,282,172153,6,0,L|447:260,1,120,0|0,3:2|3:0,0:0:0:0:
463,165,173010,2,0,P|491:113|484:31,1,120,6|2,3:2|3:2,0:0:0:0:
388,86,173867,6,0,P|392:115|378:162,2,60,6|6|6,3:2|3:2|3:2,0:0:0:0:
351,46,174510,1,6,3:2:0:0:
302,68,174724,1,6,3:2:0:0:
211,127,175153,1,14,0:0:0:0:
272,211,175582,6,0,P|304:218|348:221,2,60,6|6|6,3:2|3:2|3:2,0:0:0:0:
239,253,176225,1,6,3:2:0:0:
261,302,176439,1,6,3:2:0:0:
369,300,176867,1,14,0:0:0:0:
431,211,177296,6,0,P|419:169|418:99,1,90,6|2,3:2|3:2,0:0:0:0:
347,72,177939,1,2,3:2:0:0:
303,103,178153,2,0,L|200:93,1,90,14|6,0:0|3:2,0:0:0:0:
134,81,178796,1,6,3:2:0:0:
131,134,179010,1,14,0:0:0:0:
256,192,179117,12,6,182439,3:2:0:0:
484,196,184153,6,0,P|400:193|356:162,1,120,6|6,3:2|3:2,0:0:0:0:
339,131,184796,1,0,3:0:0:0:
285,122,185010,2,0,B|245:118|208:132|208:132|197:152|197:152|177:163|112:166,1,180,14|0,0:0|3:0,0:0:0:0:
68,147,185867,1,2,0:0:0:0:
434,237,187367,6,0,P|452:159|473:116,2,120,6|8|8,3:2|0:0|0:0,0:0:0:0:
430,291,188439,1,6,3:2:0:0:
339,350,188868,1,6,3:2:0:0:
304,247,189296,6,0,B|282:188|282:188|318:128,1,120,6|6,3:2|3:2,0:0:0:0:
363,44,190153,1,6,3:2:0:0:
311,56,190368,2,0,P|279:56|239:45,1,60,14|0,0:0|3:0,0:0:0:0:
198,40,190796,2,0,B|199:156|141:84|151:209,1,180,14|2,0:0|3:2,0:0:0:0:
88,295,191868,1,6,3:2:0:0:
184,342,192296,1,0,3:0:0:0:
249,256,192725,6,0,P|282:253|362:324,1,120,6|6,3:2|3:2,0:0:0:0:
449,344,193582,1,6,3:2:0:0:
483,302,193796,2,0,P|506:262|504:229,1,60,14|0,0:0|3:0,0:0:0:0:
496,195,194225,2,0,P|413:196|324:153,1,180,14|0,0:0|3:0,0:0:0:0:
303,49,195296,1,6,3:2:0:0:
209,104,195725,1,6,3:2:0:0:
109,62,196153,6,0,P|115:166|131:193,1,120,6|0,3:2|3:0,0:0:0:0:
219,222,197010,1,6,3:2:0:0:
217,276,197225,2,0,P|217:306|229:348,1,60,14|0,0:0|3:0,0:0:0:0:
248,383,197653,2,0,P|318:360|431:354,1,180,14|2,0:0|3:2,0:0:0:0:
475,258,198725,1,14,0:0:0:0:
367,255,199153,1,0,3:0:0:0:
423,162,199582,6,0,B|449:105|449:105|431:38,1,120,6|6,3:2|3:2,0:0:0:0:
326,38,200439,2,0,L|231:55,1,90,6|0,3:2|3:0,0:0:0:0:
217,132,201082,2,0,B|222:181|222:181|217:202|217:202|223:272,2,120,14|8|8,0:0|0:0|0:0,0:0:0:0:
130,66,202367,1,8,0:0:0:0:
66,154,202796,1,14,0:0:0:0:
78,206,203010,6,0,L|101:334,1,120,2|10,3:2|0:0,0:0:0:0:
194,273,203867,2,0,L|330:295,1,120,10|8,0:0|0:0,0:0:0:0:
403,350,204724,1,14,0:0:0:0:
399,268,205046,1,6,3:2:0:0:
395,187,205367,1,6,3:2:0:0:
391,132,205582,2,0,B|357:111|357:111|336:108|307:115,1,90,14|2,0:0|3:2,0:0:0:0:
232,145,206224,1,2,3:2:0:0:
192,181,206439,6,0,L|66:170,1,120,6|6,3:2|3:2,0:0:0:0:
38,67,207296,1,6,3:2:0:0:
80,33,207510,2,0,L|164:39,1,60,10|0,0:0|3:0,0:0:0:0:
193,42,207939,2,0,B|266:49|266:49|319:90,2,120,14|8|8,0:0|0:0|0:0,0:0:0:0:
180,149,209224,2,0,L|202:281,1,120,8|14,0:0|0:0,0:0:0:0:
218,318,209867,6,0,P|265:291|353:285,1,120,2|10,3:2|0:0,0:0:0:0:
435,302,210724,1,10,0:0:0:0:
412,252,210939,2,0,P|390:171|395:137,1,120,2|2,3:2|3:2,0:0:0:0:
421,89,211582,5,6,3:2:0:0:
341,75,211903,1,6,3:2:0:0:
261,61,212224,1,14,0:0:0:0:
207,53,212439,2,0,L|117:39,1,90,8|0,0:0|3:0,0:0:0:0:
67,102,213082,1,6,3:2:0:0:
73,155,213296,6,0,B|70:200|70:200|85:223|85:223|77:293,1,120,6|2,3:2|0:0,0:0:0:0:
185,292,214153,2,0,B|188:247|188:247|173:224|173:224|181:154,1,120,2|2,0:0|0:0,0:0:0:0:
189,123,214796,1,2,0:0:0:0:
232,90,215010,2,0,L|365:77,1,120,6|6,3:2|3:2,0:0:0:0:
441,138,215867,1,14,0:0:0:0:
360,210,216296,2,0,P|356:246|366:282,1,60,14|2,0:0|3:2,0:0:0:0:
376,320,216724,6,0,B|325:301|325:301|296:295|244:313,1,120,14|0,0:0|0:0,0:0:0:0:
207,318,217367,2,0,B|188:267|188:267|182:238|199:186,1,120,14|0,0:0|0:0,0:0:0:0:
208,149,218010,2,0,B|171:161|140:158|140:158|109:130|120:53,1,180,14|8,0:0|0:0,0:0:0:0:
