osu file format v14

[General]
AudioFilename: audio.mp3
AudioLeadIn: 0
PreviewTime: 105242
Countdown: 0
SampleSet: Soft
StackLeniency: 0.7
Mode: 0
LetterboxInBreaks: 0
WidescreenStoryboard: 1

[Editor]
DistanceSpacing: 0.6
BeatDivisor: 8
GridSize: 8
TimelineZoom: 2.899999

[Metadata]
Title:Dienos Advento
TitleUnicode:Dienos Advento
Artist:S.F.A
ArtistUnicode:S.F.A
Creator:Nathan
Version:Medzio Diena
Source:Tree of Savior
Tags:tos sukinathan siae luscent 404 aimnotfound 404anf sfa lithuanian metal video game 트리 오브 세이비어
BeatmapID:2270137
BeatmapSetID:1085630

[Difficulty]
HPDrainRate:4
CircleSize:4
OverallDifficulty:9.7
ApproachRate:10
SliderMultiplier:3.4
SliderTickRate:1

[Events]
//Background and Video events
0,0,"76838049_p0.jpg",0,0
//Break Periods
2,66067,68439
2,138067,150596
//Storyboard Layer 0 (Background)
//Storyboard Layer 1 (Fail)
//Storyboard Layer 2 (Pass)
//Storyboard Layer 3 (Foreground)
//Storyboard Layer 4 (Overlay)
//Storyboard Sound Samples

[TimingPoints]
725,428.571428571429,4,2,1,80,1,0
1582,-133.333333333333,4,2,1,80,0,0
2224,-100,4,2,1,80,0,0
5010,-90.9090909090909,4,2,1,80,0,0
7582,-90.9090909090909,4,2,1,80,0,1
21296,-90.9090909090909,4,2,1,80,0,0
23010,-111.111111111111,4,2,1,80,0,0
24510,-90.9090909090909,4,2,1,80,0,0
24724,-133.333333333333,4,2,1,80,0,0
25582,-117.647058823529,4,2,1,80,0,0
26010,-105.263157894737,4,2,1,80,0,0
26439,-90.9090909090909,4,2,1,80,0,0
29867,-111.111111111111,4,2,1,80,0,0
31367,-90.9090909090909,4,2,1,80,0,0
35010,-200,4,2,1,80,0,0
35439,-142.857142857143,4,2,1,80,0,0
35867,-111.111111111111,4,2,1,80,0,0
36296,-90.9090909090909,4,2,1,80,0,0
38439,-133.333333333333,4,2,1,80,0,0
38867,-200,4,2,1,80,0,0
39028,-200,4,2,1,5,0,0
39082,-200,4,2,1,80,0,0
39296,-142.857142857143,4,2,1,80,0,0
39457,-200,4,2,1,5,0,0
39510,-142.857142857143,4,2,1,80,0,0
39724,-111.111111111111,4,2,1,80,0,0
39885,-200,4,2,1,5,0,0
39939,-111.111111111111,4,2,1,80,0,0
40099,-200,4,2,1,5,0,0
40153,-133.333333333333,4,2,1,80,0,0
40582,-200,4,2,1,80,0,0
40742,-200,4,2,1,5,0,0
40796,-200,4,2,1,80,0,0
41010,-142.857142857143,4,2,1,80,0,0
41171,-200,4,2,1,5,0,0
41224,-142.857142857143,4,2,1,80,0,0
41439,-111.111111111111,4,2,1,80,0,0
41599,-200,4,2,1,5,0,0
41653,-111.111111111111,4,2,1,80,0,0
41867,-133.333333333333,4,2,1,80,0,0
42296,-200,4,2,1,80,0,0
42457,-200,4,2,1,5,0,0
42510,-200,4,2,1,80,0,0
42724,-142.857142857143,4,2,1,80,0,0
42885,-200,4,2,1,5,0,0
42939,-142.857142857143,4,2,1,80,0,0
43153,-111.111111111111,4,2,1,80,0,0
43314,-200,4,2,1,5,0,0
43367,-111.111111111111,4,2,1,80,0,0
43582,-133.333333333333,4,2,1,80,0,0
44010,-200,4,2,1,80,0,0
44439,-142.857142857143,4,2,1,80,0,0
44867,-83.3333333333333,4,2,1,80,0,0
45082,-111.111111111111,4,2,1,80,0,0
46153,-90.9090909090909,4,2,1,80,0,0
47010,-111.111111111111,4,2,1,80,0,1
48724,-90.9090909090909,4,2,1,80,0,1
49582,-76.9230769230769,4,2,1,80,0,1
52153,-76.9230769230769,4,2,1,80,0,0
53010,-90.9090909090909,4,2,1,80,0,0
53867,-111.111111111111,4,2,1,80,0,1
55582,-90.9090909090909,4,2,1,80,0,1
56439,-76.9230769230769,4,2,1,80,0,1
59010,-76.9230769230769,4,2,1,80,0,0
59439,-90.9090909090909,4,2,1,80,0,0
60725,-111.111111111111,4,2,1,80,0,1
61582,-90.9090909090909,4,2,1,80,0,1
63296,-76.9230769230769,4,2,1,80,0,1
65867,-76.9230769230769,4,2,1,80,0,0
69296,-200,4,2,1,50,0,0
81296,-90.9090909090909,4,2,1,80,0,0
88153,-66.6666666666667,4,2,1,80,0,1
88314,-66.6666666666667,4,2,1,5,0,1
88367,-66.6666666666667,4,2,1,80,0,1
88528,-66.6666666666667,4,2,1,5,0,1
88582,-66.6666666666667,4,2,1,80,0,1
88742,-66.6666666666667,4,2,1,5,0,1
88796,-66.6666666666667,4,2,1,80,0,1
88957,-66.6666666666667,4,2,1,5,0,1
89010,-66.6666666666667,4,2,1,80,0,1
89439,-66.6666666666667,4,2,1,80,0,0
89867,-66.6666666666667,4,2,1,80,0,1
90028,-66.6666666666667,4,2,1,5,0,1
90082,-66.6666666666667,4,2,1,80,0,1
90242,-66.6666666666667,4,2,1,5,0,1
90296,-66.6666666666667,4,2,1,80,0,1
90457,-66.6666666666667,4,2,1,5,0,1
90510,-66.6666666666667,4,2,1,80,0,1
90671,-66.6666666666667,4,2,1,5,0,1
90724,-66.6666666666667,4,2,1,80,0,1
91153,-66.6666666666667,4,2,1,80,0,0
91582,-100,4,2,1,80,0,1
92439,-83.3333333333333,4,2,1,80,0,1
95010,-90.9090909090909,4,2,1,80,0,0
101867,-66.6666666666667,4,2,1,80,0,1
102028,-66.6666666666667,4,2,1,5,0,1
102081,-66.6666666666667,4,2,1,80,0,1
102242,-66.6666666666667,4,2,1,5,0,1
102296,-66.6666666666667,4,2,1,80,0,1
102456,-66.6666666666667,4,2,1,5,0,1
102510,-66.6666666666667,4,2,1,80,0,1
102671,-66.6666666666667,4,2,1,5,0,1
102724,-66.6666666666667,4,2,1,80,0,1
103153,-66.6666666666667,4,2,1,80,0,0
103582,-66.6666666666667,4,2,1,80,0,1
103742,-66.6666666666667,4,2,1,5,0,1
103796,-66.6666666666667,4,2,1,80,0,1
103957,-66.6666666666667,4,2,1,5,0,1
104010,-66.6666666666667,4,2,1,80,0,1
104171,-66.6666666666667,4,2,1,5,0,1
104224,-66.6666666666667,4,2,1,80,0,1
104385,-66.6666666666667,4,2,1,5,0,1
104439,-66.6666666666667,4,2,1,80,0,1
104867,-66.6666666666667,4,2,1,80,0,0
105296,-100,4,2,1,80,0,1
106153,-83.3333333333333,4,2,1,80,0,1
108725,-90.9090909090909,4,2,1,80,0,0
110439,-83.3333333333333,4,2,1,80,0,1
117082,-71.4285714285714,4,2,1,80,0,1
117296,-76.9230769230769,4,2,1,80,0,1
122439,-66.6666666666667,4,2,1,80,0,1
122707,-66.6666666666667,4,2,1,5,0,1
122760,-66.6666666666667,4,2,1,80,0,1
123028,-66.6666666666667,4,2,1,5,0,1
123082,-66.6666666666667,4,2,1,80,0,1
123242,-66.6666666666667,4,2,1,5,0,1
123296,-66.6666666666667,4,2,1,80,0,1
123564,-66.6666666666667,4,2,1,5,0,1
123617,-66.6666666666667,4,2,1,80,0,1
123885,-66.6666666666667,4,2,1,5,0,1
123939,-66.6666666666667,4,2,1,80,0,1
124099,-66.6666666666667,4,2,1,5,0,1
124153,-142.857142857143,4,2,1,80,0,0
124207,-142.857142857143,4,2,1,5,0,0
125867,-142.857142857143,4,2,1,80,0,0
126724,-200,4,2,1,80,0,0
131010,-133.333333333333,4,2,1,80,0,0
134439,-111.111111111111,4,2,1,80,0,0
153296,-90.9090909090909,4,2,1,80,0,0
160153,-66.6666666666667,4,2,1,80,0,1
160314,-66.6666666666667,4,2,1,5,0,1
160367,-66.6666666666667,4,2,1,80,0,1
160528,-66.6666666666667,4,2,1,5,0,1
160582,-66.6666666666667,4,2,1,80,0,1
160742,-66.6666666666667,4,2,1,5,0,1
160796,-66.6666666666667,4,2,1,80,0,1
160957,-66.6666666666667,4,2,1,5,0,1
161010,-66.6666666666667,4,2,1,80,0,1
161439,-66.6666666666667,4,2,1,80,0,0
161867,-66.6666666666667,4,2,1,80,0,1
162028,-66.6666666666667,4,2,1,5,0,1
162082,-66.6666666666667,4,2,1,80,0,1
162242,-66.6666666666667,4,2,1,5,0,1
162296,-66.6666666666667,4,2,1,80,0,1
162457,-66.6666666666667,4,2,1,5,0,1
162510,-66.6666666666667,4,2,1,80,0,1
162671,-66.6666666666667,4,2,1,5,0,1
162724,-66.6666666666667,4,2,1,80,0,1
163153,-66.6666666666667,4,2,1,80,0,0
163582,-100,4,2,1,80,0,1
164439,-83.3333333333333,4,2,1,80,0,1
167010,-90.9090909090909,4,2,1,80,0,0
173867,-66.6666666666667,4,2,1,80,0,1
174028,-66.6666666666667,4,2,1,5,0,1
174081,-66.6666666666667,4,2,1,80,0,1
174242,-66.6666666666667,4,2,1,5,0,1
174296,-66.6666666666667,4,2,1,80,0,1
174456,-66.6666666666667,4,2,1,5,0,1
174510,-66.6666666666667,4,2,1,80,0,1
174671,-66.6666666666667,4,2,1,5,0,1
174724,-66.6666666666667,4,2,1,80,0,1
175153,-66.6666666666667,4,2,1,80,0,0
175582,-66.6666666666667,4,2,1,80,0,1
175742,-66.6666666666667,4,2,1,5,0,1
175796,-66.6666666666667,4,2,1,80,0,1
175957,-66.6666666666667,4,2,1,5,0,1
176010,-66.6666666666667,4,2,1,80,0,1
176171,-66.6666666666667,4,2,1,5,0,1
176224,-66.6666666666667,4,2,1,80,0,1
176385,-66.6666666666667,4,2,1,5,0,1
176439,-66.6666666666667,4,2,1,80,0,1
176867,-66.6666666666667,4,2,1,80,0,0
177296,-100,4,2,1,80,0,1
178153,-83.3333333333333,4,2,1,80,0,1
182439,-90.9090909090909,4,2,1,80,0,0
182867,-200,4,2,1,80,0,0
183296,-142.857142857143,4,2,1,80,0,0
183724,-111.111111111111,4,2,1,80,0,0
184153,-90.9090909090909,4,2,1,80,0,0
187367,-90.9090909090909,4,2,1,80,0,1
199582,-90.9090909090909,4,2,1,80,0,0
201296,-111.111111111111,4,2,1,80,0,0
204724,-90.9090909090909,4,2,1,80,0,0
206439,-90.9090909090909,4,2,1,80,0,0
208153,-111.111111111111,4,2,1,80,0,0
211582,-90.9090909090909,4,2,1,80,0,0
213296,-333.333333333333,4,2,1,80,0,0
213724,-200,4,2,1,80,0,0
214153,-142.857142857143,4,2,1,80,0,0
214582,-111.111111111111,4,2,1,80,0,0
215010,-90.9090909090909,4,2,1,80,0,0

[Colours]
Combo1 : 106,106,181
Combo2 : 255,4,4
Combo3 : 144,144,144

[HitObjects]
7,301,725,6,0,B|45:279|45:279|91:283|91:283,1,85,6|0,3:2|0:0,0:0:0:0:
223,276,939,1,0,0:0:0:0:
251,316,1046,1,0,0:0:0:0:
209,345,1153,1,2,0:0:0:0:
179,303,1260,1,0,0:0:0:0:
223,276,1367,1,0,0:0:0:0:
251,316,1474,1,0,0:0:0:0:
179,303,1582,6,0,B|168:268|168:239|168:239,1,63.7500024318696,2|0,0:0|0:0,0:0:0:0:
386,144,1796,1,2,0:0:0:0:
319,191,1903,1,0,0:0:0:0:
271,121,2010,1,0,0:0:0:0:
341,72,2117,1,0,0:0:0:0:
473,166,2224,6,0,B|242:178|389:40|128:72|128:72,2,340,6|0|0,3:2|0:0|0:0,0:0:0:0:
413,293,3189,5,0,3:0:0:0:
414,285,3242,1,0,3:0:0:0:
417,277,3296,2,0,B|456:256|498:269|498:269,1,85,8|8,0:0|0:0,0:0:0:0:
228,270,3510,2,0,B|182:270|142:251|142:251,1,85,0|0,3:0|3:0,0:0:0:0:
168,353,3724,1,10,0:0:0:0:
332,317,3832,1,8,0:0:0:0:
210,184,3939,2,0,B|226:89|226:89,1,85,0|0,3:0|3:0,0:0:0:0:
249,344,4153,6,0,B|263:270|263:270|282:256|282:256|297:173,1,170,6|0,3:2|0:0,0:0:0:0:
311,106,4474,1,0,0:0:0:0:
397,215,4582,2,0,B|451:122|368:47|368:47,1,170,2|0,0:0|0:0,0:0:0:0:
298,190,4903,1,0,0:0:0:0:
298,190,5010,2,0,B|355:306|363:184|432:317|432:317,1,187.000005706787,2|0,0:0|0:0,0:0:0:0:
377,165,5332,1,8,0:0:0:0:
342,338,5439,1,8,0:0:0:0:
342,338,5653,6,0,B|269:319|243:267|243:267|155:253|97:304,1,280.500008560181,6|0,3:2|0:0,0:0:0:0:
39,204,6082,6,0,L|52:145,3,46.7500014266968,8|8|0|0,0:0|0:0|3:0|3:0,0:0:0:0:
49,60,6296,1,0,3:0:0:0:
46,96,6349,1,0,3:0:0:0:
60,125,6403,1,8,0:0:0:0:
86,145,6457,1,8,0:0:0:0:
116,155,6510,1,8,0:0:0:0:
148,149,6564,1,0,3:0:0:0:
176,133,6617,1,0,3:0:0:0:
189,102,6671,1,0,3:0:0:0:
191,69,6724,6,0,L|202:14,3,46.7500014266968,6|0|8|0,3:2|3:0|0:0|0:0,0:0:0:0:
284,127,6939,2,0,B|334:117|371:92|371:92,1,93.5000028533936,8|8,0:0|0:0,0:0:0:0:
400,300,7153,2,0,B|354:283|308:283|308:283,1,93.5000028533936,8|8,0:0|0:0,0:0:0:0:
336,204,7367,1,10,0:0:0:0:
429,221,7474,1,8,0:0:0:0:
289,370,7582,6,0,B|183:313|243:194|243:194,1,187.000005706787,6|8,3:2|0:0,0:0:0:0:
284,127,7903,1,0,3:0:0:0:
429,221,8010,5,6,3:2:0:0:
452,303,8117,1,0,3:0:0:0:
370,322,8224,1,8,0:0:0:0:
348,241,8332,1,0,3:0:0:0:
422,378,8439,6,0,B|373:356|325:358|325:358,1,93.5000028533936,6|0,3:2|3:0,0:0:0:0:
491,170,8653,2,0,B|357:213|349:85|349:85,1,187.000005706787,14|0,0:0|3:0,0:0:0:0:
259,84,8974,1,0,0:0:0:0:
297,270,9082,2,0,P|275:148|275:148,1,93.5000028533936,14|0,0:0|3:0,0:0:0:0:
82,72,9296,5,0,3:2:0:0:
57,111,9403,1,0,3:0:0:0:
99,130,9510,1,8,0:0:0:0:
120,88,9617,1,0,3:0:0:0:
5,54,9724,5,0,3:0:0:0:
47,188,9832,1,0,3:0:0:0:
180,145,9939,1,8,0:0:0:0:
136,12,10046,1,0,3:0:0:0:
130,201,10153,6,0,B|175:161|224:160|224:160|255:193|299:182,1,187.000005706787,6|8,3:2|0:0,0:0:0:0:
286,103,10474,1,0,3:0:0:0:
296,261,10582,2,0,B|311:308|318:354|318:354,1,93.5000028533936,6|0,3:2|3:0,0:0:0:0:
180,145,10796,2,0,B|131:141|87:123|87:123,1,93.5000028533936,10|0,0:0|3:0,0:0:0:0:
97,304,11010,5,6,3:2:0:0:
170,344,11117,1,0,3:0:0:0:
212,270,11224,1,8,0:0:0:0:
138,229,11332,1,0,3:0:0:0:
10,335,11439,6,0,B|57:312|105:302|105:302,1,93.5000028533936,6|0,3:2|3:0,0:0:0:0:
210,185,11653,1,10,0:0:0:0:
210,185,11760,1,0,3:0:0:0:
65,141,11867,2,0,B|68:189|44:237|44:237,1,93.5000028533936,6|0,3:2|3:0,0:0:0:0:
318,174,12082,2,0,B|217:125|262:-8|262:-8,1,187.000005706787,14|0,0:0|3:0,0:0:0:0:
151,39,12403,1,0,3:0:0:0:
179,188,12510,2,0,L|201:302,1,93.5000028533936,14|0,0:0|3:0,0:0:0:0:
411,340,12724,5,2,3:2:0:0:
446,262,12832,1,2,3:2:0:0:
372,227,12939,1,10,0:0:0:0:
512,308,13046,1,2,3:2:0:0:
484,186,13153,2,0,L|462:64,1,93.5000028533936,2|0,3:2|3:0,0:0:0:0:
311,288,13367,2,0,L|289:410,1,93.5000028533936,10|0,0:0|3:0,0:0:0:0:
122,203,13582,6,0,L|138:135,3,46.7500014266968,6|0|0|0,3:2|3:0|3:0|3:0,0:0:0:0:
199,231,13796,2,0,P|214:255|219:280,3,46.7500014266968,8|8|0|0,0:0|0:0|3:0|3:0,0:0:0:0:
211,351,14010,1,0,3:0:0:0:
187,349,14064,1,0,3:0:0:0:
166,339,14117,1,8,0:0:0:0:
150,316,14171,1,0,3:0:0:0:
142,294,14224,2,0,B|104:257|33:280|33:280,1,93.5000028533936,0|0,3:0|3:0,0:0:0:0:
343,128,14439,6,0,B|469:56|518:207|518:207,1,187.000005706787,6|8,3:2|0:0,0:0:0:0:
331,228,14760,1,0,3:0:0:0:
227,72,14867,5,6,3:2:0:0:
295,23,14974,1,0,3:0:0:0:
345,91,15082,1,8,0:0:0:0:
277,140,15189,1,0,3:0:0:0:
457,36,15296,6,0,B|467:81|467:81|428:133|428:133,1,93.5000028533936,6|0,3:2|3:0,0:0:0:0:
371,345,15510,2,0,B|422:299|422:299|384:252|378:190|378:190,1,187.000005706787,14|0,0:0|3:0,0:0:0:0:
277,140,15832,1,0,3:0:0:0:
314,275,15939,2,0,B|266:259|205:253|205:253,1,93.5000028533936,14|0,0:0|3:0,0:0:0:0:
95,256,16153,5,0,3:2:0:0:
70,217,16260,1,0,3:0:0:0:
112,198,16367,1,8,0:0:0:0:
133,240,16474,1,0,3:0:0:0:
18,274,16582,5,0,3:0:0:0:
60,140,16689,1,0,3:0:0:0:
193,183,16796,1,8,0:0:0:0:
149,316,16903,1,0,3:0:0:0:
142,111,17010,6,0,B|220:201|322:136|322:136,1,187.000005706787,6|8,3:2|0:0,0:0:0:0:
306,48,17332,1,0,3:0:0:0:
288,239,17439,2,0,B|206:193|221:72|221:72,1,187.000005706787,6|8,3:2|0:0,0:0:0:0:
404,145,17760,1,0,3:0:0:0:
441,241,17867,2,0,B|455:288|455:288|411:357,1,93.5000028533936,6|0,3:2|3:0,0:0:0:0:
167,293,18082,5,8,0:0:0:0:
127,219,18189,1,0,3:0:0:0:
199,177,18296,1,0,3:0:0:0:
241,249,18403,1,0,3:0:0:0:
85,297,18510,1,8,0:0:0:0:
124,137,18617,1,0,3:0:0:0:
241,249,18724,6,0,B|295:242|348:274|348:274,1,93.5000028533936,6|0,3:2|3:0,0:0:0:0:
186,47,18939,2,0,B|129:157|24:88|24:88,1,187.000005706787,14|0,0:0|3:0,0:0:0:0:
199,177,19260,1,0,3:0:0:0:
328,100,19367,2,0,B|341:52|341:52|316:7,1,93.5000028533936,14|0,0:0|3:0,0:0:0:0:
127,219,19582,5,2,3:2:0:0:
242,108,19689,1,2,3:2:0:0:
100,60,19796,1,10,0:2:0:0:
199,177,19903,1,2,3:2:0:0:
113,142,20010,2,0,B|158:280|85:181|141:355,1,187.000005706787,2|8,3:2|0:0,0:0:0:0:
293,290,20332,5,0,3:0:0:0:
295,298,20385,1,0,3:0:0:0:
297,307,20439,2,0,L|313:363,3,46.7500014266968,14|8|0|0,0:0|0:0|3:0|3:0,0:0:0:0:
386,308,20653,2,0,L|427:348,3,46.7500014266968,8|8|0|0,0:0|0:0|3:0|3:0,0:0:0:0:
430,229,20867,1,0,3:0:0:0:
418,205,20921,1,0,3:0:0:0:
399,186,20974,1,8,0:0:0:0:
374,177,21028,1,0,3:0:0:0:
347,174,21082,2,0,L|220:197,1,93.5000028533936,0|0,3:0|3:0,0:0:0:0:
23,274,21296,6,0,B|69:255|110:264|110:264|125:284|125:284|166:297|221:273,1,187.000005706787,6|8,3:2|0:0,0:0:0:0:
46,186,21617,1,0,3:0:0:0:
39,103,21724,2,0,B|88:109|119:137|119:137|122:162|122:162|151:194|210:201,1,187.000005706787,6|8,3:2|0:0,0:0:0:0:
127,47,22046,1,2,3:2:0:0:
200,8,22153,2,0,B|218:42|218:42|217:65|204:98,1,93.5000028533936,6|0,3:2|3:0,0:0:0:0:
370,232,22367,2,0,B|368:270|368:270|356:289|328:311,1,93.5000028533936,10|0,0:0|3:0,0:0:0:0:
287,171,22582,1,0,3:0:0:0:
291,148,22635,1,0,3:0:0:0:
295,124,22689,1,0,3:0:0:0:
299,101,22742,1,0,3:0:0:0:
303,77,22796,6,0,B|410:131|475:20|475:20,1,187.000005706787,14|0,0:0|3:0,0:0:0:0:
370,232,23117,1,0,3:0:0:0:
453,228,23224,2,0,B|449:175|431:126|431:126,1,76.4999976654053,8|0,0:0|3:0,0:0:0:0:
219,109,23439,2,0,B|223:162|240:207|240:207,1,76.4999976654053,0|0,3:0|3:0,0:0:0:0:
298,322,23653,5,8,0:0:0:0:
239,367,23760,1,0,3:0:0:0:
197,304,23867,1,0,3:0:0:0:
256,258,23974,1,0,3:0:0:0:
128,347,24082,2,0,B|79:348|40:362|40:362,1,76.4999976654053,14|0,0:0|0:0,0:0:0:0:
77,190,24296,1,0,3:0:0:0:
99,192,24349,1,0,3:0:0:0:
121,195,24403,1,0,3:0:0:0:
144,198,24457,1,0,3:0:0:0:
167,199,24510,6,0,B|227:167|227:167|255:111|227:47,1,187.000005706787,14|0,0:0|3:0,0:0:0:0:
299,19,24832,1,0,3:0:0:0:
370,46,24939,1,0,3:0:0:0:
378,121,25046,1,0,3:0:0:0:
315,164,25153,6,0,L|333:237,1,63.7500024318696,8|0,0:0|0:0,0:0:0:0:
346,307,25367,1,0,3:0:0:0:
403,250,25474,1,0,3:0:0:0:
270,277,25582,2,0,L|252:350,1,72.2500013780594,8|0,0:0|0:0,0:0:0:0:
127,236,25796,1,0,3:0:0:0:
246,201,25903,1,0,3:0:0:0:
142,142,26010,2,0,L|183:309,1,161.499995687485,8|0,0:0|3:0,0:0:0:0:
236,113,26332,1,0,3:0:0:0:
113,66,26439,6,0,B|60:62|17:42|17:42,1,93.5000028533936,14|0,0:0|3:0,0:0:0:0:
178,224,26653,2,0,B|135:107|24:162|24:162,1,187.000005706787,6|8,3:2|0:0,0:0:0:0:
47,348,26974,1,0,3:0:0:0:
100,253,27082,2,0,B|116:298|124:349|124:349,1,93.5000028533936,6|0,3:2|3:0,0:0:0:0:
255,218,27296,5,14,0:0:0:0:
259,195,27349,1,0,3:0:0:0:
261,171,27403,1,0,3:0:0:0:
263,147,27457,1,0,3:0:0:0:
266,124,27510,1,8,0:0:0:0:
267,100,27564,1,8,0:0:0:0:
271,77,27617,1,0,3:0:0:0:
273,53,27671,1,0,3:0:0:0:
276,30,27724,6,0,B|301:29|321:42|321:42,3,46.7500014266968,6|0|8|0,3:2|3:0|0:0|3:0,0:0:0:0:
179,102,27939,2,0,B|142:132|95:139|95:139,1,93.5000028533936,6|0,3:2|0:0,0:0:0:0:
343,184,28153,6,0,B|470:221|346:255|515:296|515:296,1,187.000005706787,6|8,3:2|0:0,0:0:0:0:
199,313,28474,1,0,3:0:0:0:
256,201,28582,2,0,B|287:330|196:239|244:406|244:406,1,187.000005706787,6|8,3:2|0:0,0:0:0:0:
86,248,28903,1,0,3:0:0:0:
182,164,29010,2,0,B|127:164|91:137|91:137,1,93.5000028533936,6|0,3:2|3:0,0:0:0:0:
324,338,29224,2,0,B|379:338|415:365|415:365,1,93.5000028533936,14|0,0:0|3:0,0:0:0:0:
155,367,29439,1,0,3:0:0:0:
132,363,29492,1,0,3:0:0:0:
108,359,29546,1,0,3:0:0:0:
85,355,29599,1,0,3:0:0:0:
61,351,29653,6,0,B|-36:282|25:184|25:184,1,187.000005706787,14|0,0:0|3:0,0:0:0:0:
210,230,29974,1,0,3:0:0:0:
127,277,30082,2,0,L|108:178,1,76.4999976654053,8|0,0:0|3:0,0:0:0:0:
277,304,30296,2,0,B|285:340|285:340|259:391,1,76.4999976654053,0|0,3:0|3:0,0:0:0:0:
216,151,30510,5,8,0:0:0:0:
264,92,30617,1,0,3:0:0:0:
322,140,30724,1,0,3:0:0:0:
276,202,30832,1,0,3:0:0:0:
184,82,30939,2,0,B|192:20|198:-9|198:-9,1,76.4999976654053,14|0,0:0|3:0,0:0:0:0:
408,85,31153,5,0,3:0:0:0:
410,107,31207,1,0,3:0:0:0:
413,129,31260,1,0,3:0:0:0:
416,152,31314,1,0,3:0:0:0:
420,175,31367,2,0,B|433:280,1,93.5000028533936,14|0,0:0|3:0,0:0:0:0:
252,304,31582,5,6,3:2:0:0:
215,296,31689,1,0,3:0:0:0:
224,260,31796,1,0,3:0:0:0:
260,269,31903,1,0,3:0:0:0:
220,369,32010,5,8,0:0:0:0:
149,259,32117,1,0,3:0:0:0:
260,189,32224,1,0,3:0:0:0:
326,302,32332,1,0,3:0:0:0:
126,348,32439,6,0,B|14:363|-14:232|-14:232,1,187.000005706787,14|0,0:0|3:0,0:0:0:0:
230,113,32760,1,0,3:0:0:0:
260,189,32867,2,0,B|251:238|200:261|200:261,1,93.5000028533936,8|0,0:0|3:0,0:0:0:0:
15,100,33082,1,0,3:0:0:0:
162,172,33189,1,2,3:2:0:0:
81,194,33296,6,0,B|75:139|105:107|105:107|94:81|94:81|118:-8,1,187.000005706787,6|8,3:2|0:0,0:0:0:0:
344,177,33617,2,0,B|350:232|320:264|320:264|331:290|331:290|307:379,1,187.000005706787,6|0,3:2|3:0,0:0:0:0:
301,100,33939,1,14,0:0:0:0:
301,100,34153,5,14,0:0:0:0:
326,88,34207,1,8,0:0:0:0:
353,86,34260,1,8,0:0:0:0:
380,92,34314,1,8,0:0:0:0:
403,107,34367,1,0,3:0:0:0:
421,129,34421,1,0,3:0:0:0:
430,155,34474,1,0,3:0:0:0:
431,183,34528,1,0,3:0:0:0:
421,209,34582,1,0,3:0:0:0:
421,236,34635,1,0,3:0:0:0:
427,263,34689,1,8,0:0:0:0:
441,286,34742,1,0,3:0:0:0:
462,304,34796,1,6,3:2:0:0:
120,160,35010,6,0,L|177:148,1,42.5,6|0,3:2|0:0,0:0:0:0:
232,182,35224,1,2,0:0:0:0:
173,233,35332,1,2,0:0:0:0:
228,108,35439,6,0,L|271:158,1,59.4999981842042,2|0,0:0|0:0,0:0:0:0:
246,258,35653,1,2,0:0:0:0:
161,151,35760,1,2,0:0:0:0:
346,180,35867,6,0,L|319:262,1,76.4999976654053,2|0,0:0|0:0,0:0:0:0:
124,299,36082,1,2,0:0:0:0:
232,182,36189,1,2,0:0:0:0:
288,325,36296,6,0,L|194:344,1,93.5000028533936,2|0,0:0|0:0,0:0:0:0:
112,73,36510,2,0,L|18:93,1,93.5000028533936,2|0,0:0|0:0,0:0:0:0:
31,293,36724,5,6,3:2:0:0:
197,195,36832,1,0,3:0:0:0:
122,247,36939,2,0,B|96:209|96:209|96:183|102:162,1,93.5000028533936,8|8,0:0|0:0,0:0:0:0:
232,24,37153,1,0,3:0:0:0:
232,24,37207,1,0,3:0:0:0:
232,24,37260,1,0,3:0:0:0:
232,24,37314,1,0,3:0:0:0:
232,24,37367,2,0,B|260:62|260:62|263:83|254:107,1,93.5000028533936,0|0,3:0|3:0,0:0:0:0:
197,195,37582,5,14,0:0:0:0:
220,199,37635,1,8,0:0:0:0:
244,204,37689,1,8,0:0:0:0:
267,209,37742,1,8,0:0:0:0:
289,215,37796,2,0,L|348:227,3,46.7500014266968,2|0|0|0,3:2|3:0|3:0|3:0,0:0:0:0:
375,304,38010,5,14,0:0:0:0:
395,294,38064,1,8,0:0:0:0:
417,283,38117,1,8,0:0:0:0:
438,273,38171,1,8,0:0:0:0:
461,264,38224,2,0,B|441:218|443:169|443:169,1,93.5000028533936,0|0,3:0|3:0,0:0:0:0:
512,123,38439,6,0,B|389:178|346:37|346:37,1,191.250007295609,6|0,3:2|0:0,0:0:0:0:
270,129,38867,6,0,L|191:138,1,63.75,10|0,0:0|0:0,0:0:0:0:
186,140,39082,2,0,L|180:93,1,42.5,2|0,0:0|0:0,0:0:0:0:
245,243,39296,6,0,L|132:256,1,89.2499972763062,10|0,0:0|0:0,0:0:0:0:
124,259,39510,2,0,L|116:192,1,59.4999981842042,2|0,0:0|0:0,0:0:0:0:
198,365,39724,6,0,L|56:381,1,114.749996498108,10|0,0:0|0:0,0:0:0:0:
47,384,39939,2,0,L|31:263,1,114.749996498108,2|0,3:2|0:0,0:0:0:0:
117,200,40153,6,0,B|92:313|177:251|148:387|148:387,1,191.250007295609,14|0,0:0|0:0,0:0:0:0:
194,228,40582,6,0,L|265:209,1,63.75,10|0,0:0|0:0,0:0:0:0:
269,223,40796,2,0,L|299:254,1,42.5,2|0,0:0|0:0,0:0:0:0:
232,84,41010,6,0,L|340:113,1,89.2499972763062,10|0,0:0|0:0,0:0:0:0:
335,136,41224,2,0,L|351:200,1,59.4999981842042,2|0,0:0|0:0,0:0:0:0:
345,4,41439,6,0,L|449:109,1,114.749996498108,10|0,0:0|0:0,0:0:0:0:
446,116,41653,1,0,3:0:0:0:
446,116,41760,1,0,3:0:0:0:
437,255,41867,6,0,B|373:143|276:214|276:214,1,191.250007295609,14|0,0:0|0:0,0:0:0:0:
279,364,42296,6,0,B|257:355|214:315|214:315,1,63.75,10|0,0:0|0:0,0:0:0:0:
212,338,42510,2,0,B|217:308|224:295|224:295,1,42.5,2|0,0:0|0:0,0:0:0:0:
286,126,42724,6,0,B|290:162|272:231|272:231,1,89.2499972763062,10|0,0:0|0:0,0:0:0:0:
264,230,42939,2,0,B|228:215|208:214|208:214,1,59.4999981842042,2|0,0:0|0:0,0:0:0:0:
54,93,43153,6,0,B|112:88|171:110|171:110,1,114.749996498108,10|0,0:0|0:0,0:0:0:0:
190,131,43367,2,0,B|170:79|168:53|168:53,1,76.4999976654053,2|0,0:0|0:0,0:0:0:0:
150,255,43582,6,0,B|186:134|311:148|311:148,1,191.250007295609,14|0,0:0|0:0,0:0:0:0:
417,191,44010,5,10,0:0:0:0:
417,191,44439,1,10,0:0:0:0:
417,191,44867,6,0,L|351:180,1,50.9999984436036,2|0,3:2|0:0,0:0:0:0:
242,157,44974,2,0,L|308:146,1,50.9999984436036,2|0,3:2|0:0,0:0:0:0:
387,92,45082,6,0,L|321:81,1,38.2499988327027,2|0,3:2|0:0,0:0:0:0:
270,65,45189,2,0,L|336:54,1,38.2499988327027,2|0,3:2|0:0,0:0:0:0:
364,7,45296,5,14,0:0:0:0:
368,11,45939,1,2,0:0:0:0:
368,11,46153,5,14,0:0:0:0:
344,40,46207,1,8,0:0:0:0:
336,75,46260,1,8,0:0:0:0:
344,111,46314,1,8,0:0:0:0:
372,133,46367,1,0,3:0:0:0:
408,140,46421,1,0,3:0:0:0:
443,132,46474,2,0,L|500:147,5,46.7500014266968,6|0|0|0|8|0,3:2|3:0|3:0|3:0|0:0|3:0,0:0:0:0:
450,217,46796,1,6,3:2:0:0:
438,252,46849,1,0,3:0:0:0:
427,287,46903,1,0,3:0:0:0:
415,323,46957,1,0,3:0:0:0:
405,358,47010,6,0,B|350:271|245:296|245:296,1,152.999995330811,6|8,3:2|0:0,0:0:0:0:
50,321,47439,1,0,3:0:0:0:
50,321,47546,1,0,3:0:0:0:
142,289,47653,2,0,B|127:328|124:377|124:377,1,76.4999976654053,8|0,0:0|0:0,0:0:0:0:
198,158,47867,2,0,B|165:159|96:137|96:137,1,76.4999976654053,0|0,3:0|0:0,0:0:0:0:
221,243,48082,1,8,0:0:0:0:
71,220,48189,2,0,B|36:187|21:156|21:156|58:68|58:68,1,152.999995330811,0|0,3:0|3:0,0:0:0:0:
268,118,48510,1,8,0:0:0:0:
268,118,48724,6,0,B|321:115|392:94|392:94,1,93.5000028533936,6|0,3:2|0:0,0:0:0:0:
221,243,48939,2,0,B|225:298|245:367|245:367,1,93.5000028533936,8|0,0:0|0:0,0:0:0:0:
420,187,49153,1,0,3:0:0:0:
324,326,49260,1,0,3:0:0:0:
394,278,49367,2,0,B|350:238|296:209|296:209,1,93.5000028533936,8|0,0:0|0:0,0:0:0:0:
144,91,49582,6,0,B|72:105|74:181|74:181,1,110.499994941712,6|0,3:2|0:0,0:0:0:0:
211,163,49796,1,8,0:0:0:0:
82,0,49903,2,0,B|126:69|126:69|208:98|268:31|268:31,1,220.999989883423,6|0,3:2|3:0,0:0:0:0:
383,30,50224,1,14,0:0:0:0:
358,205,50332,1,2,3:2:0:0:
468,79,50439,6,0,B|317:180|405:36|252:168|252:168,2,220.999989883423,6|8|0,3:2|0:0|3:0,0:0:0:0:
358,205,50974,1,0,3:0:0:0:
439,308,51082,2,0,B|456:253|461:183|461:183,1,110.499994941712,8|0,0:0|0:0,0:0:0:0:
200,74,51296,2,0,B|217:230|272:98|289:289|289:289,1,220.999989883423,6|8,3:2|0:0,0:0:0:0:
286,271,51617,1,0,3:0:0:0:
289,94,51724,5,8,0:0:0:0:
196,249,51832,1,0,3:0:0:0:
369,122,51939,1,0,3:0:0:0:
141,181,52046,1,0,3:0:0:0:
353,202,52153,5,14,0:0:0:0:
353,202,53010,5,14,0:0:0:0:
322,223,53064,1,8,0:0:0:0:
285,231,53117,1,8,0:0:0:0:
248,223,53171,1,8,0:0:0:0:
221,197,53224,1,0,3:0:0:0:
208,161,53278,1,0,3:0:0:0:
212,123,53332,2,0,P|225:83|232:51,5,46.7500014266968,6|0|0|0|0|0,3:2|3:0|3:0|3:0|3:0|3:0,0:0:0:0:
136,88,53653,1,6,3:2:0:0:
97,91,53707,1,0,3:0:0:0:
67,114,53760,1,0,3:0:0:0:
47,147,53814,1,0,3:0:0:0:
47,184,53867,6,0,B|77:349,1,152.999995330811,6|8,3:2|0:0,0:0:0:0:
404,274,54296,1,0,3:0:0:0:
386,196,54403,1,0,3:0:0:0:
321,253,54510,2,0,B|301:205|309:169|309:169,1,76.4999976654053,8|0,0:0|0:0,0:0:0:0:
415,365,54724,6,0,B|384:341|341:339|341:339,1,76.4999976654053,0|0,3:0|0:0,0:0:0:0:
267,313,54939,1,8,0:0:0:0:
386,196,55046,2,0,B|441:126|401:43|401:43,1,152.999995330811,0|0,3:0|3:0,0:0:0:0:
234,229,55367,2,0,B|191:215|175:157|175:157,1,76.4999976654053,8|0,0:0|0:0,0:0:0:0:
280,33,55582,6,0,B|231:33|198:52|198:52|193:71|193:71|166:96|115:90,2,187.000005706787,6|8|0,3:2|0:0|3:0,0:0:0:0:
273,146,56117,1,0,3:0:0:0:
234,229,56224,2,0,B|190:251|142:285|142:285,1,93.5000028533936,8|0,0:0|0:0,0:0:0:0:
392,214,56439,6,0,B|405:146|344:108|344:108,1,110.499994941712,6|0,3:2|0:0,0:0:0:0:
301,297,56653,1,8,0:0:0:0:
421,341,56760,2,0,B|558:290|482:139|482:139,1,220.999989883423,6|0,3:2|3:0,0:0:0:0:
446,45,57082,1,14,0:0:0:0:
318,199,57189,1,2,3:2:0:0:
234,11,57296,6,0,B|244:70|264:128|264:128,1,110.499994941712,6|0,3:2|0:0,0:0:0:0:
368,67,57510,2,0,B|223:87|309:5|122:41|122:41,1,220.999989883423,8|0,0:0|3:0,0:0:0:0:
318,199,57832,1,0,3:0:0:0:
460,192,57939,2,0,B|510:233|497:290|497:290,1,110.499994941712,8|0,0:0|0:0,0:0:0:0:
131,327,58153,6,0,B|84:203|185:119|185:119,1,220.999989883423,6|8,3:2|0:0,0:0:0:0:
179,124,58474,1,0,3:0:0:0:
224,218,58582,5,8,0:0:0:0:
64,163,58689,1,8,0:0:0:0:
245,55,58796,1,0,3:0:0:0:
233,306,58903,1,0,3:0:0:0:
424,167,59010,5,14,0:0:0:0:
424,167,59439,2,0,L|411:236,3,46.7500014266968,0|0|0|0,3:0|3:0|3:0|3:0,0:0:0:0:
428,309,59653,2,0,L|415:378,3,46.7500014266968,2|0|0|0,3:2|3:0|3:0|3:0,0:0:0:0:
324,338,59867,5,14,0:0:0:0:
286,350,59921,1,8,0:0:0:0:
248,341,59974,1,8,0:0:0:0:
214,318,60028,1,8,0:0:0:0:
200,280,60082,1,0,3:0:0:0:
206,242,60135,1,0,3:0:0:0:
231,210,60189,2,0,B|258:182|268:168|268:168,5,46.7500014266968,6|0|8|0|0|0,3:2|3:0|0:0|1:0|1:0|1:0,0:0:0:0:
317,79,60510,1,6,3:2:0:0:
275,85,60564,1,0,3:0:0:0:
234,93,60617,1,0,3:0:0:0:
191,102,60671,1,0,3:0:0:0:
150,110,60725,6,0,B|98:121|45:127|45:127,1,76.4999976654053,6|0,3:2|0:0,0:0:0:0:
162,309,60939,2,0,B|158:356|147:400|147:400,1,76.4999976654053,10|0,0:0|0:0,0:0:0:0:
234,213,61153,1,0,3:0:0:0:
234,213,61260,1,0,3:0:0:0:
136,198,61367,2,0,B|102:229|72:262|72:262,1,76.4999976654053,8|0,0:0|0:0,0:0:0:0:
312,27,61582,6,0,B|287:143|380:81|341:226|341:226,1,187.000005706787,6|8,3:2|0:0,0:0:0:0:
391,59,61903,2,0,B|258:108|228:-9|228:-9,1,187.000005706787,0|0,3:0|3:0,0:0:0:0:
277,262,62224,2,0,B|252:222|252:222|250:199|265:164,1,93.5000028533936,8|0,0:0|0:0,0:0:0:0:
482,95,62439,5,6,3:2:0:0:
164,312,62653,1,8,0:0:0:0:
431,171,62867,1,0,3:0:0:0:
417,253,62974,1,0,3:0:0:0:
351,198,63082,2,0,L|237:171,1,93.5000028533936,8|0,0:0|0:0,0:0:0:0:
37,213,63296,6,0,B|99:230|145:180|145:180,1,110.499994941712,6|0,3:2|0:0,0:0:0:0:
196,117,63510,1,8,0:0:0:0:
205,277,63617,2,0,B|48:213|119:58|119:58,1,220.999989883423,6|0,3:2|3:0,0:0:0:0:
278,103,63939,1,14,0:0:0:0:
433,220,64046,1,2,3:2:0:0:
252,199,64153,6,0,B|308:195|341:178|341:178|350:153|350:153|390:126|448:134,2,220.999989883423,6|8|0,3:2|0:0|3:0,0:0:0:0:
226,36,64689,1,0,3:0:0:0:
337,40,64796,2,0,B|397:41|466:15|466:15,1,110.499994941712,8|0,0:0|0:0,0:0:0:0:
238,313,65010,6,0,B|183:285|109:288|109:288,1,110.499994941712,6|0,3:2|0:0,0:0:0:0:
45,244,65224,1,8,0:0:0:0:
177,118,65332,1,0,3:0:0:0:
19,67,65439,1,8,0:0:0:0:
19,67,65492,1,8,0:0:0:0:
19,67,65546,1,8,0:0:0:0:
110,179,65653,2,0,L|134:304,1,110.499994941712,8|8,0:0|0:0,0:0:0:0:
116,33,65867,5,6,3:2:0:0:
22,300,69082,5,0,1:0:0:0:
34,382,69189,1,0,1:0:0:0:
118,370,69296,1,2,3:2:0:0:
118,370,69510,1,2,0:0:0:0:
107,289,69617,2,0,L|100:241,1,42.5,2|0,0:0|0:0,0:0:0:0:
203,358,69832,1,2,0:0:0:0:
192,277,69939,2,0,L|185:229,1,42.5,2|0,0:0|0:0,0:0:0:0:
153,22,70153,5,2,0:0:0:0:
153,22,70367,1,2,0:0:0:0:
164,103,70474,2,0,L|171:151,1,42.5,2|0,0:0|0:0,0:0:0:0:
68,34,70689,1,2,0:0:0:0:
79,115,70796,2,0,L|86:163,1,42.5,2|0,0:0|0:0,0:0:0:0:
359,22,71010,5,2,0:0:0:0:
359,22,71224,1,2,0:0:0:0:
348,103,71332,2,0,L|341:151,1,42.5,2|0,0:0|0:0,0:0:0:0:
444,34,71546,1,2,0:0:0:0:
433,115,71653,2,0,L|426:163,1,42.5,2|0,0:0|0:0,0:0:0:0:
359,362,71867,5,2,0:0:0:0:
359,362,72082,1,2,0:0:0:0:
348,281,72189,2,0,L|341:233,1,42.5,2|0,0:0|0:0,0:0:0:0:
444,350,72403,1,2,0:0:0:0:
433,269,72510,2,0,L|426:221,1,42.5,2|0,0:0|0:0,0:0:0:0:
256,194,72724,6,0,B|201:282|97:246|97:246,1,170,2|0,0:0|0:0,0:0:0:0:
81,159,73367,1,0,0:0:0:0:
304,380,73582,2,0,B|367:302|323:202|323:202,1,170,2|0,0:0|0:0,0:0:0:0:
232,327,74224,1,0,0:0:0:0:
400,176,74439,6,0,B|480:210|479:285|479:285,1,127.5,2|0,0:0|0:0,0:0:0:0:
509,30,74867,2,0,B|440:35|403:96|403:96,1,127.5,2|0,0:0|0:0,0:0:0:0:
502,137,75296,2,0,B|322:87|441:202|238:140|238:140,1,255,2|0,0:0|0:0,0:0:0:0:
254,145,76153,6,0,B|191:69|100:119|100:119,1,170,2|2,0:0|0:0,0:0:0:0:
454,371,77010,2,0,B|483:331|481:286|481:286,1,85,2|0,0:0|0:0,0:0:0:0:
427,224,77332,1,0,3:0:0:0:
427,224,77439,2,0,B|383:229|373:232|373:232,1,42.5,2|0,0:0|0:0,0:0:0:0:
335,172,77653,2,0,B|355:146|362:131|362:131,1,42.5,2|0,0:0|0:0,0:0:0:0:
442,130,77867,5,6,3:2:0:0:
365,327,78082,2,0,L|327:280,2,42.5,2|0|2,0:0|0:0|0:0,0:0:0:0:
39,293,78510,1,0,3:0:0:0:
39,293,78617,1,0,3:0:0:0:
86,374,78724,6,0,B|152:301|106:211|106:211,1,170,14|0,0:0|0:0,0:0:0:0:
62,60,79582,1,6,3:2:0:0:
256,192,79635,12,6,80867,0:0:0:0:
331,297,81296,5,6,3:2:0:0:
377,307,81403,1,0,3:0:0:0:
403,267,81510,1,8,0:0:0:0:
380,226,81617,1,0,3:0:0:0:
199,173,81724,5,0,3:0:0:0:
285,213,81832,1,0,3:0:0:0:
341,138,81939,1,8,0:0:0:0:
294,57,82046,1,0,3:0:0:0:
422,107,82153,6,0,B|428:160|438:205|438:205,1,93.5000028533936,6|0,3:2|3:0,0:0:0:0:
420,303,82367,1,8,0:0:0:0:
341,138,82474,2,0,B|419:89|419:89|474:94|541:133,1,187.000005706787,6|0,3:2|3:0,0:0:0:0:
342,235,82796,2,0,B|301:219|248:210|248:210,1,93.5000028533936,12|0,0:0|0:0,0:0:0:0:
82,132,83010,5,0,3:2:0:0:
122,157,83117,1,0,3:0:0:0:
113,203,83224,1,8,0:0:0:0:
69,218,83332,1,0,3:0:0:0:
6,161,83439,5,0,3:0:0:0:
128,71,83546,1,0,3:0:0:0:
220,188,83653,2,0,B|205:244|197:290|197:290,1,93.5000028533936,8|0,0:0|3:0,0:0:0:0:
127,360,83867,5,6,3:2:0:0:
285,302,83974,1,2,0:0:0:0:
127,360,84082,2,0,B|102:317|102:317|116:262|116:262,1,93.5000028533936,8|0,0:0|3:0,0:0:0:0:
305,160,84296,5,6,3:2:0:0:
120,109,84403,1,2,0:0:0:0:
305,160,84510,2,0,B|329:115|329:115|317:67,1,93.5000028533936,8|0,0:0|3:0,0:0:0:0:
62,27,84724,6,0,B|22:72|22:72|10:143|59:186,1,187.000005706787,6|8,3:2|0:0,0:0:0:0:
40,305,85046,1,0,3:0:0:0:
142,275,85153,2,0,P|158:172|158:172,1,93.5000028533936,0|0,3:0|3:0,0:0:0:0:
306,163,85367,1,8,0:0:0:0:
328,351,85474,1,0,3:0:0:0:
410,212,85582,6,0,B|368:225|318:251|318:251,1,93.5000028533936,6|0,3:2|0:0,0:0:0:0:
245,334,85796,1,8,0:0:0:0:
404,309,85903,2,0,B|307:211|345:339|228:230|228:230,1,187.000005706787,6|0,3:2|3:0,0:0:0:0:
344,52,86224,2,0,B|381:84|388:133|388:133,1,93.5000028533936,14|0,0:0|3:0,0:0:0:0:
168,290,86439,5,0,3:2:0:0:
146,247,86546,1,0,3:0:0:0:
155,200,86653,1,8,0:0:0:0:
190,169,86760,1,0,3:0:0:0:
322,324,86867,5,0,3:0:0:0:
257,266,86974,1,0,3:0:0:0:
323,207,87082,1,8,0:0:0:0:
190,169,87189,1,0,3:0:0:0:
343,89,87296,6,0,L|336:42,3,46.7500014266968,6|0|2|0,3:2|3:0|3:2|3:0,0:0:0:0:
394,160,87510,1,10,0:0:0:0:
395,170,87564,1,8,0:0:0:0:
396,179,87617,1,2,3:2:0:0:
398,188,87671,1,0,3:0:0:0:
400,196,87724,2,0,L|409:246,3,46.7500014266968,2|0|8|0,3:2|3:0|0:0|3:0,0:0:0:0:
487,68,87939,1,2,3:2:0:0:
492,97,87992,1,0,3:0:0:0:
497,125,88046,1,2,3:2:0:0:
502,155,88099,1,0,3:0:0:0:
508,183,88153,6,0,B|440:205|440:205|368:191|366:124,1,191.250007295609,6|0,3:2|0:0,0:0:0:0:
347,29,88367,2,0,B|313:118|313:118|332:157|317:212,1,191.250007295609,6|0,3:2|0:0,0:0:0:0:
363,329,88582,2,0,P|323:253|247:294,1,191.250007295609,6|0,3:2|0:0,0:0:0:0:
214,384,88796,2,0,B|197:302|197:302|209:285|209:285|189:175,1,191.250007295609,6|0,3:2|0:0,0:0:0:0:
177,110,89010,1,6,3:2:0:0:
44,337,89224,5,0,3:0:0:0:
47,289,89278,1,0,3:0:0:0:
52,241,89332,1,0,3:0:0:0:
57,193,89385,1,0,3:0:0:0:
61,145,89439,1,14,0:0:0:0:
27,58,89867,6,0,B|74:115|123:142|123:142|157:127|190:98,1,191.250007295609,6|0,3:2|0:0,0:0:0:0:
229,24,90082,2,0,B|214:100|214:100|228:117|228:117|207:209|207:209,1,191.250007295609,6|0,3:2|0:0,0:0:0:0:
165,273,90296,2,0,B|197:241|252:212|252:212|292:227|305:294,1,191.250007295609,6|0,3:2|0:0,0:0:0:0:
325,352,90510,2,0,B|362:136,1,191.250007295609,6|0,3:2|0:0,0:0:0:0:
373,71,90724,1,6,3:2:0:0:
468,337,90939,5,0,3:0:0:0:
465,289,90992,1,0,3:0:0:0:
460,241,91046,1,0,3:0:0:0:
455,193,91099,1,0,3:0:0:0:
451,145,91153,1,14,0:0:0:0:
224,66,91367,1,8,0:0:0:0:
191,228,91474,1,8,0:0:0:0:
287,159,91582,6,0,B|247:147|199:142|199:142,1,85,6|0,3:2|3:0,0:0:0:0:
26,194,91796,1,0,3:0:0:0:
107,212,91903,2,0,B|148:214|192:228|192:228,1,85,2|8,3:2|0:0,0:0:0:0:
224,66,92117,1,0,3:0:0:0:
146,51,92224,2,0,B|99:48|50:33|50:33,1,85,2|0,3:2|3:0,0:0:0:0:
389,236,92439,6,0,B|385:189|369:134|369:134,1,101.999996887207,14|0,0:0|3:0,0:0:0:0:
170,136,92653,1,0,3:0:0:0:
190,227,92760,2,0,B|205:287|214:354|214:354,1,101.999996887207,2|8,3:2|0:0,0:0:0:0:
491,216,92974,1,0,3:0:0:0:
472,110,93082,2,0,B|454:61|442:4|442:4,1,101.999996887207,10|0,0:0|3:0,0:0:0:0:
314,271,93296,5,6,3:2:0:0:
389,236,93403,1,10,0:2:0:0:
280,198,93510,1,2,3:2:0:0:
353,164,93617,1,2,3:2:0:0:
384,318,93724,5,10,0:2:0:0:
285,121,93832,1,2,3:2:0:0:
432,165,93939,1,10,0:2:0:0:
236,266,94046,1,2,0:0:0:0:
389,236,94153,6,0,L|468:265,3,50.9999984436036,6|0|10|8,3:2|3:0|0:0|0:0,0:0:0:0:
432,165,94367,2,0,L|514:150,3,50.9999984436036,8|8|2|0,0:0|0:0|3:2|3:0,0:0:0:0:
391,96,94582,1,0,3:0:0:0:
392,85,94635,1,0,3:0:0:0:
393,74,94689,1,8,0:0:0:0:
394,63,94742,1,0,3:0:0:0:
395,52,94796,2,0,B|284:33,1,101.999996887207,0|0,3:0|3:0,0:0:0:0:
79,243,95010,6,0,B|196:286|246:166|246:166,1,187.000005706787,6|8,3:2|0:0,0:0:0:0:
136,156,95332,1,0,3:0:0:0:
253,293,95439,5,0,3:0:0:0:
327,237,95546,1,0,3:0:0:0:
320,143,95653,1,8,0:0:0:0:
234,106,95760,1,0,3:0:0:0:
406,185,95867,6,0,B|450:169|514:164|514:164,1,93.5000028533936,6|0,3:2|3:0,0:0:0:0:
253,293,96082,1,8,0:0:0:0:
320,143,96189,2,0,B|284:197|284:197|232:229|170:184|170:184,1,187.000005706787,6|0,3:2|3:0,0:0:0:0:
350,26,96510,2,0,B|399:55|391:111|391:111,1,93.5000028533936,14|0,0:0|3:0,0:0:0:0:
397,340,96724,5,0,3:0:0:0:
363,306,96832,1,0,3:0:0:0:
359,260,96939,1,8,0:0:0:0:
383,220,97046,1,0,3:0:0:0:
455,277,97153,5,0,3:0:0:0:
358,140,97260,1,0,3:0:0:0:
497,98,97367,2,0,B|505:30|515:-5|515:-5,1,93.5000028533936,8|0,0:0|3:0,0:0:0:0:
469,201,97582,5,6,3:2:0:0:
380,55,97689,1,2,3:2:0:0:
469,201,97796,2,0,B|427:224|427:224|362:216,1,93.5000028533936,8|0,0:0|3:0,0:0:0:0:
204,183,98010,5,6,3:2:0:0:
242,337,98117,1,2,3:2:0:0:
204,183,98224,2,0,B|156:176|156:176|100:210,1,93.5000028533936,8|0,0:0|3:0,0:0:0:0:
326,373,98439,6,0,B|342:226|268:350|293:175|293:175,1,187.000005706787,6|8,3:2|0:0,0:0:0:0:
434,151,98760,1,0,3:0:0:0:
465,240,98867,2,0,B|399:252|365:207|365:207,1,93.5000028533936,0|0,3:0|3:0,0:0:0:0:
241,126,99082,1,8,0:0:0:0:
332,99,99189,1,0,3:0:0:0:
174,192,99296,6,0,B|119:175|62:170|62:170,1,93.5000028533936,6|0,3:2|3:0,0:0:0:0:
170,67,99510,1,8,0:0:0:0:
215,281,99617,2,0,B|262:241|278:199|278:199|267:164|240:125,1,187.000005706787,6|0,3:2|3:0,0:0:0:0:
82,265,99939,2,0,B|100:323|104:377|104:377,1,93.5000028533936,14|0,0:0|3:0,0:0:0:0:
366,326,100153,5,0,3:2:0:0:
387,285,100260,1,0,3:0:0:0:
378,240,100367,1,8,0:0:0:0:
341,213,100474,1,0,3:0:0:0:
273,267,100582,5,0,3:0:0:0:
260,185,100689,1,0,3:0:0:0:
196,308,100796,1,8,0:0:0:0:
174,175,100903,1,0,3:0:0:0:
108,339,101010,6,0,L|97:391,3,46.7500014266968,6|0|2|0,3:2|3:0|3:2|3:0,0:0:0:0:
90,251,101224,1,10,0:0:0:0:
80,252,101278,1,8,0:0:0:0:
70,253,101332,1,2,3:2:0:0:
60,254,101385,1,0,3:0:0:0:
50,255,101439,2,0,L|-10:262,3,46.7500014266968,2|0|10|0,3:2|3:0|0:0|3:0,0:0:0:0:
89,164,101653,1,2,3:2:0:0:
85,135,101707,1,0,3:0:0:0:
81,107,101760,1,2,3:2:0:0:
77,78,101814,1,0,3:0:0:0:
73,50,101867,6,0,B|125:180|234:108|234:108,1,191.250007295609,6|0,3:2|0:0,0:0:0:0:
301,25,102082,2,0,B|256:65|256:65|245:147|292:209,1,191.250007295609,6|0,3:2|0:0,0:0:0:0:
359,310,102296,2,0,B|307:180|197:251|197:251,1,191.250007295609,6|0,3:2|0:0,0:0:0:0:
172,358,102510,2,0,B|205:210|137:316|158:164|158:164,1,191.250007295609,6|0,3:2|0:0,0:0:0:0:
146,82,102724,1,6,3:2:0:0:
55,315,102939,5,0,3:0:0:0:
82,353,102992,1,0,0:0:0:0:
127,369,103046,1,0,3:0:0:0:
173,358,103099,1,0,3:0:0:0:
206,323,103153,1,14,0:0:0:0:
491,66,103582,6,0,B|362:96|424:211|424:211,1,191.250007295609,6|0,3:2|0:0,0:0:0:0:
512,210,103796,2,0,B|385:196|469:278|322:252|322:252,1,191.250007295609,6|0,3:2|0:0,0:0:0:0:
306,323,104010,2,0,B|278:271|278:271|317:200|281:146,1,191.250007295609,6|0,3:2|0:0,0:0:0:0:
200,115,104224,2,0,B|235:98|271:102|271:102|296:126|296:126|341:129|378:114,1,191.250007295609,6|0,3:2|0:0,0:0:0:0:
454,91,104439,1,6,3:2:0:0:
457,315,104653,5,0,3:0:0:0:
430,353,104707,1,0,0:0:0:0:
385,369,104760,1,0,3:0:0:0:
339,358,104814,1,0,3:0:0:0:
306,323,104867,1,14,0:0:0:0:
271,89,105082,1,8,0:0:0:0:
341,174,105189,1,8,0:0:0:0:
228,194,105296,6,0,B|184:195|132:180|132:180,1,85,6|0,3:2|3:0,0:0:0:0:
176,329,105510,1,0,3:0:0:0:
101,275,105617,2,0,B|62:253|24:214|24:214,1,85,2|8,3:2|0:0,0:0:0:0:
197,25,105832,1,0,3:0:0:0:
128,79,105939,2,0,B|90:101|37:114|37:114,1,85,2|0,3:2|3:0,0:0:0:0:
215,257,106153,5,14,0:0:0:0:
284,289,106260,1,0,3:0:0:0:
305,215,106367,1,0,3:0:0:0:
234,179,106474,5,6,3:2:0:0:
384,254,106582,1,8,0:0:0:0:
470,113,106689,1,0,3:0:0:0:
377,78,106796,6,0,L|406:190,1,101.999996887207,6|0,3:2|3:0,0:0:0:0:
415,360,107010,5,14,0:0:0:0:
376,372,107117,1,0,3:0:0:0:
336,360,107224,1,0,3:0:0:0:
304,333,107332,1,0,3:0:0:0:
384,254,107439,5,14,0:0:0:0:
332,241,107546,1,0,3:0:0:0:
294,202,107653,1,0,3:0:0:0:
276,151,107760,1,0,3:0:0:0:
168,318,107867,5,14,0:0:0:0:
130,246,107974,1,0,3:0:0:0:
135,164,108082,1,0,3:0:0:0:
173,93,108189,1,0,3:0:0:0:
210,252,108296,5,14,0:0:0:0:
59,204,108403,1,0,3:0:0:0:
173,93,108510,1,0,3:0:0:0:
100,49,108617,1,0,3:0:0:0:
173,12,108725,5,6,3:2:0:0:
173,12,109153,1,0,3:0:0:0:
173,12,109582,1,0,3:0:0:0:
327,208,109903,6,0,L|380:197,2,46.7500014266968,8|8|10,0:0|0:0|0:0,0:0:0:0:
303,112,110117,1,10,0:0:0:0:
303,112,110171,1,8,0:0:0:0:
303,112,110224,2,0,L|200:137,1,93.5000028533936,10|8,0:0|0:0,0:0:0:0:
18,221,110439,5,6,3:2:0:0:
69,221,110546,1,0,3:0:0:0:
110,190,110653,1,8,0:0:0:0:
123,137,110760,1,0,3:0:0:0:
46,147,110867,5,2,3:2:0:0:
133,259,110974,1,0,3:0:0:0:
274,243,111082,1,8,0:0:0:0:
326,110,111189,1,0,3:0:0:0:
253,127,111296,5,6,3:2:0:0:
278,170,111403,1,0,3:0:0:0:
326,186,111510,1,8,0:0:0:0:
378,171,111617,1,0,3:0:0:0:
326,110,111724,5,2,3:2:0:0:
274,243,111832,1,0,3:0:0:0:
363,352,111939,1,8,0:0:0:0:
504,327,112046,1,0,3:0:0:0:
425,294,112153,6,0,B|320:300|225:334|225:334,1,203.999993774414,6|10,3:2|0:0,0:0:0:0:
83,223,112474,1,0,3:0:0:0:
107,145,112582,2,0,B|159:150|207:160|207:160,1,101.999996887207,2|0,3:2|3:0,0:0:0:0:
246,235,112796,1,10,0:0:0:0:
164,231,112903,1,0,3:0:0:0:
285,161,113010,5,6,3:2:0:0:
176,315,113117,1,0,3:0:0:0:
107,145,113224,2,0,B|93:93|93:93|97:73|118:40,1,101.999996887207,10|0,0:0|3:0,0:0:0:0:
164,231,113439,5,6,3:2:0:0:
30,170,113546,1,2,3:2:0:0:
184,104,113653,2,0,B|231:98|285:86|285:86,1,101.999996887207,10|0,0:0|3:0,0:0:0:0:
441,314,113867,6,0,B|360:198|264:257|264:257,1,203.999993774414,6|10,3:2|0:0,0:0:0:0:
217,325,114189,1,0,3:0:0:0:
186,243,114296,1,2,3:2:0:0:
241,176,114403,1,0,3:0:0:0:
265,256,114510,6,0,P|292:281|301:310,1,50.9999984436036,14|0,0:0|0:0,0:0:0:0:
162,163,114617,2,0,P|169:138|185:119,1,50.9999984436036,2|0,0:0|0:0,0:0:0:0:
125,298,114724,6,0,B|21:228|47:108|47:108,1,203.999993774414,6|10,3:2|0:0,0:0:0:0:
57,35,115046,1,0,3:0:0:0:
124,87,115153,1,2,3:2:0:0:
46,122,115260,1,0,3:0:0:0:
57,35,115367,6,0,P|97:17|114:0,1,50.9999984436036,14|0,0:0|0:0,0:0:0:0:
162,163,115474,2,0,P|186:171|207:185,1,50.9999984436036,2|0,0:0|0:0,0:0:0:0:
291,36,115582,6,0,B|346:169|241:87|319:241|319:241,1,203.999993774414,6|8,3:2|0:0,0:0:0:0:
391,346,115903,1,6,3:2:0:0:
436,273,116010,2,0,B|453:220|453:220|444:196|420:171|420:171,1,101.999996887207,2|0,3:2|3:0,0:0:0:0:
231,274,116224,2,0,B|216:327|216:327|225:351|247:376|247:376,1,101.999996887207,10|0,0:0|3:0,0:0:0:0:
482,118,116439,5,6,3:2:0:0:
445,101,116492,1,0,3:0:0:0:
403,102,116546,1,0,3:0:0:0:
368,122,116599,1,0,3:0:0:0:
349,158,116653,1,10,0:0:0:0:
323,190,116707,1,8,0:0:0:0:
285,205,116760,1,2,3:2:0:0:
243,205,116814,1,0,3:0:0:0:
209,181,116867,1,2,3:2:0:0:
192,143,116921,1,0,3:0:0:0:
190,102,116974,6,0,B|183:89|184:75|184:75|202:46,1,50.9999984436036,14|0,0:0|3:0,0:0:0:0:
272,123,117082,2,0,B|291:168|280:202|280:202|296:214|296:214|288:250|300:289,1,178.499994552612,6|0,3:2|0:0,0:0:0:0:
317,307,117296,6,0,B|263:293|207:287|207:287,1,110.499994941712,6|0,3:2|3:0,0:0:0:0:
81,184,117510,1,10,0:0:0:0:
142,234,117617,1,0,3:0:0:0:
74,260,117724,5,2,3:2:0:0:
152,160,117832,1,0,3:0:0:0:
132,311,117939,1,10,0:0:0:0:
14,211,118046,1,0,3:0:0:0:
195,77,118153,6,0,B|249:91|305:97|305:97,1,110.499994941712,6|0,3:2|3:0,0:0:0:0:
431,198,118367,1,10,0:0:0:0:
371,150,118474,1,0,3:0:0:0:
441,123,118582,5,2,3:2:0:0:
359,225,118689,1,0,3:0:0:0:
381,74,118796,1,10,0:0:0:0:
504,171,118903,1,0,3:0:0:0:
396,309,119010,6,0,B|269:361|205:240|205:240,1,220.999989883423,6|10,3:2|0:0,0:0:0:0:
98,62,119332,1,0,3:0:0:0:
155,152,119439,1,0,3:0:0:0:
79,136,119546,1,0,3:0:0:0:
169,77,119653,2,0,B|231:84|284:108|284:108,1,110.499994941712,10|0,0:0|3:0,0:0:0:0:
427,265,119867,5,6,3:2:0:0:
225,218,119974,1,2,3:2:0:0:
352,52,120082,2,0,B|370:98|370:98|366:132|350:163,1,110.499994941712,10|0,0:0|3:0,0:0:0:0:
241,341,120296,5,6,3:2:0:0:
275,104,120403,1,2,3:2:0:0:
334,236,120510,2,0,L|182:210,1,110.499994941712,10|0,0:2|3:0,0:0:0:0:
92,52,120724,5,6,3:2:0:0:
137,80,120832,1,0,3:0:0:0:
152,133,120939,1,10,0:0:0:0:
130,184,121046,1,0,3:0:0:0:
68,130,121153,5,2,3:2:0:0:
213,31,121260,1,0,3:0:0:0:
345,148,121367,1,10,0:0:0:0:
197,245,121474,1,0,3:0:0:0:
222,165,121582,5,6,3:2:0:0:
267,197,121689,1,0,3:0:0:0:
281,251,121796,1,10,0:0:0:0:
259,302,121903,1,0,3:0:0:0:
197,245,122010,5,2,3:2:0:0:
345,148,122117,1,0,3:0:0:0:
475,264,122224,1,10,0:0:0:0:
326,361,122332,1,0,3:0:0:0:
337,255,122439,6,0,B|290:210|222:176|222:176|123:175|86:298,1,318.750012159348,6|0,3:2|0:0,0:0:0:0:
200,358,122760,2,0,B|231:170|113:293|198:38|198:38,1,318.750012159348,6|0,3:2|0:0,0:0:0:0:
119,2,123082,2,0,B|166:120|289:67|289:67,1,191.250007295609,6|0,3:2|0:0,0:0:0:0:
400,31,123296,6,0,B|327:21|263:50|263:50|253:91|253:91|213:117|107:130,1,318.750012159348,6|0,3:2|0:0,0:0:0:0:
113,142,123617,2,0,B|187:139|251:168|251:168|261:209|261:209|301:235|413:245,1,318.750012159348,6|0,3:2|0:0,0:0:0:0:
387,224,123939,2,0,B|340:243|340:243|324:320|372:382,1,191.250007295609,6|0,3:2|0:0,0:0:0:0:
488,278,124153,6,0,B|488:220|462:174|428:144|428:144|360:147|317:92|332:26|332:26|244:16|172:60|164:135|164:135|200:190|192:268|141:313|141:313|68:313|12:265|3:180,1,951.999970947267,6|6,3:2|3:2,0:0:0:0:
197,308,126724,6,0,B|289:288|360:336|360:336,1,170,6|2,0:0|0:0,0:0:0:0:
360,336,127582,6,0,B|347:257|406:204|406:204,1,127.5,6|0,3:2|0:0,0:0:0:0:
376,200,128010,2,0,B|409:162|454:159|454:159,1,85,6|0,0:0|0:0,0:0:0:0:
449,281,128332,1,0,3:0:0:0:
293,254,128439,2,0,B|231:179|264:83|264:83,1,170,6|0,3:2|0:0,0:0:0:0:
261,93,129296,6,0,B|205:91|177:81|177:81,1,85,6|0,3:2|0:0,0:0:0:0:
50,202,129724,2,0,B|87:200|140:213|140:213,1,85,0|0,0:0|0:0,0:0:0:0:
204,281,130046,1,0,1:0:0:0:
204,281,130153,5,14,0:0:0:0:
116,298,130367,1,0,3:0:0:0:
213,195,130582,1,0,3:0:0:0:
265,356,130796,1,0,3:0:0:0:
60,100,131010,6,0,B|181:139|247:34|247:34,1,191.250007295609,6|0,3:2|0:0,0:0:0:0:
265,41,131439,2,0,B|257:70|258:105|258:105,1,63.7500024318696,2|0,3:2|0:0,0:0:0:0:
255,195,131653,1,2,3:2:0:0:
255,195,131760,1,0,3:0:0:0:
333,149,131867,6,0,B|432:119|432:119|484:124|517:155,1,191.250007295609,14|0,0:0|0:0,0:0:0:0:
439,213,132296,2,0,L|427:286,1,63.7500024318696,6|0,0:0|0:0,0:0:0:0:
426,371,132510,1,0,3:0:0:0:
120,73,132724,6,0,B|131:137|131:137|121:156|121:156|137:259,1,191.250007295609,6|0,3:2|0:0,0:0:0:0:
37,344,133153,2,0,B|112:250|221:315|221:315,1,191.250007295609,6|0,0:0|0:0,0:0:0:0:
283,370,133582,6,0,B|316:184|211:338|266:100|266:100,1,255.000009727478,6|2,0:0|0:0,0:0:0:0:
261,122,134439,6,0,B|234:206|136:199|136:199,1,152.999995330811,6|0,3:2|0:0,0:0:0:0:
322,51,134760,2,0,B|381:116|326:197|326:197,1,152.999995330811,6|0,3:2|0:0,0:0:0:0:
423,67,135082,2,0,B|468:71|491:103|491:103,1,76.4999976654053,6|0,3:2|0:0,0:0:0:0:
345,321,135296,6,0,B|276:337|276:337|234:301|234:230,1,152.999995330811,6|0,3:2|0:0,0:0:0:0:
506,206,135617,2,0,B|515:239|498:288|498:288|424:305,1,152.999995330811,6|0,3:2|0:0,0:0:0:0:
358,161,135939,1,6,3:2:0:0:
358,161,136153,5,0,3:0:0:0:
276,191,136260,1,0,3:0:0:0:
285,107,136367,1,8,0:0:0:0:
211,142,136474,1,8,0:0:0:0:
215,62,136582,6,0,B|208:34|204:19|204:19,3,38.2499988327027,0|0|0|0,3:0|3:0|3:0|3:0,0:0:0:0:
201,227,136796,2,0,B|194:255|190:270|190:270,3,38.2499988327027,0|0|0|0,3:0|3:0|3:0|3:0,0:0:0:0:
129,135,137010,5,14,0:0:0:0:
116,132,137064,1,8,0:0:0:0:
105,130,137117,1,8,0:0:0:0:
94,129,137171,1,0,0:0:0:0:
82,127,137224,2,0,L|38:116,3,38.2499988327027,0|0|0|0,3:0|3:0|3:0|3:0,0:0:0:0:
115,221,137439,5,14,0:0:0:0:
102,218,137492,1,8,0:0:0:0:
91,216,137546,1,8,0:0:0:0:
80,215,137599,1,8,0:0:0:0:
68,213,137653,2,0,L|24:202,3,38.2499988327027,0|0|0|0,3:0|3:0|3:0|3:0,0:0:0:0:
98,307,137867,5,6,3:2:0:0:
27,79,151046,5,0,3:0:0:0:
27,79,151099,1,0,3:0:0:0:
27,79,151153,2,0,B|94:96|94:96|119:122|119:122|183:92|183:92|203:117|203:117|285:132,1,267.749991828919,6|0,3:2|0:0,0:0:0:0:
289,131,151582,5,6,3:2:0:0:
213,271,151796,1,8,0:0:0:0:
234,267,151849,1,8,0:0:0:0:
256,263,151903,1,0,3:0:0:0:
278,258,151957,1,0,3:0:0:0:
300,254,152010,2,0,L|360:243,3,38.2499988327027,0|0|8|8,3:0|3:0|0:0|0:0,0:0:0:0:
380,317,152224,2,0,L|440:305,3,38.2499988327027,8|0|0|0,0:0|3:0|3:0|3:0,0:0:0:0:
470,245,152439,5,0,3:0:0:0:
470,245,152492,1,0,3:0:0:0:
470,245,152546,2,0,L|482:152,1,76.4999976654053,0|0,1:0|1:0,0:0:0:0:
381,152,152760,1,0,1:0:0:0:
381,152,152814,1,0,1:0:0:0:
381,152,152867,2,0,L|393:59,1,76.4999976654053,0|0,1:0|1:0,0:0:0:0:
474,45,153082,1,8,0:0:0:0:
474,45,153189,1,8,0:0:0:0:
290,138,153296,6,0,B|154:180|135:37|135:37,1,187.000005706787,6|8,3:2|0:0,0:0:0:0:
240,60,153617,1,0,3:0:0:0:
166,228,153724,5,0,3:0:0:0:
74,204,153832,1,0,3:0:0:0:
62,111,153939,1,8,0:0:0:0:
142,64,154046,1,0,3:0:0:0:
74,204,154153,6,0,B|90:259|88:295|88:295,1,93.5000028533936,6|0,3:2|3:0,0:0:0:0:
184,317,154367,1,8,0:0:0:0:
3,142,154474,2,0,B|78:244|180:162|180:162,1,187.000005706787,6|0,3:2|3:0,0:0:0:0:
315,294,154796,2,0,B|292:248|240:231|240:231,1,93.5000028533936,12|0,0:0|0:0,0:0:0:0:
226,70,155010,5,0,3:2:0:0:
251,109,155117,1,0,3:0:0:0:
293,127,155224,1,8,0:0:0:0:
339,119,155332,1,0,3:0:0:0:
301,48,155439,5,0,3:0:0:0:
309,205,155546,1,0,3:0:0:0:
421,136,155653,2,0,B|483:115|517:107|517:107,1,93.5000028533936,8|0,0:0|3:0,0:0:0:0:
398,259,155867,5,6,3:2:0:0:
228,178,155974,1,2,0:0:0:0:
398,259,156082,2,0,B|412:307|412:307|383:370,1,93.5000028533936,8|0,0:0|3:0,0:0:0:0:
142,138,156296,5,6,3:2:0:0:
336,124,156403,1,2,0:0:0:0:
142,138,156510,2,0,B|131:181|131:181|157:249,1,93.5000028533936,8|0,0:0|3:0,0:0:0:0:
412,173,156724,6,0,B|437:132|431:93|431:93|414:73|414:73|411:37|436:1,1,187.000005706787,6|8,3:2|0:0,0:0:0:0:
339,213,157046,1,0,3:0:0:0:
336,124,157153,2,0,B|282:116|243:91|243:91,1,93.5000028533936,0|0,3:0|3:0,0:0:0:0:
22,122,157367,1,8,0:0:0:0:
70,253,157474,1,0,3:0:0:0:
126,45,157582,6,0,B|140:84|150:140|150:140,1,93.5000028533936,6|0,3:2|0:0,0:0:0:0:
180,260,157796,1,8,0:0:0:0:
81,173,157903,2,0,B|138:145|192:147|192:147|224:164|237:200,1,187.000005706787,6|0,3:2|3:0,0:0:0:0:
144,346,158224,2,0,B|105:332|49:322|49:322,1,93.5000028533936,14|0,0:0|3:0,0:0:0:0:
306,265,158439,5,0,3:2:0:0:
347,243,158546,1,0,3:0:0:0:
391,257,158653,1,8,0:0:0:0:
409,299,158760,1,0,3:0:0:0:
302,344,158867,5,0,3:0:0:0:
222,284,158974,1,0,3:0:0:0:
299,183,159082,1,8,0:0:0:0:
192,138,159189,1,0,3:0:0:0:
295,74,159296,6,0,L|285:18,3,46.7500014266968,6|0|2|0,3:2|3:0|3:2|3:0,0:0:0:0:
192,138,159510,1,10,0:0:0:0:
194,148,159564,1,8,0:0:0:0:
196,158,159617,1,2,3:2:0:0:
198,168,159671,1,0,3:0:0:0:
200,178,159724,2,0,L|210:232,3,46.7500014266968,2|0|8|0,3:2|3:0|0:0|3:0,0:0:0:0:
163,44,159939,1,2,3:2:0:0:
136,51,159992,1,0,3:0:0:0:
108,57,160046,1,2,3:2:0:0:
80,62,160099,1,0,3:0:0:0:
49,69,160153,6,0,B|21:167|21:167|29:183|29:183|7:262,1,191.250007295609,6|0,3:2|0:0,0:0:0:0:
15,338,160367,2,0,B|38:260|38:260|99:249|151:285,1,191.250007295609,6|0,3:2|0:0,0:0:0:0:
170,378,160582,2,0,B|198:280|198:280|190:264|190:264|212:185,1,191.250007295609,6|0,3:2|0:0,0:0:0:0:
153,102,160796,2,0,B|177:155|221:177|221:177|268:170|312:128,1,191.250007295609,6|0,3:2|0:0,0:0:0:0:
376,86,161010,1,6,3:2:0:0:
303,335,161224,5,0,3:0:0:0:
351,332,161278,1,0,3:0:0:0:
399,327,161332,1,0,3:0:0:0:
447,322,161385,1,0,3:0:0:0:
495,318,161439,1,14,0:0:0:0:
470,27,161867,6,0,B|413:58|413:58|385:121|427:201,1,191.250007295609,6|0,3:2|0:0,0:0:0:0:
505,202,162082,2,0,B|417:193|417:193|384:230|318:219,1,191.250007295609,6|0,3:2|0:0,0:0:0:0:
216,215,162296,2,0,P|292:226|302:134,1,191.250007295609,6|0,3:2|0:0,0:0:0:0:
200,135,162510,2,0,B|151:273|226:186|189:339|189:339,1,191.250007295609,6|0,3:2|0:0,0:0:0:0:
263,366,162724,1,6,3:2:0:0:
209,49,162939,5,0,3:0:0:0:
161,52,162992,1,0,3:0:0:0:
113,57,163046,1,0,3:0:0:0:
65,62,163099,1,0,3:0:0:0:
17,66,163153,1,14,0:0:0:0:
13,301,163367,1,8,0:0:0:0:
149,216,163474,1,8,0:0:0:0:
64,200,163582,6,0,B|82:252|91:292|91:292,1,85,6|0,3:2|3:0,0:0:0:0:
195,150,163796,1,0,3:0:0:0:
118,136,163903,2,0,B|63:125|24:113|24:113,1,85,2|8,3:2|0:0,0:0:0:0:
184,295,164117,1,0,3:0:0:0:
234,225,164224,2,0,B|270:183|300:155|300:155,1,85,2|0,3:2|3:0,0:0:0:0:
504,244,164439,6,0,B|478:306|468:345|468:345,1,101.999996887207,14|0,0:0|0:0,0:0:0:0:
399,269,164653,1,0,3:0:0:0:
354,76,164760,2,0,B|409:67|464:49|464:49,1,101.999996887207,2|8,3:2|0:0,0:0:0:0:
424,171,164974,1,0,3:0:0:0:
288,272,165082,2,0,B|255:227|212:194|212:194,1,101.999996887207,10|0,0:0|3:0,0:0:0:0:
104,114,165296,5,6,3:2:0:0:
94,256,165403,1,10,0:2:0:0:
217,198,165510,1,2,3:2:0:0:
140,190,165617,1,2,3:2:0:0:
184,122,165724,5,10,0:2:0:0:
171,263,165832,1,2,3:2:0:0:
61,184,165939,1,10,0:2:0:0:
261,131,166046,1,2,0:0:0:0:
215,333,166153,6,0,L|274:341,3,50.9999984436036,6|0|10|8,3:2|3:0|0:0|0:0,0:0:0:0:
296,261,166367,2,0,L|351:283,3,50.9999984436036,8|8|2|0,0:0|0:0|3:2|3:0,0:0:0:0:
394,191,166582,1,0,3:0:0:0:
398,199,166635,1,0,3:0:0:0:
402,208,166689,1,8,0:0:0:0:
406,216,166742,1,0,3:0:0:0:
411,224,166796,2,0,L|427:344,1,101.999996887207,0|0,3:0|3:0,0:0:0:0:
171,263,167010,6,0,B|130:218|130:218|120:156|170:79,1,187.000005706787,6|8,3:2|0:0,0:0:0:0:
336,137,167332,1,0,3:0:0:0:
220,32,167439,5,0,3:0:0:0:
245,121,167546,1,0,3:0:0:0:
336,137,167653,1,8,0:0:0:0:
400,69,167760,1,0,3:0:0:0:
271,216,167867,6,0,B|240:204|177:192|177:192,1,93.5000028533936,6|0,3:2|3:0,0:0:0:0:
360,270,168082,1,8,0:0:0:0:
192,292,168189,2,0,B|102:218|158:120|158:120,1,187.000005706787,6|0,3:2|3:0,0:0:0:0:
302,50,168510,2,0,B|337:48|396:26|396:26,1,93.5000028533936,14|0,0:0|3:0,0:0:0:0:
475,192,168724,5,0,3:0:0:0:
448,230,168832,1,0,3:0:0:0:
401,236,168939,1,8,0:0:0:0:
361,211,169046,1,0,3:0:0:0:
360,131,169153,5,0,3:0:0:0:
298,270,169260,1,0,3:0:0:0:
215,162,169367,2,0,B|207:113|189:72|189:72,1,93.5000028533936,8|0,0:0|3:0,0:0:0:0:
31,105,169582,5,6,3:2:0:0:
61,238,169689,1,2,3:2:0:0:
31,105,169796,2,0,B|71:102|71:102|93:105|123:134,1,93.5000028533936,8|0,0:0|3:0,0:0:0:0:
387,292,170010,5,6,3:2:0:0:
359,162,170117,1,2,3:2:0:0:
387,292,170224,2,0,B|347:295|347:295|325:292|295:263,1,93.5000028533936,8|0,0:0|3:0,0:0:0:0:
192,340,170439,6,0,B|212:295|211:257|211:257|200:238|200:238|194:208|223:141,1,187.000005706787,6|8,3:2|0:0,0:0:0:0:
163,83,170760,1,0,3:0:0:0:
26,186,170867,5,0,3:0:0:0:
84,258,170974,1,0,3:0:0:0:
177,247,171082,1,8,0:0:0:0:
214,161,171189,1,0,3:0:0:0:
71,104,171296,6,0,B|125:92|166:82|166:82,1,93.5000028533936,6|0,3:2|3:0,0:0:0:0:
262,29,171510,1,8,0:0:0:0:
103,12,171617,2,0,B|260:54|95:71|265:123|265:123,1,187.000005706787,6|0,3:2|3:0,0:0:0:0:
177,247,171939,2,0,B|152:210|152:210|165:152,1,93.5000028533936,14|0,0:0|3:0,0:0:0:0:
378,20,172153,5,0,3:2:0:0:
413,49,172260,1,0,3:0:0:0:
423,94,172367,1,8,0:0:0:0:
411,139,172474,1,0,3:0:0:0:
348,194,172582,5,0,3:0:0:0:
425,221,172689,1,0,3:0:0:0:
306,263,172796,1,8,0:0:0:0:
429,302,172903,1,0,3:0:0:0:
354,328,173010,6,0,L|331:391,3,46.7500014266968,6|0|2|0,3:2|3:0|3:2|3:0,0:0:0:0:
429,302,173224,1,10,0:0:0:0:
436,308,173278,1,8,0:0:0:0:
443,314,173332,1,2,3:2:0:0:
449,320,173385,1,0,3:0:0:0:
455,326,173439,2,0,L|505:370,3,46.7500014266968,2|0|10|0,3:2|3:0|0:0|3:0,0:0:0:0:
479,241,173653,1,2,3:2:0:0:
485,213,173707,1,0,3:0:0:0:
492,186,173760,1,2,3:2:0:0:
499,158,173814,1,0,3:0:0:0:
507,127,173867,6,0,B|441:129|395:169|395:169|341:92,1,191.250007295609,6|0,3:2|0:0,0:0:0:0:
296,31,174082,2,0,B|334:86|334:86|340:152|288:196,1,191.250007295609,6|0,3:2|0:0,0:0:0:0:
208,203,174296,2,0,B|282:218|282:218|293:240|293:240|383:253,1,191.250007295609,6|0,3:2|0:0,0:0:0:0:
435,338,174510,2,0,L|413:111,1,191.250007295609,6|0,3:2|0:0,0:0:0:0:
409,57,174724,1,6,3:2:0:0:
86,240,174939,5,0,3:0:0:0:
62,199,174992,1,0,0:0:0:0:
67,151,175046,1,0,3:0:0:0:
96,114,175099,1,0,3:0:0:0:
142,99,175153,1,14,0:0:0:0:
17,325,175582,6,0,B|64:287|137:282|137:282|186:337,1,191.250007295609,6|0,3:2|0:0,0:0:0:0:
282,349,175796,2,0,P|199:329|228:250,1,191.250007295609,6|0,3:2|0:0,0:0:0:0:
325,217,176010,2,0,B|293:193|240:194|240:194|223:211|223:211|190:219|125:194,1,191.250007295609,6|0,3:2|0:0,0:0:0:0:
97,99,176224,2,0,B|149:231|52:152|104:289|104:289,1,191.250007295609,6|0,3:2|0:0,0:0:0:0:
125,380,176439,1,6,3:2:0:0:
426,240,176653,5,0,3:0:0:0:
450,199,176707,1,0,0:0:0:0:
445,151,176760,1,0,3:0:0:0:
416,114,176814,1,0,3:0:0:0:
370,99,176867,1,14,0:0:0:0:
223,341,177082,1,8,0:0:0:0:
286,281,177189,1,8,0:0:0:0:
205,259,177296,6,0,B|198:214|185:175|185:175,1,85,6|0,3:2|3:0,0:0:0:0:
321,164,177510,1,0,3:0:0:0:
242,109,177617,2,0,B|202:92|158:89|158:89,1,85,2|8,3:2|0:0,0:0:0:0:
129,319,177832,1,0,3:0:0:0:
223,341,177939,2,0,B|263:358|307:361|307:361,1,85,2|0,3:2|3:0,0:0:0:0:
479,110,178153,5,14,0:0:0:0:
410,78,178260,1,0,3:0:0:0:
389,152,178367,1,0,3:0:0:0:
463,188,178474,5,6,3:2:0:0:
273,180,178582,1,8,0:0:0:0:
305,360,178689,1,0,3:0:0:0:
383,289,178796,6,0,B|328:278|277:262|277:262,1,101.999996887207,6|0,3:2|3:0,0:0:0:0:
61,202,179010,5,14,0:0:0:0:
90,173,179117,1,0,3:0:0:0:
128,160,179224,1,0,3:0:0:0:
168,169,179332,1,0,3:0:0:0:
129,47,179439,5,14,0:0:0:0:
180,45,179546,1,0,3:0:0:0:
222,74,179653,1,0,3:0:0:0:
239,120,179760,1,0,3:0:0:0:
287,13,179867,5,14,0:0:0:0:
345,67,179974,1,0,3:0:0:0:
361,149,180082,1,0,3:0:0:0:
329,223,180189,1,0,3:0:0:0:
468,141,180296,5,14,0:0:0:0:
445,240,180403,1,0,3:0:0:0:
362,312,180510,1,0,3:0:0:0:
258,324,180617,1,0,3:0:0:0:
233,219,180724,5,14,0:0:0:0:
239,243,180832,1,0,3:0:0:0:
215,252,180939,1,0,3:0:0:0:
205,228,181046,1,0,3:0:0:0:
336,124,181153,5,14,0:0:0:0:
350,172,181260,1,0,3:0:0:0:
303,189,181367,1,0,3:0:0:0:
284,143,181474,1,0,3:0:0:0:
485,41,181582,5,14,0:0:0:0:
510,119,181689,1,0,3:0:0:0:
434,149,181796,1,0,3:0:0:0:
404,73,181903,1,0,3:0:0:0:
485,41,182010,5,14,0:0:0:0:
501,202,182117,1,0,3:0:0:0:
346,136,182224,1,0,3:0:0:0:
374,280,182332,1,0,3:0:0:0:
434,149,182439,5,6,3:2:0:0:
243,329,182653,5,2,0:0:0:0:
191,263,182760,1,2,0:0:0:0:
274,254,182867,2,0,B|269:276|263:298|263:298,1,42.5,2|0,0:0|0:0,0:0:0:0:
52,205,183082,5,2,0:0:0:0:
163,188,183189,1,2,0:0:0:0:
118,291,183296,2,0,B|94:270|74:248|74:248,1,59.4999981842042,2|0,0:0|0:0,0:0:0:0:
249,82,183510,5,2,0:0:0:0:
163,188,183617,1,2,0:0:0:0:
114,46,183724,2,0,B|151:33|192:22|192:22,1,76.4999976654053,2|0,0:0|0:0,0:0:0:0:
354,196,183939,5,2,0:0:0:0:
161,112,184046,1,2,0:0:0:0:
313,24,184153,2,0,B|327:66|339:122|339:122,1,93.5000028533936,6|0,3:2|3:0,0:0:0:0:
380,365,184367,1,10,0:0:0:0:
124,283,184474,1,10,0:0:0:0:
284,257,184582,6,0,B|310:263|342:269|342:269,3,46.7500014266968,6|0|0|0,3:2|3:0|3:0|3:0,0:0:0:0:
211,215,184796,2,0,B|185:209|153:203|153:203,3,46.7500014266968,0|0|0|0,3:0|3:0|3:0|3:0,0:0:0:0:
288,177,185010,5,14,0:0:0:0:
294,154,185064,1,8,0:0:0:0:
300,131,185117,1,8,0:0:0:0:
306,108,185171,1,8,0:0:0:0:
312,85,185224,2,0,B|356:103|399:108|399:108,3,46.7500014266968,2|0|2|0,3:2|3:0|3:2|3:0,0:0:0:0:
331,244,185439,5,14,0:0:0:0:
308,250,185492,1,8,0:0:0:0:
285,256,185546,1,8,0:0:0:0:
262,262,185599,1,8,0:0:0:0:
239,269,185653,2,0,B|232:221|211:178|211:178,1,93.5000028533936,0|0,3:0|3:0,0:0:0:0:
208,74,185867,5,2,0:0:0:0:
256,192,185921,12,0,187260,0:0:0:0:
403,161,187367,6,0,B|461:284|334:312|334:312,1,187.000005706787,6|0,3:2|0:0,0:0:0:0:
208,330,187689,1,0,3:0:0:0:
182,291,187796,1,8,0:0:0:0:
220,264,187903,1,0,3:0:0:0:
272,372,188010,5,0,3:0:0:0:
133,351,188117,1,0,3:0:0:0:
155,213,188224,1,8,0:0:0:0:
293,236,188332,1,0,3:0:0:0:
110,275,188439,6,0,B|126:188|134:82|134:82,1,187.000005706787,6|8,3:2|0:0,0:0:0:0:
325,101,188760,1,0,3:0:0:0:
250,39,188867,2,0,B|212:76|232:134|232:134,1,93.5000028533936,6|0,3:2|3:0,0:0:0:0:
355,299,189082,2,0,B|382:262|382:262|373:204|373:204,1,93.5000028533936,10|0,0:0|3:0,0:0:0:0:
430,33,189296,5,6,3:2:0:0:
440,116,189403,1,0,3:0:0:0:
356,126,189510,1,8,0:0:0:0:
344,42,189617,1,0,3:0:0:0:
374,214,189724,6,0,B|326:204|269:198|269:198,1,93.5000028533936,6|0,3:2|3:0,0:0:0:0:
136,289,189939,1,10,0:0:0:0:
136,289,190046,1,0,3:0:0:0:
204,206,190153,6,0,B|218:263|239:307|239:307,1,93.5000028533936,6|0,3:2|3:0,0:0:0:0:
24,246,190367,2,0,B|76:113|-9:189|45:61|45:61,1,187.000005706787,14|0,0:0|3:0,0:0:0:0:
193,34,190689,1,0,3:0:0:0:
113,116,190796,2,0,B|151:136|151:136|180:134|199:123,1,93.5000028533936,14|0,0:0|3:0,0:0:0:0:
383,249,191010,5,2,3:2:0:0:
301,265,191117,1,2,3:2:0:0:
326,183,191224,1,10,0:0:0:0:
358,330,191332,1,2,3:2:0:0:
407,169,191439,2,0,B|462:158|507:155|507:155,1,93.5000028533936,2|0,3:2|3:0,0:0:0:0:
242,203,191653,2,0,B|187:214|142:217|142:217,1,93.5000028533936,10|0,0:0|3:0,0:0:0:0:
437,314,191867,6,0,B|465:335|480:343|480:343,3,46.7500014266968,6|0|0|0,3:2|3:0|3:0|3:0,0:0:0:0:
276,344,192082,2,0,B|258:366|243:381|243:381,3,46.7500014266968,8|8|0|0,0:0|0:0|3:0|3:0,0:0:0:0:
345,277,192296,1,0,3:0:0:0:
340,254,192349,1,0,3:0:0:0:
335,230,192403,1,8,0:0:0:0:
330,206,192457,1,0,3:0:0:0:
325,183,192510,2,0,B|316:137|301:81|301:81,1,93.5000028533936,0|0,3:0|3:0,0:0:0:0:
81,355,192724,6,0,B|41:311|41:311|25:250|74:192,1,187.000005706787,6|8,3:2|0:0,0:0:0:0:
94,110,193046,1,0,3:0:0:0:
241,187,193153,5,6,3:2:0:0:
226,269,193260,1,0,3:0:0:0:
143,253,193367,1,8,0:0:0:0:
159,170,193474,1,0,3:0:0:0:
247,360,193582,6,0,B|205:353|153:378|153:378,1,93.5000028533936,6|0,3:2|3:0,0:0:0:0:
345,223,193796,2,0,B|467:269|494:141|494:141,1,187.000005706787,14|0,0:0|3:0,0:0:0:0:
311,118,194117,1,0,3:0:0:0:
265,276,194224,2,0,B|259:227|238:180|238:180,1,93.5000028533936,14|0,0:0|3:0,0:0:0:0:
391,69,194439,5,0,3:2:0:0:
416,108,194546,1,0,3:0:0:0:
374,127,194653,1,8,0:0:0:0:
353,85,194760,1,0,3:0:0:0:
468,51,194867,5,0,3:0:0:0:
426,185,194974,1,0,3:0:0:0:
293,142,195082,1,8,0:0:0:0:
337,9,195189,1,0,3:0:0:0:
344,210,195296,6,0,B|239:124|277:252|172:146|172:146,1,187.000005706787,6|8,3:2|0:0,0:0:0:0:
76,81,195617,1,0,3:0:0:0:
107,232,195724,2,0,B|103:96|181:205|162:57|162:57,1,187.000005706787,6|8,3:2|0:0,0:0:0:0:
252,94,196046,1,0,3:0:0:0:
200,264,196153,2,0,B|177:328|175:357|175:357,1,93.5000028533936,6|0,3:2|3:0,0:0:0:0:
401,285,196367,5,8,0:0:0:0:
441,211,196474,1,0,3:0:0:0:
369,169,196582,1,0,3:0:0:0:
327,241,196689,1,0,3:0:0:0:
463,122,196796,1,8,0:0:0:0:
330,56,196903,1,0,3:0:0:0:
441,211,197010,6,0,B|476:242|505:280|505:280,1,93.5000028533936,6|0,3:2|3:0,0:0:0:0:
408,10,197224,2,0,B|354:117|241:68|241:68,1,187.000005706787,14|0,0:0|3:0,0:0:0:0:
164,57,197546,1,0,3:0:0:0:
309,210,197653,2,0,B|260:197|199:193|199:193,1,93.5000028533936,14|0,0:0|3:0,0:0:0:0:
28,208,197867,5,2,3:2:0:0:
149,145,197974,1,2,3:2:0:0:
21,123,198082,1,10,0:2:0:0:
114,225,198189,1,2,3:2:0:0:
94,83,198296,2,0,B|199:132|265:45|265:45,1,187.000005706787,2|8,3:2|0:0,0:0:0:0:
216,194,198617,5,0,3:0:0:0:
214,203,198671,1,0,3:0:0:0:
212,212,198724,2,0,L|200:271,3,46.7500014266968,14|8|0|0,0:0|0:0|3:0|3:0,0:0:0:0:
114,225,198939,2,0,L|133:282,3,46.7500014266968,8|8|0|0,0:0|0:0|3:0|3:0,0:0:0:0:
29,271,199153,1,0,3:0:0:0:
45,294,199207,1,0,3:0:0:0:
60,316,199260,1,8,0:0:0:0:
76,339,199314,1,0,3:0:0:0:
91,361,199367,2,0,B|142:369|183:380|183:380,1,93.5000028533936,0|0,3:0|3:0,0:0:0:0:
490,262,199582,6,0,B|447:260|415:283|415:283|368:268|368:268|348:287|302:289,1,187.000005706787,6|8,3:2|0:0,0:0:0:0:
437,180,199903,1,0,3:0:0:0:
402,101,200010,2,0,B|363:120|348:156|348:156|299:164|299:164|290:193|252:218,1,187.000005706787,6|8,3:2|0:0,0:0:0:0:
309,67,200332,1,0,3:0:0:0:
238,20,200439,2,0,B|221:41|212:67|212:67|233:120,1,93.5000028533936,6|0,3:2|3:0,0:0:0:0:
83,286,200653,2,0,B|99:264|109:238|109:238|88:185,1,93.5000028533936,10|0,0:0|3:0,0:0:0:0:
145,108,200867,1,0,3:0:0:0:
152,130,200921,1,0,3:0:0:0:
159,151,200974,1,0,3:0:0:0:
166,173,201028,1,0,3:0:0:0:
174,195,201082,6,0,B|282:145|338:248|338:248,1,187.000005706787,14|0,0:0|3:0,0:0:0:0:
476,214,201403,1,0,3:0:0:0:
450,131,201510,2,0,B|398:148|371:150|371:150,1,76.4999976654053,8|0,0:0|3:0,0:0:0:0:
204,336,201724,2,0,B|256:319|283:317|283:317,1,76.4999976654053,0|0,3:0|3:0,0:0:0:0:
458,300,201939,5,8,0:0:0:0:
416,363,202046,1,0,3:0:0:0:
360,310,202153,1,0,3:0:0:0:
403,247,202260,1,0,3:0:0:0:
285,219,202367,2,0,B|233:212|190:200|190:200,1,76.4999976654053,8|0,0:0|3:0,0:0:0:0:
378,117,202582,1,0,3:0:0:0:
396,112,202635,1,0,3:0:0:0:
414,107,202689,1,0,3:0:0:0:
432,103,202742,1,0,3:0:0:0:
450,99,202796,5,14,0:0:0:0:
209,204,203010,2,0,B|205:162|193:118|193:118,1,76.4999976654053,2|0,3:2|3:0,0:0:0:0:
114,101,203224,1,0,3:0:0:0:
172,45,203332,1,0,3:0:0:0:
127,188,203439,2,0,B|68:176|34:175|34:175,1,76.4999976654053,10|0,0:0|3:0,0:0:0:0:
89,26,203653,1,0,3:0:0:0:
33,89,203760,1,0,3:0:0:0:
172,45,203867,6,0,B|231:57|265:58|265:58,1,76.4999976654053,10|0,0:0|3:0,0:0:0:0:
155,266,204082,2,0,B|66:242|9:319|9:319,1,152.999995330811,0|8,3:0|0:0,0:0:0:0:
301,181,204403,1,0,3:0:0:0:
215,155,204510,2,0,B|224:206|231:236|231:236,1,76.4999976654053,2|0,3:2|3:0,0:0:0:0:
420,321,204724,6,0,B|473:296|473:296|499:222|454:148,1,187.000005706787,14|0,0:0|3:0,0:0:0:0:
345,31,205046,2,0,B|294:56|294:56|268:130|300:180,1,187.000005706787,6|0,3:2|3:0,0:0:0:0:
252,355,205367,1,6,3:2:0:0:
252,355,205582,5,14,0:0:0:0:
223,358,205635,1,0,3:0:0:0:
196,349,205689,1,0,3:0:0:0:
178,326,205742,1,0,3:0:0:0:
181,297,205796,1,10,0:0:0:0:
197,274,205849,1,8,0:0:0:0:
202,246,205903,1,2,3:2:0:0:
198,218,205957,1,0,3:0:0:0:
174,202,206010,1,0,3:0:0:0:
146,202,206064,1,0,3:0:0:0:
121,216,206117,1,8,0:0:0:0:
110,242,206171,1,0,3:0:0:0:
108,269,206224,2,0,B|105:295|97:320|97:320,3,46.7500014266968,2|0|0|0,3:2|3:0|3:0|3:0,0:0:0:0:
87,133,206439,6,0,B|174:92|220:125|220:125|267:183,1,187.000005706787,6|8,3:2|0:0,0:0:0:0:
364,75,206760,1,0,3:0:0:0:
277,54,206867,2,0,B|356:108|350:165|350:165|323:234,1,187.000005706787,6|8,3:2|0:0,0:0:0:0:
436,133,207189,1,0,3:0:0:0:
428,242,207296,2,0,B|408:284|396:346|396:346,1,93.5000028533936,6|0,3:2|3:0,0:0:0:0:
174,115,207510,2,0,B|194:73|206:11|206:11,1,93.5000028533936,10|0,0:0|3:0,0:0:0:0:
299,174,207724,1,0,3:0:0:0:
292,196,207778,1,0,3:0:0:0:
285,218,207832,1,0,3:0:0:0:
279,240,207885,1,0,3:0:0:0:
272,262,207939,6,0,B|183:273|87:293|87:293,1,187.000005706787,14|0,0:0|3:0,0:0:0:0:
150,188,208260,1,0,3:0:0:0:
59,192,208367,2,0,B|42:159|42:159|47:119,1,76.4999976654053,8|0,0:0|3:0,0:0:0:0:
213,298,208582,2,0,B|229:329|229:329|224:370,1,76.4999976654053,0|0,3:0|3:0,0:0:0:0:
338,184,208796,5,8,0:0:0:0:
378,119,208903,1,0,3:0:0:0:
315,75,209010,1,0,3:0:0:0:
273,139,209117,1,0,3:0:0:0:
413,189,209224,2,0,B|452:180|488:175|488:175,1,76.4999976654053,8|0,0:0|3:0,0:0:0:0:
239,69,209439,1,0,3:0:0:0:
220,72,209492,1,0,3:0:0:0:
201,75,209546,1,0,3:0:0:0:
182,78,209599,1,0,3:0:0:0:
163,81,209653,5,14,0:0:0:0:
273,311,209867,2,0,B|289:272|289:233|289:233,1,76.4999976654053,2|0,3:2|3:0,0:0:0:0:
238,169,210082,1,0,3:0:0:0:
204,242,210189,1,0,3:0:0:0:
322,143,210296,2,0,B|296:109|262:90|262:90,1,76.4999976654053,10|0,0:0|3:0,0:0:0:0:
188,100,210510,1,0,3:0:0:0:
238,169,210617,1,0,3:0:0:0:
292,7,210724,6,0,B|253:22|208:26|208:26,1,76.4999976654053,10|0,0:0|0:0,0:0:0:0:
12,172,210939,2,0,B|47:163|79:168|79:168|90:182|90:182|121:187|165:174,1,152.999995330811,2|8,3:2|0:0,0:0:0:0:
54,41,211260,1,0,3:0:0:0:
154,28,211367,2,0,B|137:75|134:101|134:101,1,76.4999976654053,2|0,3:2|3:0,0:0:0:0:
336,324,211582,6,0,B|235:242|277:353|149:271|149:271,1,187.000005706787,6|8,3:2|0:0,0:0:0:0:
265,380,211903,2,0,B|318:278|262:188|262:188,1,187.000005706787,6|0,3:2|3:2,0:0:0:0:
242,115,212224,1,14,0:0:0:0:
333,140,212332,5,0,3:0:0:0:
333,140,212385,1,0,3:0:0:0:
333,140,212439,2,0,B|361:141|381:134|381:134,3,46.7500014266968,8|8|8|8,0:0|0:0|0:0|0:0,0:0:0:0:
430,62,212653,1,0,3:0:0:0:
450,81,212707,1,0,3:0:0:0:
464,104,212760,1,0,3:0:0:0:
469,131,212814,1,0,3:0:0:0:
467,158,212867,1,0,3:0:0:0:
458,184,212921,1,0,3:0:0:0:
443,207,212974,1,8,0:0:0:0:
438,234,213028,1,0,3:0:0:0:
441,262,213082,1,6,3:2:0:0:
168,365,213296,6,0,B|142:358|132:358|132:358,1,25.4999992218018,6|0,3:2|0:0,0:0:0:0:
69,325,213510,1,2,0:0:0:0:
72,335,213617,1,2,0:0:0:0:
161,245,213724,6,0,B|158:268|153:294|153:294,1,42.5,2|0,0:0|0:0,0:0:0:0:
82,242,213939,1,2,0:0:0:0:
182,172,214046,1,2,0:0:0:0:
235,296,214153,6,0,B|279:289|312:285|312:285,1,59.4999981842042,2|0,0:0|0:0,0:0:0:0:
361,326,214367,1,2,0:0:0:0:
247,214,214474,1,2,0:0:0:0:
395,193,214582,6,0,B|401:150|414:103|414:103,1,76.4999976654053,2|0,0:0|0:0,0:0:0:0:
251,93,214796,1,2,0:0:0:0:
486,152,214903,1,2,0:0:0:0:
340,44,215010,6,0,B|334:87|319:145|319:145,1,93.5000028533936,6|0,3:2|3:0,0:0:0:0:
305,321,215224,1,10,0:0:0:0:
154,206,215332,1,10,0:0:0:0:
247,214,215439,6,0,B|253:246|257:270|257:270,3,46.7500014266968,6|0|0|0,3:2|3:0|3:0|3:0,0:0:0:0:
171,117,215653,2,0,B|165:85|161:61|161:61,3,46.7500014266968,0|0|0|0,3:0|3:0|3:0|3:0,0:0:0:0:
154,206,215867,5,14,0:0:0:0:
131,212,215921,1,8,0:0:0:0:
108,218,215974,1,8,0:0:0:0:
85,224,216028,1,8,0:0:0:0:
62,230,216082,2,0,B|54:282|48:318|48:318,3,46.7500014266968,0|0|0|0,3:0|3:0|3:0|3:0,0:0:0:0:
95,136,216296,5,14,0:0:0:0:
72,142,216349,1,8,0:0:0:0:
49,148,216403,1,8,0:0:0:0:
26,154,216457,1,8,0:0:0:0:
3,160,216510,2,0,B|15:113|19:61|19:61,1,93.5000028533936,2|0,3:2|3:0,0:0:0:0:
270,23,216724,5,14,0:0:0:0:
214,86,216832,1,8,0:0:0:0:
276,143,216939,1,8,0:0:0:0:
219,203,217046,1,8,0:0:0:0:
270,23,217367,5,14,0:0:0:0:
214,86,217474,1,8,0:0:0:0:
276,143,217582,1,8,0:0:0:0:
219,203,217689,1,8,0:0:0:0:
270,23,218010,5,14,0:0:0:0:
214,86,218117,1,8,0:0:0:0:
276,143,218224,1,8,0:0:0:0:
219,203,218332,1,8,0:0:0:0:
277,263,218439,1,8,0:0:0:0:
214,319,218546,1,8,0:0:0:0:
281,368,218653,1,8,0:0:0:0:
