osu file format v14

[General]
AudioFilename: audio.mp3
AudioLeadIn: 0
PreviewTime: -1
Countdown: 0
SampleSet: None
StackLeniency: 0.7
Mode: 0
LetterboxInBreaks: 0
WidescreenStoryboard: 1

[Editor]
Bookmarks: 11127,16644,22161,33196,44230,55265,57506,60782,66299,77334,85610,88368,96644,99403,107679,110437,121472,123541,132506,138024,143541,149058,151817,153196,154575,165610,171127,173886,176644,177851,178024,184920,187679,198713,209748,220782,231817,242851
DistanceSpacing: 0.7
BeatDivisor: 8
GridSize: 8
TimelineZoom: 1.7

[Metadata]
Title:Vermilion Universe
TitleUnicode:Vermilion Universe
Artist:S.C.X Hatsunemiku
ArtistUnicode:S.C.X 初音ミク
Creator:Edmound
Version:Shijie
Source:123
Tags:123
BeatmapID:4585213
BeatmapSetID:2131171

[Difficulty]
HPDrainRate:5
CircleSize:4
OverallDifficulty:8
ApproachRate:9
SliderMultiplier:1.5
SliderTickRate:1

[Events]
//Background and Video events
0,0,"bg.png",0,0
//Break Periods
2,88568,93286
2,99603,104320
//Storyboard Layer 0 (Background)
//Storyboard Layer 1 (Fail)
//Storyboard Layer 2 (Pass)
//Storyboard Layer 3 (Foreground)
//Storyboard Layer 4 (Overlay)
//Storyboard Sound Samples

[TimingPoints]
93,344.827586206897,4,2,0,60,1,0
93,-133.333333333333,4,2,0,60,0,0
16644,-125,4,2,0,60,0,0
44575,-111.111111111111,4,2,0,70,0,0
63541,-83.3333333333333,4,2,0,80,0,0
66299,-76.9230769230769,4,2,0,90,0,1
74575,-66.6666666666667,4,2,0,90,0,1
74920,-76.9230769230769,4,2,0,90,0,1
88024,-66.6666666666667,4,2,0,80,0,0
93886,-76.9230769230769,4,2,0,80,0,0
110437,-100,4,2,0,60,0,0
113196,-125,4,2,0,60,0,0
114403,-100,4,2,0,60,0,0
118713,-125,4,2,0,60,0,0
120610,-100,4,2,0,60,0,0
124230,-125,4,2,0,60,0,0
125437,-100,4,2,0,70,0,0
143541,-83.3333333333333,4,2,0,80,0,0
153239,-83.3333333333333,4,2,0,45,0,0
153886,-83.3333333333333,4,2,0,75,0,0
154058,-83.3333333333333,4,2,0,80,0,0
154575,-76.9230769230769,4,2,0,80,0,0
176644,-76.9230769230769,4,2,0,90,0,1
198713,-76.9230769230769,4,2,0,80,0,0

[HitObjects]
144,28,11127,5,4,3:0:0:0:
144,28,11472,2,0,P|189:45|210:118,1,112.500004291535,0|0,3:0|0:0,0:0:0:0:
136,198,11989,6,0,P|175:187|195:168,1,56.2500021457673,4|0,3:0|0:0,0:0:0:0:
193,327,12334,2,0,P|190:290|180:263,2,56.2500021457673,4|0|0,3:0|0:0|0:0,0:0:0:0:
112,314,12851,2,0,P|57:354|6:332,1,112.500004291535,0|0,3:0|0:0,0:0:0:0:
22,140,13540,5,0,3:0:0:0:
22,140,13713,2,0,B|16:109|16:109|29:79,2,56.2500021457673,2|0|0,3:0|0:0|0:0,0:0:0:0:
101,115,14230,2,0,P|145:101|173:32,1,112.500004291535,0|0,3:0|0:0,0:0:0:0:
173,44,14747,2,0,L|185:106,1,56.2500021457673
276,227,15092,2,0,P|254:195|179:183,1,112.500004291535,2|0,0:0|0:0,0:0:0:0:
199,262,15610,6,0,P|191:301|192:331,2,56.2500021457673,2|0|0,0:0|0:0|0:0,0:0:0:0:
282,235,16127,1,2,0:0:0:0:
185,265,16299,1,0,3:0:0:0:
331,314,16472,1,2,3:0:0:0:
299,153,16644,6,0,B|305:112|305:112|288:17,1,120,4|0,3:0|0:0,0:0:0:0:
206,17,17161,2,0,L|217:82,1,60
299,153,17506,1,4,3:0:0:0:
299,153,17851,2,0,L|306:80,2,60,4|0|0,3:0|0:0|0:0,0:0:0:0:
390,120,18368,5,0,3:0:0:0:
390,120,18713,2,0,P|442:145|451:167,1,60
377,203,19058,1,0,3:0:0:0:
417,328,19230,1,0,3:0:0:0:
457,253,19403,5,0,0:0:0:0:
457,253,19575,1,0,0:0:0:0:
342,282,19748,2,0,P|294:283|233:230,1,120,0|0,3:0|0:0,0:0:0:0:
331,299,20265,5,0,0:0:0:0:
240,266,20437,1,0,0:0:0:0:
315,195,20610,2,0,P|316:156|296:120,1,60,0|0,3:0|0:0,0:0:0:0:
238,86,20955,5,2,0:0:0:0:
166,130,21127,1,2,0:0:0:0:
84,112,21299,1,2,0:0:0:0:
169,143,21472,5,2,0:0:0:0:
247,75,21644,1,2,0:0:0:0:
71,103,21817,1,2,0:0:0:0:
185,224,21989,1,2,0:0:0:0:
166,130,22161,1,4,3:1:0:0:
35,359,22506,5,2,0:0:0:0:
35,359,22851,2,0,P|47:300|55:289,1,60,2|4,0:0|3:0,0:0:0:0:
116,345,23196,1,0,0:0:0:0:
76,228,23368,2,0,P|60:176|23:103,2,120,4|2|2,3:0|0:0|0:0,0:0:0:0:
114,344,24403,6,0,P|124:303|148:280,1,60,2|0,0:0|3:0,0:0:0:0:
198,348,24748,1,2,0:0:0:0:
198,348,24920,2,0,P|247:342|298:280,1,120,0|0,3:0|0:0,0:0:0:0:
361,340,25437,1,2,0:0:0:0:
505,212,25782,5,0,3:0:0:0:
450,276,25955,1,0,3:0:0:0:
450,276,26127,2,2,P|443:319|442:354,1,60,2|0,0:0|0:0,0:0:0:0:
370,245,26472,2,0,P|360:185|345:118,1,120,2|2,0:0|0:0,0:0:0:0:
276,74,26989,5,0,3:0:0:0:
276,74,27334,2,0,P|282:32|298:5,1,60,0|0,3:0|3:0,0:0:0:0:
347,127,27679,1,4,3:0:0:0:
221,280,28024,5,2,0:0:0:0:
221,280,28368,2,0,P|206:319|209:355,1,60,2|4,0:0|3:0,0:0:0:0:
288,328,28713,1,0,0:0:0:0:
223,199,28886,2,0,P|214:150|192:78,2,120,4|0|0,3:0|0:0|0:0,0:0:0:0:
129,24,29920,6,0,P|94:48|59:48,1,60,2|0,0:0|0:0,0:0:0:0:
5,181,30265,1,2,0:0:0:0:
5,181,30437,2,0,P|46:141|125:146,1,120,0|0,3:0|0:0,0:0:0:0:
147,215,30955,1,0,0:0:0:0:
327,283,31299,5,2,0:0:0:0:
217,352,31472,1,2,3:2:0:0:
245,273,31644,1,2,0:0:0:0:
245,273,31817,6,0,P|234:190|209:136,1,120,0|2,0:0|0:0,0:0:0:0:
280,92,32334,1,2,3:0:0:0:
220,156,32506,1,2,0:0:0:0:
142,128,32679,1,2,0:0:0:0:
226,172,32851,1,2,3:0:0:0:
295,91,33024,2,0,P|295:52|277:9,1,60,0|4,3:0|3:0,0:0:0:0:
463,166,33541,6,0,P|454:213|451:246,2,60,0|0|2,0:0|0:0|0:0,0:0:0:0:
387,276,34058,2,0,P|398:316|399:348,1,60,4|0,3:0|0:0,0:0:0:0:
452,225,34403,1,4,3:0:0:0:
393,65,34748,5,2,3:2:0:0:
375,151,34920,1,0,0:0:0:0:
305,97,35093,2,0,P|246:95|190:130,1,120,2|2,3:2|0:0,0:0:0:0:
94,34,35610,2,0,P|136:49|171:39,1,60,0|2,0:0|0:0,0:0:0:0:
163,212,35955,6,0,P|148:313|156:345,1,120,0|2,3:2|0:0,0:0:0:0:
77,366,36472,1,2,0:0:0:0:
227,158,36817,5,2,3:2:0:0:
163,212,36989,1,4,0:3:0:0:
84,178,37161,1,2,0:0:0:0:
231,296,37506,1,2,3:2:0:0:
310,262,37678,1,4,0:3:0:0:
374,316,37851,1,2,0:0:0:0:
512,219,38196,5,2,0:0:0:0:
446,267,38368,1,0,3:2:0:0:
435,187,38541,1,0,3:0:0:0:
435,187,38713,6,2,P|441:123|443:42,1,120,4|0,3:0|0:0,0:0:0:0:
509,15,39230,1,0,0:0:0:0:
354,196,39575,6,0,P|314:207|278:207,1,60,4|0,3:0|0:0,0:0:0:0:
172,277,39920,2,0,P|213:264|239:262,1,60,4|0,3:0|0:0,0:0:0:0:
305,295,40265,1,0,0:0:0:0:
229,262,40437,1,0,0:0:0:0:
295,208,40610,2,0,P|296:149|252:105,1,120
155,29,41127,6,0,P|164:66|188:89,1,60,4|2,0:3|0:0,0:0:0:0:
242,29,41472,1,0,3:0:0:0:
242,29,41817,2,0,P|291:17|377:20,1,120,4|0,0:3|0:0,0:0:0:0:
457,128,42334,5,2,0:0:0:0:
486,47,42506,1,0,0:0:0:0:
457,128,42679,2,0,P|449:177|450:199,1,60,0|0,3:0|0:0,0:0:0:0:
387,347,43024,5,2,0:0:0:0:
367,261,43196,1,0,3:0:0:0:
453,287,43368,1,2,0:0:0:0:
385,361,43541,1,2,3:2:0:0:
357,256,43713,1,2,3:2:0:0:
443,291,43886,1,2,0:0:0:0:
297,327,44058,1,2,3:0:0:0:
466,284,44230,1,4,1:0:0:0:
298,110,44575,6,0,P|273:161|184:167,1,134.999995880127,2|0,3:2|0:0,0:0:0:0:
96,68,45093,1,0,1:0:0:0:
96,68,45437,2,0,P|110:124|117:212,1,134.999995880127,0|4,1:2|3:0,0:0:0:0:
56,258,45955,1,4,3:3:0:0:
56,258,46127,2,0,P|92:284|134:285,1,67.4999979400635,0|0,3:0|0:0,0:0:0:0:
79,363,46472,5,4,3:0:0:0:
56,258,46644,1,0,1:0:0:0:
187,312,46817,2,2,P|202:264|198:164,1,134.999995880127,2|4,0:0|3:0,0:0:0:0:
117,199,47334,2,0,P|88:165|87:126,1,67.4999979400635,0|0,1:0|3:0,0:0:0:0:
84,143,47851,6,0,P|85:179|64:219,1,67.4999979400635,2|0,0:0|1:0,0:0:0:0:
5,159,48196,1,2,0:0:0:0:
108,283,48368,2,0,P|165:275|202:196,1,134.999995880127,4|0,3:0|1:0,0:0:0:0:
151,84,48886,1,2,0:0:0:0:
151,84,49230,5,0,3:0:0:0:
220,26,49403,2,0,P|266:30|303:59,1,67.4999979400635,0|0,1:0|0:0,0:0:0:0:
178,164,49748,1,4,3:1:0:0:
325,356,50093,5,0,1:2:0:0:
325,356,50265,2,2,P|381:320|462:324,1,134.999995880127,4|2,3:0|1:2,0:0:0:0:
447,319,50955,1,4,3:0:0:0:
359,173,51299,1,2,0:0:0:0:
421,120,51472,1,0,1:0:0:0:
421,120,51644,2,2,P|450:168|461:273,1,134.999995880127,4|2,3:0|0:0,0:0:0:0:
451,324,52161,2,0,P|496:321|526:296,1,67.4999979400635,0|2,1:0|0:0,0:0:0:0:
371,203,52506,5,4,3:0:0:0:
496,72,52851,1,0,1:0:0:0:
496,72,53024,2,2,P|467:34|430:25,1,67.4999979400635,2|0,3:2|0:0,0:0:0:0:
369,51,53368,1,2,3:2:0:0:
460,153,53541,1,2,1:2:0:0:
375,138,53713,2,0,P|364:200|363:289,1,134.999995880127,2|0,3:2|0:0,0:0:0:0:
361,271,54230,6,0,P|396:239|396:200,1,67.4999979400635,0|4,1:0|3:0,0:0:0:0:
315,203,54575,1,0,1:0:0:0:
375,138,54748,1,4,3:0:0:0:
305,212,54920,1,0,1:2:0:0:
217,183,55093,1,4,3:0:0:0:
375,138,55265,1,4,1:2:0:0:
240,331,55610,5,0,1:0:0:0:
162,91,55955,1,0,1:0:0:0:
116,230,56127,5,4,3:0:0:0:
98,151,56299,1,0,1:0:0:0:
38,209,56472,1,6,3:3:0:0:
180,335,56817,1,4,3:0:0:0:
198,256,56989,1,0,1:2:0:0:
258,314,57161,2,0,L|336:329,1,67.4999979400635,6|2,3:3|3:2,0:0:0:0:
401,230,57506,5,4,3:0:0:0:
481,247,57679,1,0,1:0:0:0:
455,168,57851,2,0,P|463:106|469:86,1,67.4999979400635,2|4,3:3|3:0,0:0:0:0:
411,33,58196,1,2,0:0:0:0:
411,33,58368,2,0,P|354:56|267:58,2,134.999995880127,2|4|0,1:2|0:3|1:0,0:0:0:0:
464,101,59230,1,4,3:0:0:0:
500,24,59403,1,4,3:0:0:0:
402,190,59748,5,0,1:0:0:0:
371,109,59920,1,0,3:0:0:0:
402,190,60093,2,0,P|391:252|384:339,1,134.999995880127,4|0,3:0|1:0,0:0:0:0:
453,375,60610,1,0,3:0:0:0:
305,283,60782,2,0,P|259:294|233:307,2,67.4999979400635,4|0|0,3:1|3:0|1:0,0:0:0:0:
172,255,61299,5,0,3:0:0:0:
326,202,61472,2,0,P|332:149|330:123,1,67.4999979400635,0|0,3:0|3:0,0:0:0:0:
244,304,61817,2,0,P|242:348|242:380,1,67.4999979400635,0|0,1:0|3:0,0:0:0:0:
233,181,62161,5,4,3:0:0:0:
233,181,62334,1,0,3:0:0:0:
89,247,62506,1,0,1:0:0:0:
89,247,62679,1,0,3:0:0:0:
21,111,62851,6,0,P|10:65|2:31,1,67.4999979400635,0|4,3:0|3:0,0:0:0:0:
159,122,63196,2,0,P|151:175|151:205,1,67.4999979400635,0|0,1:0|3:0,0:0:0:0:
18,302,63541,6,0,L|28:349,1,44.999998626709,4|0,3:1|3:0,3:0:0:0:
79,247,63713,2,0,L|65:188,1,44.999998626709,4|0,3:0|3:0,3:0:0:0:
152,288,63886,2,0,L|200:276,3,44.999998626709,0|0|0|0,1:2|3:0|3:0|3:0,0:0:0:0:
264,332,64230,5,4,3:0:0:0:
292,346,64317,1,0,3:0:0:0:
323,343,64403,1,0,3:0:0:0:
350,327,64489,1,0,3:0:0:0:
364,299,64575,2,4,P|355:276|352:231,1,44.999998626709,0|0,1:0|3:0,3:0:0:0:
441,265,64748,1,0,3:0:0:0:
441,265,64834,1,0,3:0:0:0:
441,265,64920,2,0,L|489:246,3,44.999998626709,4|0|0|0,3:0|3:0|3:0|3:0,0:0:0:0:
498,132,65265,6,0,P|497:107|482:80,1,44.999998626709,0|0,1:0|3:0,0:0:0:0:
418,125,65437,1,4,1:0:0:0:
418,125,65524,2,0,P|346:112|320:66,1,89.9999972534181,0|0,3:2|0:0,0:0:0:0:
279,33,65782,6,0,L|234:49,1,44.999998626709,2|0,3:2|0:0,0:0:0:0:
202,157,65955,1,2,1:3:0:0:
147,15,66127,1,0,1:2:0:0:
14,145,66299,6,0,P|47:180|107:180,1,97.4999955368044,4|0,3:2|0:0,0:0:0:0:
151,344,66644,2,0,P|163:274|205:148,1,194.999991073609,0|0,1:0|3:0,0:0:0:0:
266,255,67161,1,0,3:0:0:0:
266,255,67248,1,0,3:2:0:0:
266,255,67334,1,0,1:0:0:0:
149,346,67506,2,0,P|101:339|60:299,1,97.4999955368044,2|0,3:2|0:0,0:0:0:0:
201,156,67851,5,4,3:0:0:0:
156,238,68024,1,0,1:0:0:0:
90,98,68196,1,0,3:0:0:0:
224,163,68368,1,0,3:0:0:0:
243,148,68455,1,0,3:0:0:0:
251,125,68541,1,4,3:0:0:0:
287,237,68713,2,0,P|297:303|290:350,1,97.4999955368044,0|0,1:0|3:0,0:0:0:0:
424,372,69058,6,0,P|484:350|499:303,1,97.4999955368044,4|0,3:0|0:0,0:0:0:0:
363,178,69403,2,0,P|383:111|435:95,1,97.4999955368044,0|0,1:0|0:0,0:0:0:0:
511,296,69748,1,0,3:0:0:0:
453,179,69920,1,0,3:0:0:0:
453,179,70006,1,0,3:0:0:0:
453,179,70093,1,0,1:0:0:0:
349,318,70265,6,0,P|287:333|220:323,2,97.4999955368044,2|0|4,3:2|0:0|3:0,0:0:0:0:
493,260,70782,1,0,1:0:0:0:
363,178,70955,2,0,P|370:110|397:62,1,97.4999955368044,4|0,3:0|3:0,0:0:0:0:
398,66,71213,1,0,3:2:0:0:
421,60,71299,1,4,3:0:0:0:
363,178,71472,1,0,1:0:0:0:
302,14,71644,1,0,3:0:0:0:
201,148,71817,6,0,P|180:213|177:260,1,97.4999955368044,4|0,3:0|0:0,0:0:0:0:
48,361,72161,2,0,P|42:301|13:244,1,97.4999955368044,0|0,1:0|0:0,0:0:0:0:
162,331,72506,1,0,3:0:0:0:
49,273,72679,1,4,3:0:0:0:
187,234,72851,1,0,1:0:0:0:
32,139,73024,6,0,P|73:191|139:187,1,97.4999955368044,2|0,3:2|0:0,0:0:0:0:
100,197,73282,1,0,3:0:0:0:
100,197,73368,1,4,3:0:0:0:
34,268,73541,1,0,1:0:0:0:
115,116,73713,1,0,3:0:0:0:
186,250,73886,1,2,3:2:0:0:
212,248,73972,1,0,3:0:0:0:
230,231,74058,1,4,3:0:0:0:
340,347,74230,2,0,P|284:318|208:326,1,97.4999955368044,0|0,1:0|3:0,0:0:0:0:
202,103,74575,6,0,P|220:42|279:16,1,112.500004291535,4|0,3:2|0:0,0:0:0:0:
292,150,74920,2,0,P|340:172|399:148,1,97.4999955368044,0|0,1:0|0:0,0:0:0:0:
382,162,75179,1,0,3:0:0:0:
382,162,75265,1,4,1:2:0:0:
457,322,75437,6,0,P|485:273|467:213,1,97.4999955368044,4|0,3:1|1:0,0:0:0:0:
451,73,75782,2,0,P|362:35|266:45,1,194.999991073609,4|4,1:1|3:0,0:0:0:0:
338,176,76299,5,0,1:0:0:0:
198,243,76472,2,0,P|131:234|103:193,1,97.4999955368044,4|0,3:3|0:0,0:0:0:0:
101,192,76730,1,0,3:0:0:0:
94,168,76817,1,4,3:0:0:0:
217,233,76989,1,4,1:0:0:0:
53,300,77161,1,2,3:2:0:0:
222,365,77334,6,0,P|268:317|328:312,1,97.4999955368044,4|0,3:0|3:0,0:0:0:0:
457,265,77679,2,0,P|475:318|470:366,1,97.4999955368044,0|0,1:0|3:0,0:0:0:0:
386,325,78024,1,0,3:0:0:0:
468,248,78196,1,4,3:0:0:0:
468,248,78282,1,0,3:0:0:0:
468,248,78368,1,0,1:0:0:0:
352,134,78541,2,0,P|331:75|346:14,1,97.4999955368044,0|0,3:0|0:0,0:0:0:0:
360,225,78886,5,4,3:0:0:0:
257,116,79058,1,0,1:0:0:0:
226,288,79230,1,0,3:0:0:0:
136,178,79403,1,2,3:2:0:0:
112,184,79489,1,0,3:0:0:0:
94,200,79575,1,4,3:0:0:0:
44,344,79748,2,0,P|36:280|6:234,1,97.4999955368044,0|0,1:0|3:0,0:0:0:0:
0,63,80093,6,0,P|39:98|117:97,1,97.4999955368044,4|0,3:0|0:0,0:0:0:0:
161,261,80437,2,0,P|197:212|195:150,1,97.4999955368044,0|0,1:0|0:0,0:0:0:0:
141,287,80782,1,2,3:2:0:0:
107,192,80955,1,4,3:0:0:0:
225,319,81127,1,0,1:0:0:0:
221,147,81299,6,0,P|278:177|332:171,1,97.4999955368044,2|0,3:2|0:0,0:0:0:0:
309,177,81558,1,0,3:0:0:0:
309,177,81645,1,4,3:0:0:0:
476,94,81817,1,0,1:0:0:0:
440,210,81989,1,0,0:0:0:0:
311,82,82161,1,2,3:2:0:0:
312,57,82248,1,0,3:0:0:0:
322,35,82334,1,4,3:0:0:0:
429,202,82506,2,0,P|481:178|540:178,1,97.4999955368044,0|0,1:0|3:0,0:0:0:0:
395,352,82851,6,0,P|339:349|286:298,1,97.4999955368044,4|0,3:0|3:0,0:0:0:0:
140,188,83196,2,0,P|128:257|130:297,1,97.4999955368044,0|0,1:0|0:0,0:0:0:0:
317,232,83541,1,2,3:2:0:0:
210,356,83713,1,4,3:0:0:0:
210,356,83799,1,0,3:0:0:0:
210,356,83886,1,0,1:0:0:0:
152,180,84058,6,0,P|85:158|31:171,1,97.4999955368044,2|0,3:2|0:2,0:0:0:0:
59,160,84317,1,0,3:0:0:0:
59,160,84403,1,0,3:0:0:0:
240,125,84575,1,0,1:0:0:0:
219,255,84748,1,0,3:0:0:0:
402,191,84920,1,2,3:2:0:0:
420,175,85006,1,0,3:0:0:0:
427,151,85093,1,4,3:0:0:0:
473,266,85265,2,0,P|458:329|460:387,1,97.4999955368044,0|0,1:0|3:0,0:0:0:0:
345,127,85610,6,0,P|348:99|378:64,3,48.7499977684022,4|0|0|0,3:2|0:0|0:0|0:0,0:0:0:0:
427,130,85955,2,0,P|475:113|488:50,1,97.4999955368044,0|0,1:0|0:0,0:0:0:0:
322,7,86299,1,0,1:2:0:0:
349,146,86472,1,4,3:1:0:0:
216,86,86644,1,0,1:0:0:0:
246,226,86817,2,0,P|231:284|230:348,1,97.4999955368044,0|0,3:2|0:0,0:0:0:0:
146,193,87161,5,4,3:0:0:0:
234,342,87334,1,0,1:2:0:0:
321,160,87506,1,4,3:1:0:0:
256,242,87679,1,2,3:2:0:0:
256,242,87765,1,0,3:0:0:0:
256,242,87851,1,4,3:0:0:0:
142,326,88024,6,0,B|128:302|128:302|128:273,1,56.2500021457673,0|0,1:2|0:0,0:0:0:0:
12,96,88196,2,0,B|-2:122|-2:122|1:148,1,56.2500021457673,12|0,3:3|0:0,0:0:0:0:
59,214,88368,1,4,1:2:0:0:
142,159,93886,6,0,P|175:247|278:218,1,194.999991073609,0|0,3:1|1:0,0:0:0:0:
256,192,94403,12,0,96299,3:0:0:0:
368,143,96644,6,0,P|338:196|340:248,1,97.4999955368044,4|0,1:1|0:0,0:0:0:0:
309,76,96989,1,0,1:2:0:0:
337,232,97161,2,0,P|409:226|448:99,1,194.999991073609,2|4,3:2|3:0,0:0:0:0:
277,103,97679,6,0,B|266:82|266:82|266:32,1,48.7499977684022,2|0,1:2|0:0,0:0:0:0:
349,59,97851,1,2,3:2:0:0:
250,189,98024,5,4,3:1:0:0:
185,124,98196,1,2,3:2:0:0:
185,124,98282,1,0,3:0:0:0:
185,124,98368,1,0,1:0:0:0:
146,231,98541,2,0,P|94:269|28:257,1,97.4999955368044,4|0,3:0|0:0,0:0:0:0:
62,270,98799,1,0,3:0:0:0:
62,270,98886,1,4,3:0:0:0:
232,362,99058,6,0,B|242:335|242:335|237:278,1,48.7499977684022,4|0,1:0|0:0,0:0:0:0:
262,174,99230,1,2,3:2:0:0:
344,300,99403,1,4,1:2:0:0:
314,326,104920,6,0,P|364:304|324:162,1,194.999991073609,4|0,3:0|1:0,0:0:0:0:
256,192,105437,12,0,107334,1:0:0:0:
192,173,107679,6,0,P|152:104|104:105,1,97.4999955368044,4|0,3:1|0:0,0:0:0:0:
268,89,108024,1,0,1:0:0:0:
192,175,108196,2,0,P|133:190|53:93,1,194.999991073609,2|4,3:2|3:0,0:0:0:0:
31,249,108713,6,0,B|25:273|25:273|49:328,1,48.7499977684022,4|0,1:2|0:0,0:0:0:0:
112,272,108886,1,2,3:2:0:0:
112,272,109058,2,0,B|178:283|178:283|211:312|211:312|308:327,1,194.999991073609,4|0,0:3|1:0,0:0:0:0:
410,369,109575,2,0,P|400:288|416:238,1,97.4999955368044,4|2,0:3|3:2,0:0:0:0:
416,253,109834,1,0,1:0:0:0:
437,241,109920,1,0,3:0:0:0:
321,133,110093,6,0,L|269:105,1,48.7499977684022,4|0,1:2|0:0,0:0:0:0:
439,19,110265,1,2,3:2:0:0:
409,99,110437,6,0,P|406:179|449:253,2,150,4|0|2,1:1|0:0|0:0,0:0:0:0:
338,226,111299,2,0,P|287:245|256:232,1,75,4|2,0:3|0:0,0:0:0:0:
436,240,111644,2,0,P|451:300|413:380,2,150,4|0|2,0:3|0:0|0:0,0:0:0:0:
282,162,112679,6,0,P|227:147|122:150,1,150,2|2,3:2|0:0,0:0:0:0:
54,111,113196,2,0,P|24:82|25:4,1,120,4|0,0:3|0:0,0:0:0:0:
97,40,113713,1,0,3:2:0:0:
125,224,114058,5,2,0:0:0:0:
53,270,114230,1,4,3:3:0:0:
127,308,114403,2,0,P|184:315|285:347,1,150,2|0,0:0|0:0,0:0:0:0:
343,291,114920,1,4,0:3:0:0:
272,341,115093,2,0,P|257:300|272:250,1,75,2|0,0:0|0:0,0:0:0:0:
414,345,115437,5,2,0:0:0:0:
495,315,115610,1,0,3:0:0:0:
414,345,115782,1,0,3:0:0:0:
436,162,115955,6,0,P|417:79|413:-2,1,150,4|2,0:3|0:0,0:0:0:0:
496,36,116472,1,0,3:0:0:0:
444,173,116644,6,0,P|431:235|432:268,2,75,2|0|0,3:2|0:0|0:0,0:0:0:0:
356,97,117161,2,0,P|433:92|503:51,2,150,4|0|2,0:3|0:0|0:0,0:0:0:0:
349,93,118196,5,2,0:0:0:0:
221,29,118368,1,0,3:0:0:0:
266,113,118541,1,2,3:2:0:0:
266,113,118713,6,0,P|251:186|250:259,1,120,4|0,0:3|0:0,0:0:0:0:
290,303,119230,1,0,3:0:0:0:
68,213,119575,5,2,0:0:0:0:
55,347,119748,1,0,3:2:0:0:
7,276,119920,1,2,3:2:0:0:
149,240,120093,6,0,P|152:194|138:158,2,60,0|0|0,3:2|0:0|0:0,0:0:0:0:
68,213,120610,2,0,B|40:184|2:188|2:188|14:173|14:173|46:185|69:143,1,150,2|0,3:2|0:0,0:0:0:0:
129,97,121127,1,2,3:2:0:0:
26,31,121299,1,0,1:0:0:0:
129,97,121472,6,0,P|191:80|208:61,1,75,4|0,3:0|0:0,0:0:0:0:
249,155,121817,2,0,P|264:224|266:327,1,150,0|2,3:2|0:0,0:0:0:0:
332,365,122334,2,0,P|354:326|350:284,1,75,4|0,3:0|0:0,0:0:0:0:
175,211,122679,2,0,P|157:134|209:78,2,150,4|0|2,3:0|0:0|0:0,0:0:0:0:
353,296,123713,6,2,P|390:275|496:261,1,150,2|2,3:2|0:0,0:0:0:0:
362,282,124230,2,0,P|346:238|389:171,1,120,4|2,0:3|0:0,0:0:0:0:
469,178,124748,1,0,3:2:0:0:
469,178,125093,5,2,0:0:0:0:
499,100,125265,1,0,3:0:0:0:
443,38,125437,2,0,P|382:61|291:61,1,150,2|2,3:2|0:0,0:0:0:0:
228,16,125955,1,0,3:0:0:0:
228,16,126127,2,0,P|213:51|218:89,1,75,4|0,0:3|0:0,0:0:0:0:
288,146,126472,5,2,0:0:0:0:
217,86,126644,1,0,3:2:0:0:
206,171,126817,1,4,3:3:0:0:
141,273,126989,6,0,P|128:195|109:126,1,150,4|0,3:2|0:0,0:0:0:0:
39,169,127506,2,0,P|27:126|34:94,1,75
182,87,127851,1,0,3:0:0:0:
109,126,128024,1,4,0:3:0:0:
257,132,128196,2,0,P|237:204|225:278,1,150,0|2,3:0|0:0,0:0:0:0:
353,364,128713,5,0,3:2:0:0:
312,287,128886,2,0,B|361:274|361:274|394:287|394:287|469:271,1,150,2|2,0:0|0:0,0:0:0:0:
445,112,129403,1,0,3:0:0:0:
405,192,129575,1,2,0:0:0:0:
256,192,129748,12,4,131127,0:1:0:0:
214,162,131472,5,2,0:0:0:0:
194,82,131644,1,0,0:0:0:0:
136,140,131817,2,0,L|107:137,1,18.75,0|0,3:0|0:0,0:0:0:0:
48,87,131989,2,0,P|30:60|24:10,2,75,0|0|2,0:0|0:0|3:2,0:0:0:0:
4,240,132506,6,0,L|156:223,1,150,4|4,1:0|3:0,0:0:0:0:
280,351,133196,2,0,L|432:334,1,150,4|4,3:3|3:0,0:0:0:0:
501,168,133886,5,4,3:3:0:0:
374,246,134230,1,4,3:3:0:0:
296,119,134575,1,4,3:3:0:0:
423,41,134920,2,0,L|405:130,1,75,2|0,3:2|3:0,0:0:0:0:
374,246,135265,6,0,L|215:226,1,150,4|4,3:0|3:3,0:0:0:0:
161,59,135955,2,0,L|2:39,1,150,4|4,3:3|3:3,0:0:0:0:
11,216,136644,5,4,3:3:0:0:
138,138,136988,1,4,3:3:0:0:
216,265,137333,1,4,3:3:0:0:
89,343,137678,2,0,L|107:254,2,75,6|0|4,3:3|1:0|1:0,0:0:0:0:
179,358,138196,6,0,P|232:363|290:332,1,112.5,2|0,3:2|0:0,0:0:0:0:
296,323,138541,2,0,P|353:312|378:321,1,75,2|0,0:0|3:0,0:0:0:0:
434,378,138886,1,2,3:2:0:0:
367,316,139058,1,0,1:0:0:0:
454,290,139230,2,0,P|459:242|469:206,1,75,2|0,3:2|3:0,0:0:0:0:
372,104,139575,2,0,P|386:154|391:190,1,75,2|0,0:0|1:0,0:0:0:0:
298,158,139920,2,0,P|227:159|155:106,1,150,2|0,3:2|3:2,0:0:0:0:
298,158,140437,5,0,1:0:0:0:
214,44,140610,1,2,0:0:0:0:
118,190,140782,6,0,P|110:231|110:273,2,75,2|2|0,3:2|3:2|1:0,0:0:0:0:
26,266,141299,2,0,P|44:323|132:345,1,150,2|4,3:2|0:3,0:0:0:0:
118,190,141817,5,2,1:2:0:0:
131,355,141989,2,0,P|171:326|205:323,1,75,2|4,0:0|1:0,0:0:0:0:
311,212,142334,2,0,P|295:259|284:366,2,150,2|0|2,0:0|3:0|0:0,0:0:0:0:
369,344,143196,5,0,1:0:0:0:
216,220,143368,1,4,0:3:0:0:
389,154,143541,6,0,P|388:116|360:66,1,89.9999972534181,4|0,3:2|1:0,0:0:0:0:
281,50,143886,1,0,3:0:0:0:
389,155,144058,2,0,P|444:100|419:5,1,179.999994506836,0|0,1:0|1:0,0:0:0:0:
281,50,144575,5,2,1:2:0:0:
217,113,144748,2,0,P|153:115|83:80,1,134.999995880127,2|0,3:2|0:0,0:0:0:0:
47,21,145093,2,0,P|84:31|111:80,1,89.9999972534181,2|0,3:2|1:0,0:0:0:0:
46,155,145437,2,0,P|29:199|38:255,2,89.9999972534181,2|0|2,3:2|0:0|3:2,0:0:0:0:
118,216,145955,1,4,1:0:0:0:
127,316,146127,2,0,P|128:265|107:220,1,89.9999972534181,0|0,3:0|1:0,0:0:0:0:
59,369,146472,5,2,3:2:0:0:
138,328,146644,1,2,1:2:0:0:
218,367,146817,1,2,3:2:0:0:
298,326,146989,6,0,P|332:328|391:364,2,89.9999972534181,0|0|0,1:0|3:0|3:0,0:0:0:0:
455,301,147506,2,0,P|484:260|472:176,1,134.999995880127,0|0,1:0|0:0,0:0:0:0:
420,119,147851,2,0,P|430:166|472:190,1,89.9999972534181,2|0,3:2|1:0,0:0:0:0:
454,303,148196,2,0,P|420:272|289:238,1,179.999994506836,0|2,3:0|3:2,0:0:0:0:
223,179,148713,5,0,1:0:0:0:
286,26,148886,1,0,3:0:0:0:
218,88,149058,6,0,L|161:98,3,44.999998626709,4|0|2|0,1:0|3:0|3:2|3:0,0:0:0:0:
103,53,149403,2,0,L|52:63,1,44.999998626709,2|0,3:2|0:0,3:0:0:0:
75,171,149575,6,0,L|63:228,3,44.999998626709,2|0|0|0,1:2|0:0|0:0|0:0,3:0:0:0:
122,280,149920,2,0,L|110:337,1,44.999998626709,2|0,3:2|0:0,3:0:0:0:
34,362,150093,1,2,3:2:0:0:
135,270,150265,6,0,L|181:262,3,44.999998626709,2|0|0|0,1:2|3:0|0:0|0:0,0:0:0:0:
257,319,150610,1,2,1:2:0:0:
257,319,150696,1,0,3:0:0:0:
257,319,150782,2,0,L|249:379,1,44.999998626709,0|0,3:0|0:0,3:0:0:0:
341,344,150955,2,0,L|348:290,1,44.999998626709,2|0,3:2|3:0,0:0:0:0:
436,311,151127,5,0,1:0:0:0:
436,311,151213,2,0,P|476:286|485:240,1,89.9999972534181,0|0,3:0|0:0,0:0:0:0:
404,232,151472,2,0,P|393:200|400:173,1,44.999998626709,0|0,1:0|0:0,3:0:0:0:
422,111,151644,1,2,1:2:0:0:
281,25,151817,5,4,3:0:0:0:
281,25,151903,2,0,P|325:47|367:41,1,89.9999972534181,0|0,3:0|3:0,0:0:0:0:
422,111,152161,1,4,3:0:0:0:
422,111,152247,2,0,P|463:83|478:44,1,89.9999972534181,0|0,3:0|3:0,0:0:0:0:
332,125,152506,6,0,L|323:179,1,44.999998626709,4|0,3:0|3:0,0:0:0:0:
248,210,152679,2,0,L|258:268,1,44.999998626709,0|0,3:0|3:0,0:0:0:0:
204,325,152851,1,4,3:0:0:0:
204,325,152937,2,0,L|224:370,2,44.999998626709,0|0|0,3:0|3:0|3:0,0:0:0:0:
320,371,153196,1,4,1:0:0:0:
173,247,153368,5,2,2:0:0:0:
161,242,153455,2,0,L|125:254,8,22.4999993133545,2|2|2|2|2|2|2|2|2,3:2|0:0|0:0|0:0|0:0|0:0|0:0|0:0|0:0,0:0:0:0:
118,332,153886,6,0,L|113:379,1,44.999998626709,2|2,1:2|0:0,0:0:0:0:
37,316,154058,2,0,L|26:262,1,44.999998626709,2|2,1:2|0:0,0:0:0:0:
71,198,154230,5,2,0:0:0:0:
90,161,154317,1,2,0:0:0:0:
93,120,154403,1,2,0:0:0:0:
81,81,154489,1,2,0:0:0:0:
52,47,154575,6,0,B|90:73|90:73|249:56,1,194.999991073609,4|0,0:3|1:2,0:0:0:0:
325,146,155093,1,0,3:0:0:0:
325,146,155179,1,0,3:1:0:0:
325,146,155265,1,2,3:2:0:0:
195,256,155437,5,4,3:0:0:0:
231,94,155610,1,0,1:2:0:0:
310,236,155782,2,0,P|360:229|405:181,1,97.4999955368044,2|0,3:2|0:0,0:0:0:0:
455,351,156127,1,4,3:0:0:0:
322,248,156299,1,0,1:2:0:0:
480,183,156472,2,0,P|493:131|447:45,1,146.249993305207,2|0,3:2|3:0,0:0:0:0:
412,22,156817,5,4,3:0:0:0:
389,189,156989,1,0,1:2:0:0:
285,61,157161,1,2,3:2:0:0:
285,61,157248,1,0,3:0:0:0:
285,61,157334,2,0,P|235:42|173:41,1,97.4999955368044,0|4,0:0|3:0,0:0:0:0:
36,151,157679,5,0,1:2:0:0:
87,53,157851,2,0,P|108:93|127:244,1,194.999991073609,2|4,3:2|3:0,0:0:0:0:
68,376,158368,1,0,1:2:0:0:
35,274,158541,1,2,3:2:0:0:
35,274,158627,1,0,3:0:0:0:
35,274,158713,6,0,P|92:280|213:214,1,194.999991073609,2|0,3:2|1:2,0:0:0:0:
303,364,159230,2,0,P|353:338|407:337,1,97.4999955368044,4|0,3:0|0:0,0:0:0:0:
416,342,159489,1,0,3:0:0:0:
436,355,159575,1,2,3:2:0:0:
313,255,159748,1,0,1:2:0:0:
499,273,159920,1,0,0:0:0:0:
379,181,160093,6,0,P|377:122|436:-1,1,194.999991073609,4|0,1:0|1:2,0:0:0:0:
499,85,160610,1,2,3:2:0:0:
499,85,160696,1,0,3:0:0:0:
499,85,160782,1,0,0:0:0:0:
328,0,160955,1,4,3:0:0:0:
379,181,161127,1,0,1:2:0:0:
271,96,161299,6,0,P|237:82|161:78,1,97.4999955368044,2|0,3:2|0:0,0:0:0:0:
207,181,161644,1,4,3:0:0:0:
89,51,161817,1,0,1:2:0:0:
0,193,161989,2,0,P|48:189|94:172,1,97.4999955368044,4|2,3:0|3:2,0:0:0:0:
113,157,162248,1,0,3:0:0:0:
125,136,162334,1,4,3:0:0:0:
234,201,162506,1,0,1:2:0:0:
167,310,162679,1,2,3:2:0:0:
325,381,162851,6,0,P|328:310|373:178,1,194.999991073609,4|0,1:0|1:2,0:0:0:0:
474,94,163368,1,4,3:0:0:0:
474,94,163455,1,0,3:3:0:0:
474,94,163541,2,0,P|490:58|490:27,2,48.7499977684022,2|0|4,3:2|0:0|3:0,0:0:0:0:
450,249,163886,2,0,P|409:203|358:199,1,97.4999955368044,0|2,1:2|3:2,0:0:0:0:
380,28,164230,5,4,3:1:0:0:
327,112,164403,1,4,3:0:0:0:
327,112,164489,1,0,3:0:0:0:
327,112,164575,1,0,1:2:0:0:
228,89,164748,2,0,P|214:131|214:200,1,97.4999955368044,0|0,3:0|0:0,0:0:0:0:
217,207,165006,1,2,3:2:0:0:
231,226,165093,1,4,3:0:0:0:
125,145,165265,1,2,1:2:0:0:
316,199,165437,1,2,3:2:0:0:
167,352,165610,6,0,B|241:339|241:339|272:312|272:312|349:299,1,194.999991073609,4|0,3:2|1:2,0:0:0:0:
450,360,166127,2,0,P|491:340|503:282,1,97.4999955368044,0|2,3:0|3:2,0:0:0:0:
341,204,166472,1,4,3:0:0:0:
498,111,166644,2,0,P|503:70|473:8,1,97.4999955368044,0|2,1:2|3:2,0:0:0:0:
482,18,166903,1,0,3:0:0:0:
482,18,166989,1,0,3:2:0:0:
443,203,167161,5,4,3:0:0:0:
338,89,167334,2,0,B|324:63|324:63|294:49,1,48.7499977684022,0|0,1:2|0:0,0:0:0:0:
259,125,167506,2,0,P|223:153|156:149,1,97.4999955368044,2|0,3:2|0:0,0:0:0:0:
150,145,167765,1,0,3:0:0:0:
133,126,167851,5,4,3:0:0:0:
231,7,168024,1,0,1:2:0:0:
329,178,168196,2,0,P|385:164|419:125,1,97.4999955368044,2|0,3:2|0:0,0:0:0:0:
338,89,168541,1,2,3:2:0:0:
338,89,168627,1,0,3:0:0:0:
338,89,168713,1,0,1:2:0:0:
247,215,168886,2,0,P|239:272|239:320,1,97.4999955368044,0|0,0:0|0:2,0:0:0:0:
75,262,169230,5,4,3:0:0:0:
158,230,169403,1,0,1:2:0:0:
90,175,169575,1,6,3:3:0:0:
238,311,169920,1,4,3:0:0:0:
305,255,170093,1,0,1:2:0:0:
320,342,170265,1,6,3:3:0:0:
481,249,170437,5,2,3:2:0:0:
486,224,170524,1,0,3:0:0:0:
475,202,170610,1,4,3:0:0:0:
396,240,170782,2,0,B|395:268|395:268|375:302,1,48.7499977684022,0|0,1:2|0:0,0:0:0:0:
309,248,170955,1,0,3:0:0:0:
309,248,171041,1,0,3:0:0:0:
309,248,171127,2,0,P|198:250|112:214,1,194.999991073609,4|0,3:2|1:2,0:0:0:0:
36,45,171644,5,2,3:2:0:0:
36,45,171817,2,0,B|55:71|55:71|132:79,1,97.4999955368044,4|0,3:0|3:2,0:0:0:0:
119,77,172075,1,0,3:0:0:0:
119,77,172161,1,0,1:2:0:0:
121,219,172334,2,0,P|184:180|323:171,1,194.999991073609,2|2,3:2|3:2,0:0:0:0:
214,264,172851,6,0,L|206:318,1,48.7499977684022,0|0,1:2|0:0,0:0:0:0:
135,197,173024,1,0,3:2:0:0:
302,166,173196,1,4,3:0:0:0:
312,144,173282,1,2,3:2:0:0:
312,119,173368,1,0,0:0:0:0:
216,30,173541,2,0,B|199:50|199:50|220:139,1,97.4999955368044,0|2,1:2|3:2,0:0:0:0:
227,260,173886,6,0,B|264:245|264:245|292:262|292:262|329:253|329:253|390:362|517:370|565:199|353:161|396:359|305:327,1,487.499977684022,4|0,1:0|0:0,3:0:0:0:
81,261,174920,6,0,B|66:240|66:240|66:199,1,48.7499977684022,4|0,1:2|0:0,0:0:0:0:
151,215,175093,1,4,1:0:0:0:
151,215,175265,2,0,P|160:141|186:11,1,194.999991073609,2|0,3:2|1:2,0:0:0:0:
7,59,175782,1,4,1:2:0:0:
231,246,176127,5,4,1:3:0:0:
249,262,176213,1,4,3:3:0:0:
265,280,176299,2,0,P|257:326|253:394,1,97.4999955368044,2|0,1:2|0:0,3:0:0:0:
491,197,176644,6,0,P|467:170|395:166,1,97.4999955368044,4|0,3:2|0:0,0:0:0:0:
199,111,176989,2,0,P|248:105|293:66,1,97.4999955368044,0|0,1:0|0:2,0:0:0:0:
362,253,177334,1,2,3:2:0:0:
392,139,177506,1,4,3:3:0:0:
392,139,177593,1,0,3:0:0:0:
392,139,177679,1,0,1:2:0:0:
340,265,177851,2,0,P|302:292|157:296,1,194.999991073609,2|2,3:2|3:2,0:0:0:0:
65,123,178368,5,0,1:2:0:0:
208,210,178541,1,4,3:3:0:0:
235,55,178713,1,2,3:2:0:0:
219,35,178799,1,0,3:0:0:0:
195,29,178886,1,0,1:0:0:0:
301,171,179058,5,4,1:2:0:0:
110,221,179230,1,2,3:2:0:0:
208,364,179403,6,0,P|254:334|312:339,1,97.4999955368044,2|0,3:2|0:0,0:0:0:0:
498,265,179748,2,0,P|442:254|403:227,1,97.4999955368044,0|0,1:2|0:0,0:0:0:0:
384,379,180093,1,2,3:2:0:0:
318,239,180265,1,4,3:3:0:0:
318,239,180351,1,0,3:0:0:0:
318,239,180437,1,0,1:2:0:0:
480,172,180610,2,0,P|479:114|396:7,1,194.999991073609,2|2,3:2|3:2,0:0:0:0:
255,155,181127,5,0,1:2:0:0:
284,40,181299,1,4,0:3:0:0:
247,135,181472,1,0,3:0:0:0:
247,134,181558,1,4,3:0:0:0:
247,134,181644,6,0,L|233:193,1,48.7499977684022,0|0,3:2|0:0,0:0:0:0:
274,297,181817,1,0,1:2:0:0:
274,297,181989,2,2,B|232:266|171:279|184:306|122:325|72:282,1,194.999991073609,4|2,3:1|3:2,2:0:0:0:
285,310,182506,2,0,P|323:269|323:217,1,97.4999955368044,0|0,1:2|0:0,0:0:0:0:
223,366,182851,5,2,3:2:0:0:
165,250,183024,1,4,0:3:0:0:
305,326,183196,1,0,1:2:0:0:
387,168,183368,2,0,P|357:132|289:114,1,97.4999955368044,2|0,3:2|0:0,0:0:0:0:
300,113,183627,1,0,3:0:0:0:
290,114,183713,1,2,3:2:0:0:
461,59,183886,1,0,1:2:0:0:
404,177,184058,1,0,0:3:0:0:
237,49,184230,5,2,3:2:0:0:
219,65,184316,1,0,3:0:0:0:
211,88,184403,1,0,3:0:0:0:
61,17,184575,1,0,1:2:0:0:
105,120,184748,1,4,0:3:0:0:
19,222,184920,6,0,P|75:232|163:185,1,146.249993305207,4|0,1:0|0:0,0:0:0:0:
230,278,185265,2,0,P|166:243|95:251,1,146.249993305207,0|0,1:2|0:0,0:0:0:0:
27,309,185610,5,2,3:2:0:0:
216,256,185782,1,2,3:2:0:0:
73,144,185955,1,0,1:2:0:0:
113,263,186127,1,2,3:2:0:0:
113,263,186472,5,2,3:2:0:0:
139,68,186644,1,0,1:2:0:0:
243,169,186817,2,0,P|277:188|346:184,1,97.4999955368044,2|0,3:2|0:0,0:0:0:0:
355,175,187075,1,0,3:2:0:0:
372,158,187161,1,0,3:2:0:0:
461,279,187334,5,4,1:2:0:0:
503,84,187506,1,2,3:2:0:0:
457,295,187679,6,0,P|414:324|354:327,1,97.4999955368044,0|2,3:2|3:2,0:0:0:0:
167,242,188024,2,0,P|207:214|265:209,1,97.4999955368044,2|0,1:2|0:2,0:0:0:0:
276,376,188368,1,2,3:2:0:0:
383,241,188541,1,4,3:3:0:0:
383,241,188627,1,0,3:0:0:0:
383,241,188713,1,0,1:2:0:0:
231,122,188886,2,0,P|209:76|215:13,1,97.4999955368044,2|0,3:2|0:0,0:0:0:0:
277,205,189230,5,4,3:3:0:0:
209,30,189403,1,0,1:2:0:0:
350,144,189575,1,4,0:3:0:0:
183,203,189748,1,2,3:2:0:0:
172,225,189834,1,0,3:0:0:0:
170,249,189920,1,0,3:0:0:0:
59,185,190093,5,4,1:2:0:0:
260,247,190265,1,2,3:2:0:0:
104,361,190437,6,0,P|88:298|85:246,1,97.4999955368044,4|0,3:1|0:0,0:0:0:0:
127,88,190782,2,0,P|147:138|149:190,1,97.4999955368044,0|0,1:2|3:2,0:0:0:0:
13,152,191127,1,2,3:2:0:0:
85,265,191299,1,4,3:3:0:0:
154,173,191472,1,0,1:2:0:0:
206,355,191644,6,0,P|252:328|399:311,1,194.999991073609,2|2,3:2|3:2,0:0:0:0:
472,203,192161,1,0,1:2:0:0:
347,232,192334,2,0,P|365:282|416:307,1,97.4999955368044,4|0,0:3|3:0,0:0:0:0:
458,367,192593,1,2,3:2:0:0:
480,360,192679,2,0,P|493:330|492:298,1,48.7499977684022,0|0,1:0|0:0,0:0:0:0:
472,203,192851,1,0,3:2:0:0:
472,203,193024,6,0,P|463:148|460:89,1,97.4999955368044,2|4,1:2|0:1,0:0:0:0:
364,16,193368,1,4,3:3:0:0:
364,16,193455,1,0,3:2:0:0:
364,16,193541,1,0,1:2:0:0:
342,149,193713,1,4,0:3:0:0:
232,70,193886,5,2,3:2:0:0:
350,168,194058,1,4,0:3:0:0:
364,16,194230,1,0,1:2:0:0:
249,165,194403,2,0,P|201:161|144:29,1,194.999991073609,2|2,3:2|3:2,0:0:0:0:
89,204,194920,1,0,1:2:0:0:
258,161,195093,1,4,0:3:0:0:
206,309,195265,1,2,3:2:0:0:
219,329,195351,1,0,3:0:0:0:
237,344,195437,2,0,P|300:370|338:360,1,97.4999955368044,0|0,3:0|1:2,0:0:0:0:
138,364,195782,5,4,2:3:0:0:
284,269,195955,2,0,P|291:209|267:66,1,194.999991073609,4|0,1:0|1:2,0:0:0:0:
432,5,196472,2,2,P|418:43|408:118,1,97.4999955368044,2|0,3:2|3:0,0:0:0:0:
408,99,196730,1,0,3:2:0:0:
408,99,196817,1,0,1:0:0:0:
259,60,196989,1,0,1:2:0:0:
326,199,197161,1,4,0:3:0:0:
123,197,197334,5,4,1:2:0:0:
225,157,197506,1,4,3:3:0:0:
225,157,197593,1,2,3:2:0:0:
225,157,197679,1,0,1:2:0:0:
139,292,197851,2,0,P|91:291|47:252,1,97.4999955368044,4|0,1:0|0:0,0:0:0:0:
52,261,198110,1,0,3:2:0:0:
52,261,198196,1,4,0:3:0:0:
226,363,198368,6,2,L|235:307,1,48.7499977684022,4|0,1:2|0:0,0:0:0:0:
294,246,198541,1,4,3:3:0:0:
294,246,198627,1,4,0:3:0:0:
294,246,198713,1,4,1:2:0:0:
256,192,198799,12,0,201127,1:2:0:0:
87,85,201472,6,0,P|125:158|237:152,1,194.999991073609,2|2,3:2|1:2,0:0:0:0:
311,75,201989,1,0,3:2:0:0:
354,212,202161,2,0,P|399:216|460:257,1,97.4999955368044,2|2,3:2|0:0,0:0:0:0:
444,240,202420,1,0,3:2:0:0:
444,240,202506,1,0,1:2:0:0:
504,121,202679,6,0,P|463:187|347:209,1,194.999991073609,2|2,3:2|0:0,0:0:0:0:
221,323,203196,2,0,B|207:298|207:298|210:257,1,48.7499977684022,0|0,1:2|2:0,2:0:0:0:
293,274,203368,1,2,3:2:0:0:
350,336,203541,1,0,3:0:0:0:
369,321,203627,1,0,3:2:0:0:
379,299,203713,1,0,3:0:0:0:
210,248,203886,1,0,1:2:0:0:
342,129,204058,1,4,2:3:0:0:
238,151,204230,6,0,P|192:153|66:81,1,194.999991073609,2|0,3:2|1:2,0:0:0:0:
16,176,204748,1,4,0:3:0:0:
94,322,204920,2,0,P|105:283|90:208,1,97.4999955368044,0|2,3:2|0:0,0:0:0:0:
98,227,205179,1,0,3:3:0:0:
98,227,205265,1,4,0:3:0:0:
9,384,205437,6,0,P|80:346|203:349,1,194.999991073609,2|0,3:2|0:0,0:0:0:0:
17,272,205955,1,0,1:2:0:0:
150,161,206127,1,0,3:2:0:0:
199,335,206299,1,0,3:0:0:0:
223,333,206386,1,2,3:2:0:0:
240,316,206472,1,4,3:3:0:0:
104,248,206644,2,0,P|96:205|125:154,1,97.4999955368044,0|0,1:2|0:0,0:0:0:0:
250,23,206989,6,0,P|237:115|236:189,1,146.249993305207,6|0,3:2|0:0,0:0:0:0:
248,194,207334,2,0,P|290:174|350:165,1,97.4999955368044,2|0,1:2|0:0,0:0:0:0:
459,285,207679,1,0,3:2:0:0:
495,118,207851,1,2,3:2:0:0:
363,251,208024,1,2,1:2:0:0:
348,76,208196,2,0,P|345:40|281:0,1,97.4999955368044,2|4,3:2|0:3,0:0:0:0:
91,135,208541,6,0,P|67:103|67:84,1,48.7499977684022,2|0,3:2|0:0,0:0:0:0:
112,26,208713,1,0,1:2:0:0:
66,95,208886,2,0,P|42:146|41:202,1,97.4999955368044,4|0,0:3|0:0,0:0:0:0:
47,209,209144,1,0,3:2:0:0:
62,227,209230,1,0,3:2:0:0:
45,78,209403,1,0,1:2:0:0:
169,169,209575,1,4,3:3:0:0:
54,340,209748,6,0,P|120:303|158:301,1,97.4999955368044,6|0,3:2|0:0,0:0:0:0:
233,103,210093,2,0,P|256:154|252:205,1,97.4999955368044,0|0,1:2|0:0,0:0:0:0:
266,336,210437,1,0,3:2:0:0:
168,215,210610,1,4,3:3:0:0:
278,350,210782,1,0,1:2:0:0:
316,270,210955,6,0,P|373:250|521:243,1,194.999991073609,2|2,3:2|0:0,0:0:0:0:
343,178,211472,1,0,1:2:0:0:
472,322,211644,1,4,3:3:0:0:
305,294,211817,1,2,3:2:0:0:
290,274,211903,1,0,3:2:0:0:
288,249,211989,1,2,3:2:0:0:
434,197,212161,1,0,1:2:0:0:
310,102,212334,1,4,3:3:0:0:
434,197,212506,6,0,P|444:140|477:98,1,97.4999955368044,2|0,3:2|0:0,0:0:0:0:
278,13,212851,2,0,P|288:70|321:112,1,97.4999955368044,0|0,1:2|0:0,0:0:0:0:
480,101,213196,1,0,3:2:0:0:
370,31,213368,1,4,3:3:0:0:
499,118,213541,1,0,1:2:0:0:
349,177,213713,6,0,P|265:183|164:119,1,194.999991073609,0|2,3:2|0:0,0:0:0:0:
66,11,214230,1,0,1:2:0:0:
44,189,214403,1,4,3:3:0:0:
171,128,214575,1,2,3:2:0:0:
185,108,214661,1,0,3:2:0:0:
183,83,214748,1,2,3:2:0:0:
128,245,214920,1,0,1:2:0:0:
16,99,215093,1,4,3:3:0:0:
131,264,215265,6,0,P|125:315|106:366,1,97.4999955368044,2|0,3:2|0:0,0:0:0:0:
252,231,215610,2,0,P|256:178|277:128,1,97.4999955368044,0|0,1:2|0:0,0:0:0:0:
212,347,215955,1,0,3:2:0:0:
128,245,216127,1,4,3:3:0:0:
301,310,216299,1,0,1:2:0:0:
271,136,216472,6,0,P|344:112|482:109,1,194.999991073609,0|2,3:2|0:0,0:0:0:0:
340,205,216989,1,0,1:2:0:0:
300,34,217161,1,4,3:3:0:0:
461,106,217334,1,0,3:2:0:0:
476,87,217420,1,0,3:2:0:0:
478,62,217506,1,0,3:2:0:0:
442,202,217679,1,0,1:2:0:0:
351,110,217851,1,2,3:2:0:0:
282,266,218024,6,0,L|270:321,3,48.7499977684022,4|0|0|0,1:2|0:0|0:0|0:0,0:0:0:0:
197,274,218368,1,2,1:2:0:0:
345,360,218541,2,0,P|404:354|439:311,1,97.4999955368044,2|0,3:2|0:0,0:0:0:0:
299,254,218886,1,4,3:3:0:0:
487,175,219058,1,2,1:2:0:0:
380,110,219230,1,4,3:3:0:0:
430,329,219403,6,0,P|442:237|482:133,1,194.999991073609,4|0,1:2|0:0,0:0:0:0:
402,17,219920,2,0,P|399:68|371:121,1,97.4999955368044,6|0,1:2|0:0,0:0:0:0:
318,164,220179,1,0,3:0:0:0:
318,164,220265,2,0,P|297:125|298:105,1,48.7499977684022,2|0,3:2|0:0,0:0:0:0:
231,49,220437,5,0,1:2:0:0:
192,265,220610,1,4,0:3:0:0:
95,143,220782,1,4,1:0:0:0:
256,192,220868,12,0,223368,0:0:0:0:
