osu file format v14

[General]
AudioFilename: audio.mp3
AudioLeadIn: 0
PreviewTime: -1
Countdown: 0
SampleSet: Soft
StackLeniency: 0.7
Mode: 0
LetterboxInBreaks: 0
WidescreenStoryboard: 1

[Editor]
Bookmarks: 11127,22161,33196,44230,55265,55351,55437,60782,66299,77334,85610,88368,88455,88541,88627,88713,96644,99403,107679,110437,121472,132506,138024,143541,149058,151817,153196,154575,165610,171127,173886,176644,184920,187679,198713,209748,220782,231817,242851
DistanceSpacing: 1
BeatDivisor: 4
GridSize: 16
TimelineZoom: 1.7

[Metadata]
Title:Vermilion Universe
TitleUnicode:Vermilion Universe
Artist:S.C.X Hatsunemiku
ArtistUnicode:S.C.X 初音ミク
Creator:Edmound
Version:Normal
Source:123
Tags:123
BeatmapID:4493234
BeatmapSetID:2131171

[Difficulty]
HPDrainRate:2
CircleSize:3
OverallDifficulty:3
ApproachRate:6
SliderMultiplier:1.4
SliderTickRate:1

[Events]
//Background and Video events
//Break Periods
//Storyboard Layer 0 (Background)
//Storyboard Layer 1 (Fail)
//Storyboard Layer 2 (Pass)
//Storyboard Layer 3 (Foreground)
//Storyboard Layer 4 (Overlay)
//Storyboard Sound Samples

[TimingPoints]
93,344.827586206897,4,2,0,100,1,0

[HitObjects]
429,17,11127,6,0,P|486:101|465:201,1,210
328,173,11989,2,0,P|315:141|316:106,2,70
36,102,13886,6,0,P|120:44|220:65,1,210
192,203,14748,2,0,P|160:216|125:215,1,70
146,148,15093,2,0,L|365:116,2,210
45,332,16644,5,0,0:0:0:0:
45,332,17506,2,0,L|119:324,1,70
172,364,17851,1,0,0:0:0:0:
455,348,19403,5,0,0:0:0:0:
455,348,20265,2,0,L|381:340,1,70
323,373,20610,2,0,L|175:357,1,140
113,351,21127,2,0,P|89:325|83:290,5,70
101,224,22161,5,0,0:0:0:0:
101,224,22506,2,0,P|123:154|111:88,2,140
52,275,23368,2,0,P|120:263|186:285,2,140
12,140,24403,1,0,0:0:0:0:
152,136,24748,2,0,P|255:135|347:183,1,210
402,227,25437,2,0,P|432:190|440:95,1,140
407,38,25955,1,0,0:0:0:0:
339,54,26127,2,0,P|270:54|208:22,1,140
103,116,26817,2,0,P|63:149|89:365,1,280
142,379,27679,5,0,0:0:0:0:
136,239,28024,2,0,P|202:223|259:259,1,140
329,381,28713,1,0,0:0:0:0:
375,327,28886,2,0,L|387:175,1,140
486,89,29575,1,0,0:0:0:0:
346,97,29920,2,0,P|275:102|225:60,1,140
24,217,31299,5,0,0:0:0:0:
41,149,31472,1,0,0:0:0:0:
92,195,31644,2,0,P|177:252|276:228,1,210
325,177,32334,1,0,0:0:0:0:
205,104,32679,2,0,P|192:136|196:170,2,70
259,59,33196,5,2,0:1:0:0:
249,198,33541,2,0,P|184:182|136:126,2,140,8|0|8,0:0|0:0|0:0,0:0:0:0:
319,193,34403,2,0,P|387:199|439:244,1,140
466,309,34920,1,8,0:0:0:0:
402,339,35093,2,0,P|380:275|400:205,1,140
445,154,35610,2,0,P|461:114|460:81,1,70,8|0,0:0|0:0,0:0:0:0:
409,39,35955,1,0,0:0:0:0:
289,111,36299,1,8,0:0:0:0:
231,151,36472,2,0,P|225:194|261:302,1,140
296,338,36989,1,8,0:0:0:0:
362,316,37161,2,0,P|411:306|503:350,2,140
275,48,38541,5,0,0:0:0:0:
205,42,38713,2,0,P|151:51|120:260,1,280
153,284,39575,2,0,L|233:267,2,70
240,173,40265,2,0,L|160:156,2,70
161,56,40955,2,0,L|241:39,2,70
154,125,41472,6,0,P|75:133|7:102,1,140
1,43,41989,1,0,0:0:0:0:
51,173,42334,2,0,P|67:205|73:245,1,70
68,308,42679,1,0,0:0:0:0:
28,365,42851,6,0,L|188:335,1,140
234,324,43368,1,0,0:0:0:0:
302,307,43541,2,0,P|308:265|300:238,4,70,0|0|0|0|4,0:0|0:0|0:0|0:0|0:1,0:0:0:0:
188,225,44575,6,0,L|208:368,1,140
136,367,45093,2,0,P|103:355|82:329,1,70
60,261,45437,2,0,P|65:226|86:200,1,70
149,168,45782,1,0,0:0:0:0:
188,225,45955,2,0,L|276:209,1,70
386,160,46472,6,0,P|355:143|339:113,1,70
283,70,46817,2,0,P|292:36|317:14,1,70
387,18,47161,1,0,0:0:0:0:
449,49,47334,2,0,P|365:177|172:136,1,350
131,112,48368,6,0,P|94:121|70:147,1,70
43,207,48713,1,0,0:0:0:0:
67,272,48886,1,0,0:0:0:0:
204,244,49230,6,0,P|197:212|208:175,2,70
