osu file format v14

[General]
AudioFilename: mp3.mp3
AudioLeadIn: 0
PreviewTime: 9925
Countdown: 0
SampleSet: Normal
StackLeniency: 1
Mode: 1
LetterboxInBreaks: 0
WidescreenStoryboard: 0

[Editor]
Bookmarks: 5125,9925,19525,33925,38725,48325,57925,68725,78325,85525,94525
DistanceSpacing: 1
BeatDivisor: 2
GridSize: 8
TimelineZoom: 0.7999989

[Metadata]
Title:anemone
TitleUnicode:anemone
Artist:S-C-U feat. Qrispy Joybox
ArtistUnicode:S-C-U feat. Qrispy Joybox
Creator:octagonal
Version:Kantan
Source:REFLEC BEAT colette -Spring-
Tags:happy shoccho plus android マラソン! pack 1 パステルくんとスミス氏のrunrunマラソン! pastel-kun to smith-shi no runrun marathon! game rock
BeatmapID:1430031
BeatmapSetID:676092

[Difficulty]
HPDrainRate:7
CircleSize:5
OverallDifficulty:3
ApproachRate:5
SliderMultiplier:1.4
SliderTickRate:1

[Events]
//Background and Video events
0,0,"Anemone_PrettyLadyDiana_cu2.jpg",0,0
//Break Periods
//Storyboard Layer 0 (Background)
//Storyboard Layer 1 (Fail)
//Storyboard Layer 2 (Pass)
//Storyboard Layer 3 (Foreground)
//Storyboard Sound Samples

[TimingPoints]
325,300,4,1,0,80,1,0
325,-100,4,1,0,80,0,0
9775,-100,4,1,0,100,0,0
78325,-100,4,1,0,100,0,1
95875,-100,4,1,0,100,0,0

[HitObjects]
256,192,325,5,0,0:0:0:0:
256,192,1525,1,8,0:0:0:0:
256,184,2725,1,8,0:0:0:0:
256,184,3325,1,0,0:0:0:0:
256,184,3925,1,8,0:0:0:0:
256,184,5125,1,8,0:0:0:0:
256,184,6325,1,8,0:0:0:0:
256,192,7525,12,0,9325,0:0:0:0:
256,192,9925,5,0,0:0:0:0:
264,200,10525,1,8,0:0:0:0:
272,184,11125,1,0,0:0:0:0:
256,192,11425,1,0,0:0:0:0:
256,192,11725,1,8,0:0:0:0:
264,184,12325,1,8,0:0:0:0:
264,192,12925,1,0,0:0:0:0:
264,192,13525,1,8,0:0:0:0:
264,192,13825,1,8,0:0:0:0:
256,192,14125,1,0,0:0:0:0:
256,184,14725,1,0,0:0:0:0:
264,192,15325,1,8,0:0:0:0:
256,192,15925,1,8,0:0:0:0:
256,184,16225,1,0,0:0:0:0:
256,176,16525,1,8,0:0:0:0:
256,192,17125,1,0,0:0:0:0:
256,192,18025,1,8,0:0:0:0:
256,192,18925,1,0,0:0:0:0:
256,192,19525,1,12,0:0:0:0:
248,192,20125,1,8,0:0:0:0:
272,192,20725,1,0,0:0:0:0:
256,184,21925,1,0,0:0:0:0:
256,184,22525,1,8,0:0:0:0:
256,184,23125,1,0,0:0:0:0:
256,192,24325,1,8,0:0:0:0:
256,192,24925,1,0,0:0:0:0:
256,192,25525,1,8,0:0:0:0:
256,192,26725,1,0,0:0:0:0:
256,192,27325,1,8,0:0:0:0:
256,192,27925,1,8,0:0:0:0:
248,176,28525,1,0,0:0:0:0:
256,184,29125,1,0,0:0:0:0:
240,184,29725,1,8,0:0:0:0:
224,200,30325,1,0,0:0:0:0:
232,208,31525,1,8,0:0:0:0:
240,192,32125,1,0,0:0:0:0:
256,192,32725,1,8,0:0:0:0:
256,184,33925,1,12,0:0:0:0:
256,192,36325,1,8,0:0:0:0:
256,192,36925,1,0,0:0:0:0:
256,192,37525,1,8,0:0:0:0:
264,192,38725,1,12,0:0:0:0:
248,184,39325,1,8,0:0:0:0:
248,176,39625,1,8,0:0:0:0:
248,176,39925,1,0,0:0:0:0:
232,176,40525,1,0,0:0:0:0:
256,192,41125,1,8,0:0:0:0:
248,184,41725,1,0,0:0:0:0:
248,184,42025,1,8,0:0:0:0:
256,192,42325,1,0,0:0:0:0:
256,192,42925,1,0,0:0:0:0:
256,192,43525,1,8,0:0:0:0:
256,192,44125,1,8,0:0:0:0:
264,192,44425,1,0,0:0:0:0:
256,192,44725,1,0,0:0:0:0:
248,192,45325,1,0,0:0:0:0:
256,192,45925,1,8,0:0:0:0:
248,192,46525,1,8,0:0:0:0:
248,192,46825,1,8,0:0:0:0:
256,192,47125,1,0,0:0:0:0:
256,208,47725,1,0,0:0:0:0:
256,192,48325,5,0,0:0:0:0:
248,200,48925,1,8,0:0:0:0:
248,200,49525,1,0,0:0:0:0:
264,192,50125,1,8,0:0:0:0:
264,192,50425,1,8,0:0:0:0:
264,192,50725,1,0,0:0:0:0:
264,184,51325,1,8,0:0:0:0:
264,184,51925,1,0,0:0:0:0:
264,176,52525,1,8,0:0:0:0:
264,176,52825,1,0,0:0:0:0:
264,184,53125,1,8,0:0:0:0:
248,176,53725,1,8,0:0:0:0:
240,176,54325,1,0,0:0:0:0:
240,176,54925,1,8,0:0:0:0:
240,176,55525,1,8,0:0:0:0:
248,176,56125,1,0,0:0:0:0:
256,184,56725,1,8,0:0:0:0:
248,184,57025,1,8,0:0:0:0:
248,184,57325,1,8,0:0:0:0:
248,184,57925,1,4,0:0:0:0:
256,192,59125,1,0,0:0:0:0:
256,192,60325,1,0,0:0:0:0:
248,272,61525,1,0,0:0:0:0:
240,248,62125,1,8,0:0:0:0:
256,200,62725,1,0,0:0:0:0:
256,192,63925,1,0,0:0:0:0:
256,192,65125,1,0,0:0:0:0:
256,192,66325,1,0,0:0:0:0:
256,192,66925,1,0,0:0:0:0:
256,200,67525,1,4,0:0:0:0:
256,192,68725,1,4,0:0:0:0:
256,192,69325,1,8,0:0:0:0:
248,192,69925,1,0,0:0:0:0:
248,192,70225,1,0,0:0:0:0:
248,192,70825,1,8,0:0:0:0:
232,192,71125,1,12,0:0:0:0:
232,192,71725,1,0,0:0:0:0:
232,176,72325,1,8,0:0:0:0:
232,176,72625,1,0,0:0:0:0:
232,176,73225,1,8,0:0:0:0:
232,176,73525,1,0,0:0:0:0:
216,176,74125,1,8,0:0:0:0:
224,176,74725,1,8,0:0:0:0:
216,176,75025,1,0,0:0:0:0:
216,176,75325,1,8,0:0:0:0:
240,192,75625,1,0,0:0:0:0:
256,192,75925,1,0,0:0:0:0:
256,192,76825,1,0,0:0:0:0:
248,192,77725,1,0,0:0:0:0:
264,192,78325,1,12,0:0:0:0:
259,189,78925,1,0,0:0:0:0:
264,192,79525,1,8,0:0:0:0:
261,195,79825,1,8,0:0:0:0:
264,192,80425,1,0,0:0:0:0:
261,195,80725,1,8,0:0:0:0:
280,200,81325,1,0,0:0:0:0:
272,192,81925,1,8,0:0:0:0:
272,192,82225,1,0,0:0:0:0:
264,192,82825,1,12,0:0:0:0:
256,192,83125,1,0,0:0:0:0:
264,200,83725,1,8,0:0:0:0:
256,192,84325,1,8,0:0:0:0:
248,200,84625,1,8,0:0:0:0:
248,200,84925,1,8,0:0:0:0:
256,176,85225,1,0,0:0:0:0:
256,200,85525,1,0,0:0:0:0:
256,200,86425,1,8,0:0:0:0:
256,200,87325,1,0,0:0:0:0:
256,200,87925,1,0,0:0:0:0:
256,200,88825,1,8,0:0:0:0:
256,200,89725,1,0,0:0:0:0:
256,200,90325,1,0,0:0:0:0:
256,200,91225,1,8,0:0:0:0:
256,200,92125,1,0,0:0:0:0:
256,192,92725,1,0,0:0:0:0:
256,192,93625,1,0,0:0:0:0:
256,192,94525,1,0,0:0:0:0:
256,192,95425,1,4,0:0:0:0:
248,192,95875,1,12,0:0:0:0:
