osu file format v14

[General]
AudioFilename: audio.mp3
AudioLeadIn: 0
PreviewTime: 68725
Countdown: 0
SampleSet: Normal
StackLeniency: 0.7
Mode: 1
LetterboxInBreaks: 0
WidescreenStoryboard: 1

[Editor]
Bookmarks: 325,1525,2725,3925,5125,6325,19525,21025,21475,21925,23425,24025,24325,24775,25825,26725,27175,27625,28525,28825,29125,30325,31525,31975,32425,33025,33325,38725,40825,41125,41575,42025,42475,42925,43525,43975,44425,44725,45025,45325,45625,45925,46375,46825,47275,47725,48025,48325,50425,50725,51175,51625,52075,52525,53125,53575,54025,54325,54625,54925,55225,55525,56725,57325,57625
DistanceSpacing: 4.8
BeatDivisor: 1
GridSize: 32
TimelineZoom: 0.7

[Metadata]
Title:anemone
TitleUnicode:anemone
Artist:S-C-U feat. Qrispy Joybox
ArtistUnicode:S-C-U feat. Qrispy Joybox
Creator:Carol
Version:Kantan
Source:REFLEC BEAT colette -Spring-
Tags:Happy Shoccho jubeat saucer Konami BEMANI plus Android マラソン! pack 1 パステルくんとスミス氏のRUNRUNマラソン! Pastel-kun to Smith-shi no RUNRUN Marathon! groovin'!! flowering plants Ranunculaceae video game instrumental
BeatmapID:1420684
BeatmapSetID:671997

[Difficulty]
HPDrainRate:8
CircleSize:2
OverallDifficulty:3
ApproachRate:5
SliderMultiplier:1.4
SliderTickRate:1

[Events]
//Background and Video events
0,0,"anemoneBG.png",0,-90
//Break Periods
//Storyboard Layer 0 (Background)
//Storyboard Layer 1 (Fail)
//Storyboard Layer 2 (Pass)
//Storyboard Layer 3 (Foreground)
//Storyboard Layer 4 (Overlay)
//Storyboard Sound Samples

[TimingPoints]
325,300,4,1,0,100,1,0
2725,-100,4,1,0,60,0,0
5125,-100,4,1,0,80,0,0
6325,-100,4,1,0,60,0,0
7525,-100,4,1,0,90,0,0
9925,-100,4,1,0,80,0,0
17125,-100,4,1,0,90,0,0
19525,-100,4,1,0,80,0,0
34225,-100,4,1,0,60,0,0
36325,-100,4,1,0,90,0,0
38725,-100,4,1,0,80,0,0
57325,-111.111111111111,4,1,0,70,0,0
57925,-125,4,1,0,60,0,0
67525,-125,4,1,0,70,0,0
68725,-100,4,1,0,80,0,1
75925,-100,4,1,0,90,0,1
78325,-100,4,1,0,80,0,1
85525,-100,4,1,0,90,0,1
95875,-100,4,1,0,90,0,0

[HitObjects]
256,192,325,5,8,0:0:0:0:
256,192,925,1,8,0:0:0:0:
256,192,1525,1,0,0:0:0:0:
256,192,2725,1,8,0:0:0:0:
256,192,3325,1,8,0:0:0:0:
256,192,3925,1,0,0:0:0:0:
256,192,5125,1,8,0:0:0:0:
256,192,5725,1,8,0:0:0:0:
256,192,6325,1,8,0:0:0:0:
256,192,6925,1,8,0:0:0:0:
256,256,7525,1,4,0:0:0:0:
256,256,8425,1,4,0:0:0:0:
256,192,9325,1,0,0:0:0:0:
256,192,9925,1,8,0:0:0:0:
256,192,10225,1,0,0:0:0:0:
256,192,10525,1,8,0:0:0:0:
256,192,11125,1,0,0:0:0:0:
256,192,11725,1,0,0:0:0:0:
256,192,12325,1,8,0:0:0:0:
256,192,12625,1,0,0:0:0:0:
256,192,12925,1,0,0:0:0:0:
256,192,13525,1,8,0:0:0:0:
256,192,14125,1,0,0:0:0:0:
256,192,14725,1,0,0:0:0:0:
256,192,15025,1,8,0:0:0:0:
256,192,15325,1,0,0:0:0:0:
256,192,15925,1,8,0:0:0:0:
256,192,16525,1,8,0:0:0:0:
256,256,17125,1,4,0:0:0:0:
256,256,18025,1,12,0:0:0:0:
256,192,18925,1,0,0:0:0:0:
256,192,19825,1,8,0:0:0:0:
256,192,20125,1,8,0:0:0:0:
256,192,20725,1,8,0:0:0:0:
256,192,21325,1,0,0:0:0:0:
256,192,22225,1,8,0:0:0:0:
256,192,22525,1,8,0:0:0:0:
256,192,23125,1,8,0:0:0:0:
256,192,23725,1,8,0:0:0:0:
256,192,24625,1,8,0:0:0:0:
256,192,24925,1,8,0:0:0:0:
256,192,25525,1,8,0:0:0:0:
256,192,26125,1,0,0:0:0:0:
256,192,27025,1,8,0:0:0:0:
256,192,27325,1,8,0:0:0:0:
256,192,28225,1,0,0:0:0:0:
256,192,28525,1,0,0:0:0:0:
256,192,29425,1,8,0:0:0:0:
256,192,29725,1,8,0:0:0:0:
256,192,30325,1,0,0:0:0:0:
256,192,30925,1,8,0:0:0:0:
256,192,31825,1,8,0:0:0:0:
256,192,32125,1,8,0:0:0:0:
256,192,32725,1,8,0:0:0:0:
256,192,33325,1,0,0:0:0:0:
256,192,33625,1,8,0:0:0:0:
256,256,33925,1,4,0:0:0:0:
256,256,36325,1,12,0:0:0:0:
256,256,36925,1,4,0:0:0:0:
256,256,37525,1,12,0:0:0:0:
256,256,38125,1,12,0:0:0:0:
256,192,38725,1,8,0:0:0:0:
256,192,39775,1,8,0:0:0:0:
256,192,40075,1,8,0:0:0:0:
256,192,40375,1,8,0:0:0:0:
256,192,41125,1,8,0:0:0:0:
256,192,42175,1,8,0:0:0:0:
256,192,42475,1,8,0:0:0:0:
256,192,42775,1,8,0:0:0:0:
256,192,43525,1,0,0:0:0:0:
256,192,44575,1,8,0:0:0:0:
256,192,44875,1,8,0:0:0:0:
256,192,45175,1,8,0:0:0:0:
256,192,45925,1,8,0:0:0:0:
256,192,46975,1,8,0:0:0:0:
256,192,47275,1,8,0:0:0:0:
256,192,47575,1,8,0:0:0:0:
256,256,48325,1,4,0:0:0:0:
256,192,49525,1,0,0:0:0:0:
256,192,50125,1,8,0:0:0:0:
256,192,50425,1,8,0:0:0:0:
256,192,50725,1,0,0:0:0:0:
256,192,51925,1,0,0:0:0:0:
256,192,52525,1,8,0:0:0:0:
256,192,52825,1,8,0:0:0:0:
256,256,53125,1,4,0:0:0:0:
256,192,54325,1,0,0:0:0:0:
256,192,54925,1,0,0:0:0:0:
256,192,55225,1,0,0:0:0:0:
256,192,55525,1,8,0:0:0:0:
256,192,56125,1,0,0:0:0:0:
256,256,56725,1,12,0:0:0:0:
256,256,57325,1,12,0:0:0:0:
256,192,57925,1,8,0:0:0:0:
256,192,59125,1,0,0:0:0:0:
256,192,59725,1,8,0:0:0:0:
256,192,60325,1,0,0:0:0:0:
256,192,61525,1,0,0:0:0:0:
256,192,62125,1,8,0:0:0:0:
256,192,62425,1,8,0:0:0:0:
256,192,62725,1,0,0:0:0:0:
256,192,63925,1,0,0:0:0:0:
256,192,64525,1,8,0:0:0:0:
256,192,65125,1,0,0:0:0:0:
256,192,66325,1,0,0:0:0:0:
256,192,66925,1,0,0:0:0:0:
256,192,67225,1,0,0:0:0:0:
256,256,67525,1,12,0:0:0:0:
256,192,68725,1,8,0:0:0:0:
256,192,69025,1,0,0:0:0:0:
256,192,69325,1,8,0:0:0:0:
256,192,69925,1,0,0:0:0:0:
256,192,70525,1,0,0:0:0:0:
256,192,71125,1,8,0:0:0:0:
256,192,71425,1,0,0:0:0:0:
256,192,71725,1,0,0:0:0:0:
256,192,72325,1,8,0:0:0:0:
256,192,72925,1,0,0:0:0:0:
256,192,73525,1,0,0:0:0:0:
256,192,73825,1,8,0:0:0:0:
256,192,74125,1,0,0:0:0:0:
256,192,74725,1,8,0:0:0:0:
256,192,75325,1,8,0:0:0:0:
256,256,75925,1,4,0:0:0:0:
256,256,76825,1,4,0:0:0:0:
256,192,77725,1,0,0:0:0:0:
256,192,78325,1,8,0:0:0:0:
256,192,78625,1,0,0:0:0:0:
256,192,78925,1,8,0:0:0:0:
256,192,79525,1,0,0:0:0:0:
256,192,80125,1,0,0:0:0:0:
256,192,80725,1,8,0:0:0:0:
256,192,81025,1,0,0:0:0:0:
256,192,81325,1,0,0:0:0:0:
256,192,81925,1,8,0:0:0:0:
256,192,82525,1,0,0:0:0:0:
256,192,83125,1,0,0:0:0:0:
256,192,83425,1,8,0:0:0:0:
256,192,83725,1,0,0:0:0:0:
256,192,84325,1,8,0:0:0:0:
256,192,84925,1,8,0:0:0:0:
256,256,85525,1,4,0:0:0:0:
256,256,86425,1,12,0:0:0:0:
256,192,87325,1,0,0:0:0:0:
256,256,87925,1,4,0:0:0:0:
256,256,88825,1,12,0:0:0:0:
256,192,89725,1,0,0:0:0:0:
256,256,90325,1,4,0:0:0:0:
256,256,91225,1,12,0:0:0:0:
256,192,92125,1,0,0:0:0:0:
256,256,92725,1,4,0:0:0:0:
256,256,93625,1,4,0:0:0:0:
256,256,94525,1,4,0:0:0:0:
256,256,95425,1,12,0:0:0:0:
256,192,95875,1,8,0:0:0:0:
