osu file format v14

[General]
AudioFilename: audio.mp3
AudioLeadIn: 0
PreviewTime: 59067
Countdown: 0
SampleSet: Soft
StackLeniency: 0.7
Mode: 2
LetterboxInBreaks: 0
WidescreenStoryboard: 0

[Editor]
Bookmarks: 7017,12800,24367,35933,47499
DistanceSpacing: 1
BeatDivisor: 4
GridSize: 4
TimelineZoom: 1.9

[Metadata]
Title:NANAHOSHI
TitleUnicode:ナナホシ
Artist:S-C-U
ArtistUnicode:S-C-U
Creator:ZiRoX
Version:Ladybug
Source:jubeat copius APPEND
Tags:shigeharu saeki videogame video game electronic instrumental bighzonda bigh mniam
BeatmapID:3181226
BeatmapSetID:1557240

[Difficulty]
HPDrainRate:5
CircleSize:7
OverallDifficulty:9
ApproachRate:9
SliderMultiplier:1.9
SliderTickRate:1

[Events]
//Background and Video events
0,0,"nanahoshi-bg.png",0,0
//Break Periods
//Storyboard Layer 0 (Background)
//Storyboard Layer 1 (Fail)
//Storyboard Layer 2 (Pass)
//Storyboard Layer 3 (Foreground)
//Storyboard Layer 4 (Overlay)
//Storyboard Sound Samples

[TimingPoints]
247,361.44578313253,4,2,1,75,1,0
247,-48.9690721649485,4,2,1,75,0,0
11813,-48.9690721649485,4,2,1,85,0,0
23379,-48.9690721649485,4,2,1,75,0,0
59524,-48.9690721649485,4,2,1,90,0,1
71000,-48.9690721649485,4,2,1,90,0,0
71090,-48.9690721649485,4,2,1,90,0,1
82656,-48.9690721649485,4,2,1,85,0,0

[Colours]
Combo1 : 255,81,81
Combo2 : 254,238,126
Combo3 : 255,207,45
Combo4 : 255,165,74

[HitObjects]
400,192,247,5,2,0:0:0:0:
212,192,789,1,2,0:0:0:0:
400,192,1331,1,2,0:0:0:0:
400,192,1873,1,2,0:0:0:0:
196,192,2415,1,2,0:0:0:0:
380,192,2777,1,2,0:0:0:0:
112,192,3138,5,2,0:0:0:0:
300,192,3680,1,2,0:0:0:0:
112,192,4222,1,2,0:0:0:0:
112,192,4765,1,2,0:0:0:0:
316,192,5307,1,2,0:0:0:0:
132,192,5668,1,2,0:0:0:0:
408,80,6030,6,0,L|384:154|384:154|313:246|313:246,1,194,14|2,0:0|0:0,0:0:0:0:
128,80,6572,2,0,L|176:141|176:141|223:247|223:247,1,194,2|2,0:0|0:0,0:0:0:0:
440,80,7114,2,0,L|442:158|442:158|440:274|440:274,1,194,2|2,0:0|0:0,0:0:0:0:
200,80,7656,2,0,L|223:154|223:154|295:245|295:245,1,194,2|2,0:0|0:0,0:0:0:0:
416,80,8198,1,2,0:0:0:0:
208,80,8560,1,2,0:0:0:0:
464,80,8921,6,0,L|447:156|447:156|464:271|464:271,1,194,2|2,0:0|0:0,0:0:0:0:
256,80,9463,2,0,L|217:147|217:147|161:249|161:249,1,194,2|2,0:0|0:0,0:0:0:0:
392,80,10006,2,0,L|392:158|392:158|392:274|392:274,1,194,2|2,0:0|0:0,0:0:0:0:
184,160,10548,2,0,L|160:234|160:234|89:326|89:326,1,194,2|2,0:0|0:0,0:0:0:0:
320,152,11090,1,2,0:0:0:0:
128,144,11451,1,2,0:0:0:0:
364,192,11813,6,0,L|372:289|372:289,1,97,14|2,0:0|0:0,0:0:0:0:
220,168,12084,2,0,L|216:265|216:265,1,97,2|2,0:0|1:2,0:0:0:0:
64,168,12355,2,0,L|56:265|56:265,1,97,2|2,0:0|0:0,0:0:0:0:
224,112,12626,2,0,L|232:209|232:209,1,97,2|2,0:0|0:0,0:0:0:0:
68,104,12897,1,2,1:2:0:0:
232,64,13078,1,2,0:0:0:0:
396,72,13259,6,0,L|396:169|396:169,1,97,10|2,0:0|0:0,0:0:0:0:
232,72,13530,2,0,L|215:168|215:168,1,97,2|2,0:0|1:2,0:0:0:0:
380,152,13801,2,0,L|380:249|380:249,1,97,2|2,0:0|0:0,0:0:0:0:
216,176,14072,2,0,L|224:273|224:273,1,97,2|2,0:0|0:0,0:0:0:0:
392,224,14343,1,2,1:2:0:0:
232,224,14524,1,2,0:0:0:0:
464,224,14704,6,0,L|471:301|471:301|464:185|464:185,1,194,10|2,0:0|0:0,0:0:0:0:
416,312,14975,1,2,0:0:0:0:
280,320,15066,2,0,L|291:243|291:243|280:127|280:127,1,194,2|2,1:2|0:0,0:0:0:0:
232,232,15337,1,2,0:0:0:0:
96,232,15427,2,0,L|48:317|48:317|96:233|96:233,2,97,10|2|2,0:0|0:0|0:0,0:0:0:0:
264,120,15789,2,0,L|305:186|305:186|359:289|359:289,1,194,2|2,1:2|0:0,0:0:0:0:
352,80,16060,1,2,0:0:0:0:
96,224,16150,6,0,L|82:300|82:300|96:185|96:185,1,194,10|2,0:0|0:0,0:0:0:0:
144,312,16421,1,2,0:0:0:0:
280,320,16512,2,0,L|276:242|276:242|280:126|280:126,1,194,2|2,1:2|0:0,0:0:0:0:
328,232,16783,1,2,0:0:0:0:
464,232,16873,2,0,L|472:309|472:309|464:193|464:193,1,194,10|2,0:0|0:0,0:0:0:0:
416,320,17144,1,2,0:0:0:0:
280,320,17234,2,0,L|232:235|232:235,1,97,2|2,1:2|0:0,0:0:0:0:
368,208,17415,2,0,L|416:293|416:293,1,97,2|0,0:0|0:0,0:0:0:0:
160,192,17596,6,0,L|152:289|152:289,1,97,10|2,0:0|0:0,0:0:0:0:
320,116,17867,2,0,L|324:213|324:213,1,97,2|2,0:0|1:2,0:0:0:0:
160,192,18138,2,0,L|168:289|168:289,1,97,2|2,0:0|0:0,0:0:0:0:
324,112,18409,2,0,L|332:209|332:209,1,97,2|2,0:0|0:0,0:0:0:0:
156,112,18680,1,2,1:2:0:0:
308,64,18861,1,2,0:0:0:0:
128,72,19042,6,0,L|128:169|128:169,1,97,10|2,0:0|0:0,0:0:0:0:
284,72,19313,2,0,L|301:168|301:168,1,97,2|2,0:0|1:2,0:0:0:0:
144,152,19584,2,0,L|144:249|144:249,1,97,2|2,0:0|0:0,0:0:0:0:
308,176,19855,2,0,L|300:273|300:273,1,97,2|2,0:0|0:0,0:0:0:0:
136,224,20126,1,2,1:2:0:0:
296,224,20307,1,2,0:0:0:0:
48,224,20487,6,0,L|43:302|43:302|48:186|48:186,1,194,10|2,0:0|0:0,0:0:0:0:
96,312,20759,1,2,0:0:0:0:
264,320,20849,2,0,L|282:244|282:244|264:129|264:129,1,194,2|2,1:2|0:0,0:0:0:0:
216,232,21120,1,2,0:0:0:0:
72,232,21210,2,0,L|24:317|24:317|72:233|72:233,2,97,10|2|2,0:0|0:0|0:0,0:0:0:0:
304,120,21572,2,0,L|274:192|274:192|209:288|209:288,1,194,2|2,1:2|0:0,0:0:0:0:
216,80,21843,1,2,0:0:0:0:
416,224,21933,6,0,L|360:278|360:278|321:168|321:168,1,194,10|10,0:0|0:0,0:0:0:0:
264,224,22204,1,2,0:0:0:0:
400,304,22295,2,0,L|345:359|345:359|305:250|305:250,1,194,2|2,1:2|0:0,0:0:0:0:
248,304,22566,1,2,0:0:0:0:
80,256,22656,2,0,L|105:330|105:330|175:237|175:237,1,194,10|10,0:0|0:0,0:0:0:0:
224,256,22927,1,2,0:0:0:0:
56,224,23018,2,0,L|56:321|56:321,1,97,10|2,1:2|0:0,0:0:0:0:
224,176,23198,2,0,L|272:261|272:261,1,97,10|8,0:0|0:0,0:0:0:0:
56,128,23379,5,12,0:0:0:0:
188,96,23560,2,0,L|148:184|148:184|93:264|93:264|147:320|147:320|188:211|188:211,2,194,2|2|2,0:0|1:2|0:0,0:0:0:0:
56,128,24102,1,10,0:0:0:0:
232,128,24463,2,0,L|219:205|219:205|232:321|232:321,1,194,2|2,1:2|0:0,0:0:0:0:
372,224,24825,6,0,L|338:294|338:294|277:195|277:195,1,194,10|2,0:0|0:0,0:0:0:0:
424,224,25186,1,2,1:2:0:0:
224,224,25548,2,0,L|220:302|220:302|224:186|224:186,1,194,10|2,0:0|0:0,0:0:0:0:
368,136,25909,2,0,L|382:212|382:212|368:327|368:327,1,194,2|2,1:2|0:0,0:0:0:0:
128,96,26271,6,0,L|169:162|169:162|223:265|223:265,1,194,10|2,0:0|0:0,0:0:0:0:
368,96,26632,2,0,L|330:164|330:164|273:265|273:265,1,194,2|2,1:2|0:0,0:0:0:0:
128,96,26993,1,10,0:0:0:0:
368,88,27355,2,0,L|354:164|354:164|368:279|368:279,1,194,2|2,1:2|0:0,0:0:0:0:
144,168,27897,6,0,L|110:259|110:259|49:334|49:334|105:280|105:280|144:170|144:170,2,194,2|2|2,0:0|1:2|0:0,0:0:0:0:
308,168,28439,1,10,0:0:0:0:
85,193,28620,1,8,0:1:0:0:
348,200,28801,1,8,1:1:0:0:
160,92,29162,5,8,0:0:0:0:
408,88,29343,1,2,0:0:0:0:
284,88,29524,2,0,L|337:145|337:145|379:253|379:253,1,194,2|2,1:2|0:0,0:0:0:0:
144,88,29885,1,10,0:0:0:0:
376,88,30246,2,0,L|363:165|363:165|376:281|376:281,1,194,2|2,1:2|0:0,0:0:0:0:
240,176,30608,6,0,L|261:251|261:251|335:341|335:341,1,194,10|2,0:0|0:0,0:0:0:0:
104,176,30969,1,2,1:2:0:0:
320,168,31331,2,0,L|358:236|358:236|415:337|415:337,1,194,10|2,0:0|0:0,0:0:0:0:
184,172,31692,2,0,L|152:243|152:243|89:341|89:341,1,194,2|2,1:2|0:0,0:0:0:0:
376,160,32054,6,0,B|385:247|385:247|356:330|356:330|354:243|354:243|292:134|292:134,1,388,10|2,0:0|1:2,0:0:0:0:
208,304,32596,1,2,0:0:0:0:
360,232,32777,2,0,L|358:310|358:310|368:194|368:194,1,194,10|2,0:0|0:0,0:0:0:0:
184,212,33319,6,0,L|171:298|171:298|167:385|167:385|167:298|167:298|184:173|184:173,1,388,2|2,0:0|0:0,0:0:0:0:
344,32,33861,1,2,1:2:0:0:
184,32,34042,1,2,0:0:0:0:
344,32,34222,1,10,0:0:0:0:
352,136,34403,1,8,0:1:0:0:
224,136,34493,1,8,0:1:0:0:
96,136,34584,2,0,L|81:212|81:212|96:327|96:327,1,194,8|0,1:1|0:0,0:0:0:0:
456,128,34945,5,8,0:0:0:0:
328,96,35126,2,0,L|358:188|358:188|423:260|423:260|376:322|376:322|328:216|328:216,2,194,2|2|2,0:0|1:2|0:0,0:0:0:0:
172,96,35668,1,10,0:0:0:0:
280,128,36030,2,0,L|296:204|296:204|280:319|280:319,1,194,2|2,1:2|0:0,0:0:0:0:
128,224,36391,6,0,L|161:294|161:294|223:196|223:196,1,194,10|2,0:0|0:0,0:0:0:0:
380,220,36753,1,2,1:2:0:0:
288,224,37114,2,0,L|299:301|299:301|288:185|288:185,1,194,10|2,0:0|0:0,0:0:0:0:
144,136,37475,2,0,L|158:212|158:212|144:327|144:327,1,194,2|2,1:2|0:0,0:0:0:0:
384,96,37837,6,0,L|328:150|328:150|289:260|289:260,1,194,10|2,0:0|0:0,0:0:0:0:
432,96,38198,2,0,L|401:167|401:167|337:264|337:264,1,194,2|2,1:2|0:0,0:0:0:0:
184,96,38560,1,10,0:0:0:0:
376,96,38921,2,0,L|360:172|360:172|376:287|376:287,1,194,2|2,1:2|0:0,0:0:0:0:
152,92,39463,6,0,L|196:178|196:178|247:261|247:261|218:333|218:333|152:237|152:237,2,194,2|2|2,0:0|1:2|0:0,0:0:0:0:
312,92,40006,1,10,0:0:0:0:
92,116,40186,1,8,0:1:0:0:
352,124,40367,1,8,1:1:0:0:
352,192,40548,2,0,L|353:289|353:289,1,97,8|8,0:1|0:1,0:0:0:0:
152,96,40728,5,8,0:0:0:0:
380,88,40909,1,2,0:0:0:0:
256,88,41090,2,0,L|217:155|217:155|161:257|161:257,1,194,2|2,1:2|0:0,0:0:0:0:
380,88,41451,1,10,0:0:0:0:
136,88,41813,2,0,L|145:165|145:165|136:281|136:281,1,194,2|2,1:2|0:0,0:0:0:0:
280,176,42174,6,0,L|242:244|242:244|185:345|185:345,1,194,10|2,0:0|0:0,0:0:0:0:
408,176,42536,1,2,1:2:0:0:
192,168,42897,2,0,L|171:243|171:243|97:333|97:333,1,194,10|2,0:0|0:0,0:0:0:0:
328,176,43259,2,0,L|381:233|381:233|423:341|423:341,1,194,2|2,1:2|0:0,0:0:0:0:
136,160,43620,6,0,B|119:246|119:246|149:328|149:328|182:247|182:247|220:127|220:127,1,388,10|2,0:0|1:2,0:0:0:0:
304,304,44162,1,2,0:0:0:0:
152,232,44343,2,0,L|153:310|153:310|144:194|144:194,1,194,10|2,0:0|0:0,0:0:0:0:
328,224,44885,6,0,L|338:311|338:311|320:226|320:226|329:139|329:139|328:13|328:13,1,388,2|2,0:0|0:0,0:0:0:0:
168,32,45427,1,2,1:2:0:0:
328,32,45608,1,2,0:0:0:0:
168,32,45789,1,10,0:0:0:0:
160,136,45969,1,12,0:2:0:0:
288,136,46060,1,12,0:2:0:0:
416,136,46150,2,0,L|399:212|399:212|416:327|416:327,1,194,12|2,1:2|0:0,0:0:0:0:
368,224,46421,1,2,0:0:0:0:
136,224,46512,6,0,L|152:300|152:300|136:185|136:185,1,194,14|10,0:0|0:0,0:0:0:0:
288,136,46873,2,0,L|240:221|240:221,1,97,10|2,1:1|0:0,0:0:0:0:
388,132,47144,2,0,L|383:210|383:210|388:326|388:326,1,194,2|2,0:0|0:0,0:0:0:0:
244,36,47506,1,10,0:1:0:0:
400,36,47596,2,0,L|381:111|381:111|400:226|400:226,1,194,2|10,1:0|0:1,0:0:0:0:
128,128,47957,6,0,L|156:200|156:200|223:295|223:295,1,194,10|10,0:0|0:0,0:0:0:0:
128,128,48319,2,0,L|128:225|128:225,1,97,10|2,1:1|0:0,0:0:0:0:
292,204,48590,1,2,0:0:0:0:
164,196,48861,1,8,0:0:0:0:
316,192,49042,1,8,1:0:0:0:
164,196,49222,2,0,L|164:293|164:293,1,97,10|2,0:1|0:0,0:0:0:0:
348,232,49403,6,0,L|338:309|338:309|348:193|348:193,1,194,10|10,0:0|0:0,0:0:0:0:
192,136,49765,2,0,L|144:221|144:221,1,97,10|2,1:1|0:0,0:0:0:0:
384,128,50036,2,0,L|342:193|342:193|289:297|289:297,1,194,2|2,0:0|0:0,0:0:0:0:
384,32,50397,1,10,0:1:0:0:
200,32,50487,2,0,L|193:109|193:109|200:225|200:225,1,194,2|10,1:0|0:1,0:0:0:0:
444,128,50849,6,0,L|390:184|390:184|349:293|349:293,1,194,10|10,0:0|0:0,0:0:0:0:
128,128,51210,2,0,L|128:225|128:225,1,97,10|2,1:1|0:0,0:0:0:0:
352,192,51481,1,2,0:0:0:0:
240,192,51753,1,8,0:0:0:0:
400,192,51933,1,0,1:0:0:0:
240,192,52114,2,0,L|240:289|240:289,1,97,10|2,0:1|0:0,0:0:0:0:
72,288,52295,6,0,L|122:341|122:341|145:272|145:272|188:213|188:213|214:145|214:145|179:93|179:93|144:41|144:41|118:98|118:98|72:189|72:189,2,291,10|2|2,0:0|0:0|0:0,0:0:0:0:
248,208,53018,2,0,L|257:285|257:285|248:169|248:169,1,194,10|2,0:0|0:0,0:0:0:0:
96,120,53379,2,0,L|105:197|105:197|96:313|96:313,1,194,10|2,1:2|0:0,0:0:0:0:
168,32,53650,1,2,0:0:0:0:
440,288,53740,6,0,L|397:347|397:347|355:288|355:288|326:221|326:221|298:154|298:154|316:94|316:94|357:46|357:46|408:9|408:9|440:106|440:106,2,291,10|2|2,0:0|0:0|0:0,0:0:0:0:
264,208,54463,2,0,L|280:284|280:284|264:169|264:169,1,194,10|2,0:0|0:0,0:0:0:0:
416,120,54825,2,0,L|413:198|413:198|416:314|416:314,1,194,10|2,1:2|0:0,0:0:0:0:
344,32,55096,1,2,0:0:0:0:
72,288,55186,6,0,L|100:355|100:355|149:301|149:301|176:233|176:233|214:171|214:171|185:115|185:115|136:76|136:76|138:13|138:13|72:90|72:90,2,291,10|2|2,0:0|0:0|0:0,0:0:0:0:
248,208,55909,2,0,L|237:285|237:285|248:169|248:169,1,194,10|2,0:0|0:0,0:0:0:0:
208,116,56180,1,0,0:0:0:0:
80,120,56271,1,10,1:2:0:0:
80,72,56361,1,0,0:0:0:0:
80,25,56451,1,2,0:0:0:0:
356,32,56632,5,14,0:2:0:0:
120,32,56813,1,14,0:2:0:0:
392,32,57174,1,14,0:2:0:0:
120,32,57536,1,14,0:2:0:0:
392,32,57897,2,0,L|392:129|392:129,1,97,10|10,0:0|0:0,0:0:0:0:
164,96,58078,1,14,0:0:0:0:
128,112,59162,6,0,L|128:209|128:209,1,97,2|2,0:0|0:0,0:0:0:0:
276,160,59343,2,0,L|324:245|324:245,1,97,2|2,0:0|0:0,0:0:0:0:
128,168,59524,6,0,L|146:244|146:244|128:359|128:359,1,194,14|2,0:0|0:0,0:0:0:0:
264,264,59795,2,0,L|295:335|295:335|359:238|359:238,1,194,2|2,0:0|0:0,0:0:0:0:
192,224,60066,2,0,L|192:321|192:321,1,97,2|0,0:0|0:0,0:0:0:0:
384,168,60246,6,0,L|373:245|373:245|384:361|384:361,1,194,10|2,0:0|0:0,0:0:0:0:
248,264,60518,2,0,L|218:336|218:336|153:240|153:240,1,194,2|2,0:0|0:0,0:0:0:0:
320,224,60789,2,0,L|320:321|320:321,1,97,2|0,0:0|0:0,0:0:0:0:
128,168,60969,6,0,L|134:245|134:245|128:361|128:361,1,194,10|2,0:0|0:0,0:0:0:0:
292,264,61240,2,0,L|292:342|292:342|292:226|292:226,1,194,2|2,0:0|0:0,0:0:0:0:
156,168,61512,2,0,L|108:253|108:253,1,97,2|0,0:0|0:0,0:0:0:0:
384,168,61692,6,0,L|378:245|378:245|384:361|384:361,1,194,10|2,0:0|0:0,0:0:0:0:
128,168,62054,2,0,L|142:244|142:244|128:359|128:359,1,194,2|2,1:0|0:0,0:0:0:0:
408,112,62415,6,0,L|362:175|362:175|313:280|313:280,1,194,10|2,0:0|0:0,0:0:0:0:
172,112,62686,2,0,L|123:172|123:172|77:279|77:279,1,194,2|2,0:0|0:0,0:0:0:0:
268,152,62957,2,0,L|268:249|268:249,1,97,2|0,0:0|0:0,0:0:0:0:
92,112,63138,6,0,L|137:175|137:175|187:280|187:280,1,194,10|2,0:0|0:0,0:0:0:0:
328,112,63409,2,0,L|362:182|362:182|423:281|423:281,1,194,2|2,0:0|0:0,0:0:0:0:
232,152,63680,2,0,L|232:249|232:249,1,97,2|0,0:0|0:0,0:0:0:0:
384,96,63861,6,0,L|372:173|372:173|384:289|384:289,1,194,10|2,0:0|0:0,0:0:0:0:
256,192,64132,1,2,0:0:0:0:
128,192,64222,2,0,L|128:289|128:289,1,97,2|0,1:0|0:0,0:0:0:0:
296,256,64403,2,0,L|296:353|296:353,1,97,2|2,0:0|0:0,0:0:0:0:
112,256,64584,2,0,L|116:334|116:334|112:218|112:218,1,194,10|2,0:0|0:0,0:0:0:0:
400,256,64945,2,0,L|399:334|399:334|400:218|400:218,1,194,2|10,1:0|0:0,0:0:0:0:
176,192,65307,6,0,L|128:277|128:277|176:361|176:361,2,97,10|2|2,0:0|0:0|0:0,0:0:0:0:
352,96,65578,2,0,L|364:173|364:173|352:289|352:289,1,194,2|2,0:0|0:0,0:0:0:0:
200,144,65849,2,0,L|197:222|197:222|200:338|200:338,1,194,2|10,0:0|0:0,0:0:0:0:
344,232,66120,2,0,L|325:307|325:307|344:192|344:192,1,194,2|2,0:0|0:0,0:0:0:0:
184,220,66391,2,0,L|148:289|148:289|89:189|89:189,1,194,2|2,1:0|0:0,0:0:0:0:
152,284,66662,1,0,0:0:0:0:
336,192,66753,6,0,L|384:277|384:277|336:361|336:361,2,97,10|2|2,0:0|0:0|0:0,0:0:0:0:
160,96,67024,2,0,L|160:174|160:174|160:290|160:290,1,194,2|2,0:0|0:0,0:0:0:0:
312,144,67295,2,0,L|329:220|329:220|312:335|312:335,1,194,2|10,0:0|0:0,0:0:0:0:
168,232,67566,2,0,L|143:306|143:306|73:213|73:213,1,194,2|2,0:0|0:0,0:0:0:0:
280,224,67837,2,0,L|280:302|280:302|280:186|280:186,1,194,2|2,1:0|0:0,0:0:0:0:
220,312,68108,1,0,0:0:0:0:
368,208,68198,5,10,0:0:0:0:
472,208,68379,2,0,L|424:293|424:293,1,97,2|2,0:0|0:0,0:0:0:0:
208,136,68560,2,0,L|160:221|160:221|208:305|208:305,2,97,2|2|2,1:0|0:0|0:0,0:0:0:0:
340,96,68921,1,10,0:0:0:0:
388,128,69012,1,2,0:0:0:0:
388,176,69102,1,2,0:0:0:0:
340,208,69192,1,2,0:0:0:0:
152,208,69283,2,0,L|135:284|135:284|152:169|152:169,1,194,2|2,1:0|0:0,0:0:0:0:
216,296,69554,1,2,0:0:0:0:
384,304,69644,6,0,L|372:381|372:381|384:265|384:265,1,194,10|0,0:0|0:0,0:0:0:0:
248,184,69915,2,0,L|199:244|199:244|153:351|153:351,1,194,10|0,0:0|0:0,0:0:0:0:
320,152,70186,2,0,L|320:249|320:249,1,97,10|0,0:0|0:0,0:0:0:0:
81,80,70367,2,0,L|120:147|120:147|176:249|176:249,1,194,10|10,0:0|0:0,0:0:0:0:
320,88,70728,2,0,L|320:185|320:185,1,97,10|2,1:2|0:0,0:0:0:0:
184,144,70909,2,0,L|136:229|136:229,1,97,10|10,0:0|0:0,0:0:0:0:
392,168,71090,6,0,L|337:223|337:223|297:332|297:332,1,194,14|2,0:0|0:0,0:0:0:0:
156,176,71361,2,0,L|164:253|164:253|156:369|156:369,1,194,2|2,0:0|0:0,0:0:0:0:
296,264,71632,2,0,L|296:361|296:361,1,97,2|0,0:0|0:0,0:0:0:0:
80,160,71813,6,0,L|103:234|103:234|175:325|175:325,1,194,10|2,0:0|0:0,0:0:0:0:
320,152,72084,2,0,L|332:229|332:229|320:345|320:345,1,194,2|2,0:0|0:0,0:0:0:0:
180,64,72355,2,0,L|132:149|132:149,1,97,2|0,0:0|0:0,0:0:0:0:
384,168,72536,6,0,L|394:245|394:245|384:361|384:361,1,194,10|2,0:0|0:0,0:0:0:0:
248,264,72807,2,0,L|206:329|206:329|153:225|153:225,1,194,2|2,0:0|0:0,0:0:0:0:
320,224,73078,2,0,L|320:321|320:321,1,97,2|0,0:0|0:0,0:0:0:0:
128,168,73259,6,0,L|139:245|139:245|128:361|128:361,1,194,10|2,0:0|0:0,0:0:0:0:
368,168,73620,2,0,L|352:244|352:244|368:359|368:359,1,194,2|10,1:0|0:0,0:0:0:0:
120,96,73981,6,0,L|169:156|169:156|215:263|215:263,1,194,10|2,0:0|0:0,0:0:0:0:
360,92,74253,2,0,L|360:170|360:170|360:286|360:286,1,194,2|2,0:0|0:0,0:0:0:0:
220,208,74524,2,0,L|220:305|220:305,1,97,2|0,0:0|0:0,0:0:0:0:
392,96,74704,6,0,L|366:169|366:169|297:263|297:263,1,194,10|2,0:0|0:0,0:0:0:0:
152,92,74976,2,0,L|157:170|157:170|152:286|152:286,1,194,2|2,0:0|0:0,0:0:0:0:
328,208,75247,2,0,L|376:293|376:293,1,97,2|0,0:0|0:0,0:0:0:0:
212,100,75427,5,10,0:0:0:0:
144,100,75518,2,0,L|144:197|144:197,1,97,0|2,0:0|0:0,0:0:0:0:
272,184,75698,1,2,0:0:0:0:
400,192,75789,2,0,L|400:289|400:289,1,97,0|2,1:0|0:0,0:0:0:0:
216,256,75969,2,0,L|216:353|216:353,1,97,2|0,0:0|0:0,0:0:0:0:
400,256,76150,2,0,L|407:333|407:333|400:217|400:217,1,194,10|2,0:0|0:0,0:0:0:0:
112,256,76512,2,0,L|120:333|120:333|112:217|112:217,1,194,2|10,1:0|0:0,0:0:0:0:
336,192,76873,6,0,L|384:277|384:277|336:361|336:361,2,97,10|2|2,0:0|0:0|0:0,0:0:0:0:
156,168,77144,2,0,L|198:233|198:233|251:337|251:337,1,194,2|2,0:0|0:0,0:0:0:0:
428,240,77415,2,0,L|394:310|394:310|333:211|333:211,1,194,2|10,0:0|0:0,0:0:0:0:
168,232,77686,2,0,L|116:290|116:290|73:182|73:182,1,194,2|2,0:0|0:0,0:0:0:0:
280,224,77957,2,0,L|277:302|277:302|280:186|280:186,1,194,2|10,1:0|0:0,0:0:0:0:
220,312,78228,1,0,0:0:0:0:
352,191,78319,6,0,L|400:276|400:276|352:360|352:360,2,97,10|2|2,0:0|0:0|0:0,0:0:0:0:
144,148,78590,2,0,L|193:208|193:208|239:315|239:315,1,194,2|2,0:0|0:0,0:0:0:0:
424,240,78861,2,0,L|397:313|397:313|329:219|329:219,1,194,2|10,0:0|0:0,0:0:0:0:
168,232,79132,2,0,L|144:306|144:306|73:214|73:214,1,194,2|2,0:0|0:0,0:0:0:0:
280,224,79403,2,0,L|321:290|321:290|375:187|375:187,1,194,2|10,1:0|0:0,0:0:0:0:
376,276,79674,1,0,0:0:0:0:
144,208,79765,5,10,0:0:0:0:
280,128,79945,2,0,L|280:225|280:225,1,97,2|2,0:0|0:0,0:0:0:0:
144,156,80126,2,0,L|96:241|96:241|144:325|144:325,2,97,2|2|10,1:0|0:0|0:0,0:0:0:0:
316,144,80487,2,0,L|316:241|316:241,1,97,10|2,0:0|0:0,0:0:0:0:
176,144,80668,2,0,L|176:241|176:241,1,97,2|2,0:0|0:0,0:0:0:0:
336,208,80849,2,0,L|333:286|333:286|336:170|336:170,1,194,2|10,1:0|0:0,0:0:0:0:
272,296,81120,1,2,0:0:0:0:
128,304,81210,6,0,L|146:380|146:380|128:265|128:265,1,194,14|2,0:0|0:0,0:0:0:0:
264,184,81481,2,0,L|302:252|302:252|359:353|359:353,1,194,14|2,0:0|0:0,0:0:0:0:
192,152,81753,2,0,L|192:249|192:249,1,97,14|2,0:0|0:0,0:0:0:0:
328,80,81933,2,0,L|353:154|353:154|423:247|423:247,1,194,14|2,0:0|0:0,0:0:0:0:
192,88,82295,2,0,L|192:185|192:185,1,97,10|10,1:2|0:0,0:0:0:0:
344,144,82475,2,0,L|392:229|392:229,1,97,10|10,0:0|0:0,0:0:0:0:
232,192,82656,6,0,L|224:289|224:289,1,97,14|2,0:0|0:0,0:0:0:0:
376,172,82927,2,0,L|384:269|384:269,1,97,2|2,0:0|1:2,0:0:0:0:
124,168,83198,2,0,L|116:265|116:265,1,97,2|2,0:0|0:0,0:0:0:0:
268,172,83469,2,0,L|316:257|316:257,1,97,2|2,0:0|0:0,0:0:0:0:
72,80,83740,1,2,1:2:0:0:
296,88,83921,1,2,0:0:0:0:
76,128,84102,6,0,L|76:225|76:225,1,97,10|2,0:0|0:0,0:0:0:0:
228,124,84373,2,0,L|276:209|276:209,1,97,2|2,0:0|1:2,0:0:0:0:
48,196,84644,2,0,L|96:281|96:281,1,97,2|2,0:0|0:0,0:0:0:0:
244,196,84915,2,0,L|292:281|292:281,1,97,2|2,0:0|0:0,0:0:0:0:
64,240,85186,1,2,1:2:0:0:
284,236,85367,1,2,0:0:0:0:
48,224,85548,6,0,L|50:302|50:302|48:186|48:186,1,194,10|2,0:0|0:0,0:0:0:0:
96,312,85819,1,2,0:0:0:0:
232,320,85909,2,0,L|216:244|216:244|232:129|232:129,1,194,2|2,1:2|0:0,0:0:0:0:
280,232,86180,1,2,0:0:0:0:
416,232,86271,2,0,L|464:317|464:317|416:233|416:233,2,97,10|2|2,0:0|0:0|0:0,0:0:0:0:
248,120,86632,2,0,L|218:192|218:192|153:288|153:288,1,194,2|2,1:2|0:0,0:0:0:0:
160,80,86903,1,2,0:0:0:0:
384,224,86993,6,0,L|356:296|356:296|289:201|289:201,1,194,10|2,0:0|0:0,0:0:0:0:
232,225,87265,1,2,0:0:0:0:
384,288,87355,2,0,L|359:362|359:362|289:269|289:269,1,194,2|2,1:2|0:0,0:0:0:0:
232,289,87626,1,2,0:0:0:0:
384,344,87716,2,0,L|328:290|328:290|289:180|289:180,1,194,10|2,0:0|0:0,0:0:0:0:
232,345,87987,1,2,0:0:0:0:
104,344,88078,2,0,L|56:259|56:259,1,97,2|2,1:2|0:0,0:0:0:0:
292,192,88259,2,0,L|295:289|295:289,1,97,2|0,0:0|0:0,0:0:0:0:
88,192,88439,6,0,L|80:289|80:289,1,97,10|2,0:0|0:0,0:0:0:0:
220,160,88710,2,0,L|226:257|226:257,1,97,2|2,0:0|1:2,0:0:0:0:
448,168,88981,2,0,L|448:265|448:265,1,97,2|2,0:0|0:0,0:0:0:0:
296,208,89253,2,0,L|248:293|248:293,1,97,2|2,0:0|0:0,0:0:0:0:
468,104,89524,1,2,1:2:0:0:
240,104,89704,1,2,0:0:0:0:
484,108,89885,6,0,L|484:205|484:205,1,97,10|2,0:0|0:0,0:0:0:0:
256,72,90156,2,0,L|256:169|256:169,1,97,2|2,0:0|1:2,0:0:0:0:
32,152,90427,2,0,L|32:249|32:249,1,97,2|2,0:0|0:0,0:0:0:0:
256,176,90698,2,0,L|256:273|256:273,1,97,2|2,0:0|0:0,0:0:0:0:
472,224,90969,1,2,1:2:0:0:
232,224,91150,1,2,0:0:0:0:
464,224,91331,6,0,L|454:301|454:301|464:185|464:185,1,194,10|2,0:0|0:0,0:0:0:0:
416,312,91602,1,2,0:0:0:0:
280,320,91692,2,0,L|261:245|261:245|280:130|280:130,1,194,2|2,1:2|0:0,0:0:0:0:
232,232,91963,1,2,0:0:0:0:
96,232,92054,2,0,L|48:317|48:317|96:233|96:233,2,97,10|2|2,0:0|0:0|0:0,0:0:0:0:
264,120,92415,2,0,L|318:176|318:176|359:285|359:285,1,194,2|2,1:2|0:0,0:0:0:0:
352,80,92686,1,2,0:0:0:0:
96,224,92777,6,0,L|139:289|139:289|191:185|191:185,1,194,10|10,0:0|0:0,0:0:0:0:
244,224,93048,1,2,0:0:0:0:
428,224,93138,2,0,L|384:288|384:288|333:183|333:183,1,194,2|10,1:2|0:0,0:0:0:0:
280,224,93409,1,2,0:0:0:0:
464,232,93500,2,0,L|452:309|452:309|464:193|464:193,1,194,2|10,0:0|0:0,0:0:0:0:
416,320,93771,1,2,0:0:0:0:
280,320,93861,2,0,L|232:235|232:235,1,97,10|2,1:2|0:0,0:0:0:0:
368,208,94042,2,0,L|416:293|416:293,1,97,10|10,0:0|0:0,0:0:0:0:
140,144,94222,5,14,0:0:0:0:
372,144,94403,1,14,0:0:0:0:
400,144,94765,1,14,0:0:0:0:
112,144,94945,1,14,0:0:0:0:
88,144,95307,1,14,0:0:0:0:
424,144,95487,1,14,0:0:0:0:
452,144,95849,1,14,0:0:0:0:
60,144,96030,1,14,0:0:0:0:
