osu file format v14

[General]
AudioFilename: audio.mp3
AudioLeadIn: 0
PreviewTime: 75548
Countdown: 0
SampleSet: Soft
StackLeniency: 0.7
Mode: 2
LetterboxInBreaks: 0
WidescreenStoryboard: 0

[Editor]
Bookmarks: 1866,12416,33515,43899,44064,54613
DistanceSpacing: 1.1
BeatDivisor: 8
GridSize: 4
TimelineZoom: 2

[Metadata]
Title:heron
TitleUnicode:heron
Artist:S-C-U
ArtistUnicode:S-C-U
Creator:ZiRoX
Version:Overdose
Source:jubeat saucer
Tags:JBHyperion Shigeharu Saeki 佐伯 茂治 ミライダガッキ FutureTomTom Ver.2 jukebeat KONAMI music pack 42 plus 2013 DanceDanceRevolution DDR
BeatmapID:1220985
BeatmapSetID:576786

[Difficulty]
HPDrainRate:6
CircleSize:6
OverallDifficulty:9.3
ApproachRate:9.3
SliderMultiplier:1.8
SliderTickRate:2

[Events]
//Background and Video events
0,0,"heron-birds.jpg",0,0
//Break Periods
//Storyboard Layer 0 (Background)
//Storyboard Layer 1 (Fail)
//Storyboard Layer 2 (Pass)
//Storyboard Layer 3 (Foreground)
//Storyboard Sound Samples

[TimingPoints]
548,329.67032967033,4,2,0,50,1,0
75712,-100,4,2,0,60,0,1
84778,-100,4,2,0,60,0,0
85273,-100,4,2,0,50,0,0
85602,-100,4,2,0,40,0,0
85932,-100,4,2,0,30,0,0
86262,-100,4,2,0,5,0,0

[Colours]
Combo1 : 254,240,65
Combo2 : 255,146,36
Combo3 : 157,79,0
Combo4 : 227,13,45

[HitObjects]
352,228,548,6,0,P|380:192|356:160,1,90,2|0,3:0|3:0,0:0:0:0:
204,160,877,1,0,3:0:0:0:
163,146,959,1,2,3:0:0:0:
150,104,1041,1,0,3:0:0:0:
160,84,1083,1,0,3:0:0:0:
177,70,1124,1,0,3:0:0:0:
360,72,1207,6,0,P|388:104|344:132,1,90,2|0,3:0|0:0,0:0:0:0:
304,144,1454,1,2,3:0:0:0:
112,200,1537,1,0,0:0:0:0:
68,232,1619,1,0,0:0:0:0:
64,276,1701,1,2,3:0:0:0:
108,306,1784,1,2,3:0:0:0:
288,308,1866,6,0,P|344:240|296:156,1,180,4|0,1:1|1:0,0:0:0:0:
152,224,2361,2,0,P|96:156|144:72,1,180,4|4,1:0|1:0,0:0:0:0:
376,304,3020,6,0,P|432:236|384:152,1,180,4|0,1:0|0:0,0:0:0:0:
280,144,3515,2,0,L|192:104,2,90,8|0|0,1:2|0:0|1:0,0:0:0:0:
392,148,4009,2,0,L|480:108,2,90,0|8|0,0:0|1:2|0:0,0:0:0:0:
88,92,4504,6,0,P|40:144|132:188,1,180,4|8,1:0|1:2,0:0:0:0:
264,208,4998,2,0,P|336:256|304:328,1,180,4|4,1:0|1:0,0:0:0:0:
76,312,5657,6,0,P|36:248|124:168,1,180,4|0,1:0|0:0,0:0:0:0:
224,184,6152,2,0,L|312:144,2,90,8|0|0,1:2|0:0|1:0,0:0:0:0:
104,144,6646,2,0,L|16:104,1,90,0|8,0:0|1:2,0:0:0:0:
404,128,7141,6,0,P|460:184|420:280,1,180,4|8,1:0|1:2,0:0:0:0:
272,272,7635,2,0,P|264:224|392:196,1,180,0|0,1:0|1:0,0:0:0:0:
160,128,8295,6,0,P|104:184|144:280,1,180,2|0,0:0|0:0,0:0:0:0:
240,272,8789,2,0,L|328:232,2,90,8|2|0,1:2|1:2|0:0,0:0:0:0:
128,272,9284,2,0,L|40:232,1,90,0|8,0:0|1:2,0:0:0:0:
440,276,9778,6,0,L|464:188,1,90,0|2,1:0|3:0,0:0:0:0:
240,172,10108,2,0,L|144:128,1,90,0|2,1:0|3:0,0:0:0:0:
384,124,10438,1,2,1:2:0:0:
419,149,10520,1,0,0:0:0:0:
432,192,10602,1,0,0:0:0:0:
416,233,10685,1,0,0:0:0:0:
228,232,10767,1,2,1:2:0:0:
192,257,10849,1,0,0:0:0:0:
179,300,10931,1,2,0:0:0:0:
195,341,11014,1,0,0:0:0:0:
384,352,11097,6,0,B|512:192|256:0|0:192|128:352,1,630,4|0,1:1|0:0,0:0:0:0:
352,336,12416,6,0,L|432:288,2,90,4|0|2,1:0|0:0|0:0,0:0:0:0:
192,336,12910,2,0,P|160:272|240:176,1,180,2|2,0:0|0:0,0:0:0:0:
320,160,13405,1,0,0:0:0:0:
89,170,13569,6,0,P|36:236|76:312,1,180,2|0,0:0|0:0,0:0:0:0:
400,144,14064,1,2,0:0:0:0:
120,144,14394,1,2,0:0:0:0:
432,144,14723,1,2,0:0:0:0:
160,336,15053,6,0,L|80:288,2,90,2|2|2,0:0|0:0|0:0,0:0:0:0:
320,336,15547,2,0,P|352:272|272:176,1,180,2|2,0:0|0:0,0:0:0:0:
192,160,16042,1,0,0:0:0:0:
423,170,16207,6,0,P|476:236|436:312,1,180,2|2,0:0|0:0,0:0:0:0:
112,144,16701,1,2,0:0:0:0:
400,144,17031,1,2,0:0:0:0:
88,144,17360,1,2,0:0:0:0:
368,144,17690,6,0,P|432:208|368:272,1,180,2|0,0:0|0:0,0:0:0:0:
144,272,18185,1,2,0:0:0:0:
336,192,18515,1,2,0:0:0:0:
112,96,18844,1,2,0:0:0:0:
320,64,19174,1,0,0:0:0:0:
96,64,19504,1,2,0:0:0:0:
352,64,19833,2,0,L|429:110,1,90,2|2,0:0|0:0,0:0:0:0:
144,144,20328,6,0,P|80:208|144:272,1,180,2|2,0:0|0:0,0:0:0:0:
368,272,20823,1,2,0:0:0:0:
160,272,21152,2,0,L|80:208,2,90,0|2|2,0:0|0:0|0:0,0:0:0:0:
320,272,21646,5,2,0:0:0:0:
387,216,21810,1,0,0:0:0:0:
391,129,21975,1,0,0:0:0:0:
328,69,22140,1,0,0:0:0:0:
168,112,22306,1,2,0:0:0:0:
100,167,22470,1,0,0:0:0:0:
336,176,22635,1,2,0:0:0:0:
404,231,22799,1,0,0:0:0:0:
160,336,22965,6,0,L|80:288,2,90,4|0|0,2:0|0:0|0:0,0:0:0:0:
320,336,23459,2,0,P|352:272|272:176,1,180,2|0,0:0|0:0,0:0:0:0:
192,160,23954,1,0,0:0:0:0:
423,170,24119,6,0,P|476:236|436:312,1,180,2|2,0:0|0:0,0:0:0:0:
120,144,24613,1,0,0:0:0:0:
384,144,24943,1,2,0:0:0:0:
80,144,25272,1,2,0:0:0:0:
352,336,25602,6,0,L|432:288,2,90,2|0|0,3:2|0:0|0:0,0:0:0:0:
192,336,26097,2,0,P|160:272|240:176,1,180,2|2,0:0|0:0,0:0:0:0:
320,160,26591,1,0,0:0:0:0:
89,170,26756,6,0,P|36:236|76:312,1,180,2|2,0:0|0:0,0:0:0:0:
384,144,27250,1,2,0:0:0:0:
128,144,27580,1,2,0:0:0:0:
424,144,27909,1,2,0:0:0:0:
144,144,28239,6,0,P|80:208|144:272,1,180,2|0,0:0|0:0,0:0:0:0:
368,272,28734,1,2,0:0:0:0:
176,192,29064,1,2,0:0:0:0:
400,96,29393,1,2,0:0:0:0:
280,64,29723,1,0,0:0:0:0:
416,64,30053,1,2,0:0:0:0:
192,64,30383,2,0,L|104:104,1,90,2|2,0:0|0:0,0:0:0:0:
368,144,30877,6,0,P|432:208|368:272,1,180,2|2,0:0|0:0,0:0:0:0:
144,272,31372,1,2,0:0:0:0:
368,272,31701,2,0,L|480:272,1,90,2|2,0:0|0:0,0:0:0:0:
56,272,32196,5,2,0:0:0:0:
296,272,32526,1,2,0:0:0:0:
336,240,32608,1,0,0:0:0:0:
335,196,32690,1,0,0:0:0:0:
291,163,32773,1,0,0:0:0:0:
152,208,32855,1,2,0:0:0:0:
112,176,32937,1,0,0:0:0:0:
113,132,33019,1,0,0:0:0:0:
156,99,33102,1,0,0:0:0:0:
344,96,33185,1,2,0:0:0:0:
384,128,33267,1,2,0:0:0:0:
385,171,33349,1,0,0:0:0:0:
347,204,33432,1,0,0:0:0:0:
180,99,33515,6,0,L|80:160,1,90,4|0,1:2|0:0,0:0:0:0:
256,176,33762,2,0,L|356:237,1,90,0|0,1:0|0:0,0:0:0:0:
192,256,34009,2,0,L|96:320,1,90,2|0,1:2|0:0,0:0:0:0:
352,320,34339,2,0,L|448:256,2,90,2|8|2,0:0|0:0|0:0,0:0:0:0:
112,320,34833,6,0,L|208:240,1,90,2|0,1:2|0:0,0:0:0:0:
320,256,35080,2,0,L|420:317,1,90,2|0,1:2|0:0,0:0:0:0:
224,320,35328,2,0,L|128:384,1,90,2|0,1:2|0:0,0:0:0:0:
426,270,35657,2,0,L|352:320,2,90,2|8|2,0:0|0:0|0:0,0:0:0:0:
112,320,36152,6,0,L|32:256,1,90,2|0,1:2|0:0,0:0:0:0:
168,256,36399,2,0,L|264:256,1,90,2|0,1:2|0:0,0:0:0:0:
200,256,36646,1,2,1:2:0:0:
424,192,36811,2,0,L|494:135,1,90,2|0,1:2|0:0,0:0:0:0:
368,128,37058,2,0,L|264:128,1,90,2|0,1:2|0:0,0:0:0:0:
336,128,37305,1,2,1:2:0:0:
112,48,37471,6,0,P|16:128|96:224,1,270,2|0,1:2|0:0,0:0:0:0:
336,192,38130,2,0,L|464:248,2,135,2|2|2,1:2|0:0|0:0,0:0:0:0:
272,168,38707,1,2,0:0:0:0:
112,136,38789,6,0,P|64:176|112:272,1,180,2|2,1:2|0:0,0:0:0:0:
200,280,39284,2,0,L|248:304,1,45,2|2,0:0|0:0,0:0:0:0:
400,304,39449,2,0,L|528:208,2,135,2|0|2,1:2|0:0|0:0,0:0:0:0:
352,304,40026,1,0,0:0:0:0:
176,296,40108,6,0,L|99:248,1,90,2|0,1:2|0:0,0:0:0:0:
336,296,40438,2,0,L|440:232,1,90,2|0,1:2|0:0,0:0:0:0:
99,248,40767,2,0,L|176:296,1,90,2|0,1:2|0:0,0:0:0:0:
412,248,41097,2,0,L|336:296,1,90,2|0,1:2|0:0,0:0:0:0:
112,296,41427,6,0,L|32:232,2,90,4|0|0,1:2|0:0|0:0,0:0:0:0:
376,296,41921,2,0,L|304:240,1,90,2|4,1:2|1:2,0:0:0:0:
84,200,42251,2,0,L|160:136,1,90,2|0,1:2|0:0,0:0:0:0:
392,152,42580,6,0,P|456:224|336:312,1,270,2|2,0:0|0:0,0:0:0:0:
296,312,43157,1,0,0:0:0:0:
248,288,43239,1,2,0:0:0:0:
240,240,43322,1,0,0:0:0:0:
376,232,43405,1,4,0:2:0:0:
424,200,43487,1,0,0:0:0:0:
428,161,43569,1,2,0:0:0:0:
409,123,43652,1,0,0:0:0:0:
240,168,43734,1,2,0:0:0:0:
200,136,43816,1,0,0:0:0:0:
188,97,43898,1,2,0:0:0:0:
207,59,43981,1,0,0:0:0:0:
360,64,44064,6,0,L|460:125,1,90,4|0,1:2|0:0,0:0:0:0:
284,141,44311,2,0,L|184:202,1,90,0|0,1:0|0:0,0:0:0:0:
348,221,44558,2,0,L|444:285,1,90,0|0,1:0|0:0,0:0:0:0:
113,235,44888,2,0,L|188:285,2,90,2|8|2,0:0|0:0|0:0,0:0:0:0:
428,285,45383,6,0,L|332:205,1,90,2|0,1:2|0:0,0:0:0:0:
220,221,45630,2,0,L|120:282,1,90,0|0,1:0|0:0,0:0:0:0:
316,285,45877,2,0,L|412:349,1,90,0|0,1:0|0:0,0:0:0:0:
168,280,46207,2,0,L|94:230,2,90,2|8|2,0:0|0:0|0:0,0:0:0:0:
428,285,46701,6,0,L|332:205,1,90,2|0,1:2|0:0,0:0:0:0:
220,221,46948,2,0,L|120:282,1,90,0|0,1:0|0:0,0:0:0:0:
316,285,47196,2,0,L|412:349,1,90,0|0,1:0|0:0,0:0:0:0:
114,235,47525,2,0,L|188:285,2,90,2|8|2,0:0|0:0|0:0,0:0:0:0:
368,160,48020,6,0,L|504:192,2,135,2|2|0,1:2|1:2|1:0,0:0:0:0:
136,160,48679,2,0,L|8:216,2,135,2|2|2,1:2|0:0|0:0,0:0:0:0:
200,144,49256,1,2,0:0:0:0:
376,144,49339,6,0,L|432:240,1,90,2|0,1:2|0:0,0:0:0:0:
288,304,49668,2,0,L|243:226,1,90,2|0,1:2|0:0,0:0:0:0:
480,384,49998,2,0,L|434:306,1,90,2|0,1:2|0:0,0:0:0:0:
272,304,50328,2,0,L|328:400,1,90,2|0,1:2|0:0,0:0:0:0:
40,368,50657,6,0,L|96:272,1,90,2|0,1:2|0:0,0:0:0:0:
304,256,50987,2,0,L|259:178,1,90,2|0,1:2|0:0,0:0:0:0:
32,88,51317,2,0,L|78:166,1,90,2|0,1:2|0:0,0:0:0:0:
408,216,51646,2,0,L|352:120,1,90,2|0,1:2|0:0,0:0:0:0:
128,144,51976,5,4,1:2:0:0:
288,136,52223,1,4,1:2:0:0:
88,144,52471,1,4,1:2:0:0:
312,136,52718,1,4,1:2:0:0:
64,144,52965,1,4,1:2:0:0:
408,136,53212,1,4,1:2:0:0:
248,32,53624,6,0,L|228:76,3,45,2|0|0|0,0:0|0:0|0:0|0:0,0:0:0:0:
368,32,53954,2,0,L|388:76,3,45,2|0|0|0,0:0|0:0|0:0|0:0,0:0:0:0:
200,32,54284,1,2,0:0:0:0:
158,43,54366,1,0,0:0:0:0:
141,83,54448,1,0,0:0:0:0:
164,120,54531,1,0,0:0:0:0:
328,120,54613,6,0,L|432:120,2,90,4|0|8,1:2|0:0|0:0,0:0:0:0:
104,120,55108,2,0,L|-4:120,1,90,2|0,0:0|0:0,0:0:0:0:
160,208,55438,2,0,L|70:208,1,90,2|8,0:0|0:0,0:0:0:0:
328,208,55767,6,0,P|384:256|312:304,1,180,2|0,0:0|0:0,0:0:0:0:
140,304,56262,2,0,L|230:304,1,90,8|0,0:0|0:0,0:0:0:0:
400,304,56591,2,0,L|304:304,2,90,2|2|8,1:2|0:0|0:0,0:0:0:0:
296,304,57086,2,0,L|251:304,1,45,2|0,0:0|0:0,0:0:0:0:
88,304,57251,6,0,P|32:256|88:160,1,180,4|8,1:2|0:0,0:0:0:0:
288,160,57745,2,0,L|416:160,1,90,4|0,1:2|0:0,0:0:0:0:
136,160,58075,2,0,L|8:160,1,90,4|0,1:2|0:0,0:0:0:0:
288,160,58405,6,0,P|336:208|272:288,1,180,4|0,1:2|0:0,0:0:0:0:
104,288,58899,2,0,L|194:288,1,90,8|0,0:0|0:0,0:0:0:0:
368,288,59229,2,0,L|272:288,1,90,2|2,1:2|0:0,0:0:0:0:
240,288,59476,1,0,0:0:0:0:
255,247,59558,1,8,0:0:0:0:
296,232,59640,1,0,0:0:0:0:
334,253,59723,1,2,0:0:0:0:
342,296,59805,1,0,0:0:0:0:
168,288,59888,6,0,L|64:288,2,90,4|0|8,1:2|0:0|0:0,0:0:0:0:
392,288,60383,2,0,L|500:288,1,90,2|0,0:0|0:0,0:0:0:0:
336,200,60713,2,0,L|426:200,1,90,2|8,0:0|0:0,0:0:0:0:
168,200,61042,6,0,P|112:152|184:104,1,180,2|0,0:0|0:0,0:0:0:0:
356,104,61537,2,0,L|266:104,1,90,8|0,0:0|0:0,0:0:0:0:
88,104,61866,2,0,L|184:104,2,90,0|0|8,1:0|0:0|0:0,0:0:0:0:
192,104,62361,2,0,L|237:104,1,45,2|0,0:0|3:0,0:0:0:0:
408,104,62526,6,0,L|496:144,2,90,2|0|8,1:2|0:0|0:0,0:0:0:0:
232,104,63020,2,0,L|144:160,2,90,0|0|0,0:0|1:0|0:0,0:0:0:0:
360,104,63515,1,8,0:0:0:0:
128,248,63680,6,0,P|80:200|144:120,1,180,2|0,0:0|0:0,0:0:0:0:
312,120,64174,2,0,L|222:120,1,90,8|0,0:0|0:0,0:0:0:0:
48,120,64503,2,0,L|144:120,1,90,2|0,1:2|1:0,0:0:0:0:
284,120,64833,1,8,0:0:0:0:
325,135,64915,1,0,0:0:0:0:
168,152,64998,1,0,1:0:0:0:
126,148,65080,1,0,3:0:0:0:
328,120,65163,6,0,L|432:120,2,90,4|0|8,1:2|0:0|0:0,0:0:0:0:
184,120,65658,2,0,L|76:120,1,90,2|0,0:0|0:0,0:0:0:0:
320,208,65988,2,0,L|410:208,1,90,2|8,0:2|0:0,0:0:0:0:
144,208,66317,6,0,P|88:256|160:304,1,180,2|0,0:0|0:0,0:0:0:0:
328,304,66812,2,0,L|368:208,1,90,8|0,0:0|0:0,0:0:0:0:
178,304,67141,2,0,L|82:304,2,90,0|2|8,1:0|0:0|0:0,0:0:0:0:
280,304,67636,2,0,L|325:304,1,45,2|0,0:0|3:0,0:0:0:0:
88,304,67801,6,0,P|32:256|88:160,1,180,4|8,1:2|0:0,0:0:0:0:
288,160,68295,2,0,L|416:160,1,90,4|0,1:2|0:0,0:0:0:0:
136,160,68625,2,0,L|8:160,1,90,4|0,1:2|0:0,0:0:0:0:
288,160,68955,6,0,P|336:208|272:288,1,180,4|0,1:2|0:0,0:0:0:0:
130,288,69449,2,0,L|40:288,1,90,8|0,0:0|0:0,0:0:0:0:
278,288,69778,2,0,L|368:288,1,90,0|2,1:0|0:0,0:0:0:0:
416,288,70026,1,0,0:0:0:0:
457,273,70108,1,8,0:0:0:0:
472,232,70190,1,0,0:0:0:0:
451,194,70273,1,2,0:0:0:0:
408,186,70355,1,0,0:0:0:0:
144,288,70438,6,0,L|40:288,2,90,4|0|8,1:2|0:0|0:0,0:0:0:0:
312,288,70933,2,0,L|420:288,1,90,2|0,0:0|0:0,0:0:0:0:
232,200,71263,2,0,L|142:200,1,90,2|8,0:0|0:0,0:0:0:0:
376,200,71592,6,0,P|432:145|366:102,1,180,2|0,0:0|0:0,0:0:0:0:
192,104,72087,2,0,L|282:104,1,90,8|0,0:0|0:0,0:0:0:0:
112,104,72416,2,0,L|22:104,2,90,0|0|8,1:0|0:0|0:0,0:0:0:0:
216,104,72911,2,0,L|261:104,1,45,2|0,0:0|3:0,0:0:0:0:
120,104,73076,6,0,L|16:176,2,90,0|0|8,1:0|0:0|1:2,0:0:0:0:
288,104,73570,2,0,L|376:160,2,90,0|0|0,0:0|1:0|0:0,0:0:0:0:
152,104,74065,1,8,0:0:0:0:
384,248,74230,6,0,P|432:200|368:120,1,180,0|0,1:0|1:0,0:0:0:0:
204,120,74724,2,0,L|294:120,1,90,8|0,1:2|0:0,0:0:0:0:
464,120,75053,2,0,L|368:120,1,90,2|2,0:0|0:0,0:0:0:0:
336,120,75301,1,0,0:0:0:0:
351,161,75383,1,8,0:0:0:0:
392,176,75465,1,0,0:0:0:0:
430,155,75548,1,2,0:0:0:0:
438,112,75630,1,0,0:0:0:0:
256,112,75712,6,0,L|152:112,1,90,4|0,1:2|0:0,0:0:0:0:
304,176,75960,2,0,L|408:176,1,90,0|0,1:0|0:0,0:0:0:0:
256,248,76207,2,0,L|184:248,1,45,0|0,1:0|0:0,0:0:0:0:
408,248,76372,2,0,L|472:344,1,90,0|0,1:0|0:0,0:0:0:0:
104,248,76701,2,0,L|40:344,1,90,0|0,1:0|0:0,0:0:0:0:
304,112,77031,6,0,L|408:112,1,90,4|0,1:2|0:0,0:0:0:0:
256,176,77279,2,0,L|152:176,1,90,0|0,1:0|0:0,0:0:0:0:
304,248,77526,2,0,L|376:248,1,45,0|0,1:0|0:0,0:0:0:0:
152,248,77691,2,0,L|80:344,1,90,0|0,1:0|0:0,0:0:0:0:
456,248,78020,2,0,L|520:336,1,90,0|0,1:0|0:0,0:0:0:0:
176,328,78350,6,0,L|280:328,1,90,4|0,1:2|0:0,0:0:0:0:
408,328,78597,2,0,L|318:328,1,90,0|0,1:0|0:0,0:0:0:0:
256,328,78844,2,0,L|211:328,1,45,0|0,1:0|0:0,0:0:0:0:
408,328,79009,2,0,L|480:232,1,90,0|0,1:0|0:0,0:0:0:0:
104,328,79339,2,0,L|32:232,1,90,0|0,1:0|0:0,0:0:0:0:
367,312,79668,6,0,L|391:192,1,90,4|0,0:0|0:0,0:0:0:0:
176,160,79998,2,0,L|280:160,1,90,4|0,0:0|0:0,0:0:0:0:
40,312,80328,2,0,L|16:192,1,90,4|0,0:0|0:0,0:0:0:0:
231,160,80658,2,0,L|127:160,1,90,4|0,0:0|0:0,0:0:0:0:
357,112,80987,6,0,L|461:112,1,90,4|0,1:2|0:0,0:0:0:0:
309,176,81235,2,0,L|205:176,1,90,0|0,1:0|0:0,0:0:0:0:
357,248,81482,2,0,L|429:248,1,45,0|0,1:0|0:0,0:0:0:0:
205,248,81647,2,0,L|141:336,1,90,0|0,1:0|1:0,0:0:0:0:
456,248,81976,2,0,L|512:328,1,90,0|0,1:0|1:0,0:0:0:0:
256,112,82306,6,0,L|152:112,1,90,4|0,1:2|0:0,0:0:0:0:
304,176,82554,2,0,L|408:176,1,90,0|0,1:0|0:0,0:0:0:0:
256,248,82801,2,0,L|184:248,1,45,0|0,1:0|0:0,0:0:0:0:
408,248,82966,2,0,L|472:344,1,90,0|0,1:0|1:0,0:0:0:0:
104,248,83295,2,0,L|40:344,1,90,0|0,1:0|1:0,0:0:0:0:
312,336,83624,6,0,L|336:280,1,45,0|0,0:0|0:0,0:0:0:0:
168,280,83789,2,0,L|128:232,2,45,4|0|0,1:2|0:0|1:2,0:0:0:0:
344,280,84037,2,0,L|384:232,2,45,4|0|0,1:2|0:0|0:0,0:0:0:0:
160,248,84284,2,0,L|120:200,2,45,4|0|0,1:2|0:0|0:0,0:0:0:0:
368,216,84531,2,0,L|408:168,2,45,4|0|0,1:2|0:2|0:0,0:0:0:0:
144,152,84778,1,4,1:2:0:0:
256,192,84943,12,0,86262,0:0:0:0:
