osu file format v14

[General]
AudioFilename: audio.mp3
AudioLeadIn: 0
PreviewTime: 54613
Countdown: 1
SampleSet: Soft
StackLeniency: 0.7
Mode: 2
LetterboxInBreaks: 0
WidescreenStoryboard: 1

[Editor]
Bookmarks: 65987
DistanceSpacing: 1.5
BeatDivisor: 4
GridSize: 8
TimelineZoom: 3.199999

[Metadata]
Title:heron
TitleUnicode:heron
Artist:S-C-U
ArtistUnicode:S-C-U
Creator:BoberOfDarkness
Version:Platter
Source:
Tags:
BeatmapID:1218179
BeatmapSetID:575238

[Difficulty]
HPDrainRate:5
CircleSize:3.5
OverallDifficulty:8
ApproachRate:8
SliderMultiplier:1.7
SliderTickRate:2

[Events]
//Background and Video events
0,0,"autumn_fog_trees_forest_87104_1920x1200.jpg",0,0
//Break Periods
//Storyboard Layer 0 (Background)
//Storyboard Layer 1 (Fail)
//Storyboard Layer 2 (Pass)
//Storyboard Layer 3 (Foreground)
//Storyboard Sound Samples

[TimingPoints]
548,329.67032967033,4,2,2,60,1,0
2938,-100,4,2,1,60,0,0
3020,-100,4,2,1,60,0,0
4998,-100,4,2,1,60,0,0
5657,-100,4,2,1,60,0,0
7141,-100,4,2,3,60,0,0
7471,-100,4,2,1,60,0,0
7800,-100,4,2,3,60,0,0
8130,-100,4,2,1,60,0,0
8460,-100,4,2,0,60,0,0
8624,-100,4,2,1,60,0,0
9778,-100,4,2,1,60,0,0
10438,-100,4,3,1,60,0,0
10767,-100,4,2,1,60,0,0
11097,-100,4,2,1,60,0,0
11179,-100,4,2,1,60,0,0
12251,-100,4,2,1,60,0,0
12416,-100,4,2,1,60,0,0
20245,-100,4,2,1,60,0,0
20328,-125,4,2,1,60,0,0
22965,-100,4,2,1,60,0,0
26674,-100,4,2,1,60,0,0
26756,-100,4,2,1,60,0,0
31372,-100,4,2,1,60,0,0
31866,-100,4,2,1,60,0,0
32526,-100,4,2,1,60,0,0
38624,-100,4,2,3,60,0,0
38707,-100,4,2,1,60,0,0
49009,-100,4,2,3,60,0,0
49091,-100,4,2,1,60,0,0
51976,-100,4,2,1,60,0,0
53377,-100,4,2,1,60,0,0
53624,-100,4,2,1,60,0,0
54613,-100,4,2,1,60,0,0
57086,-100,4,2,3,60,0,0
57251,-100,4,2,1,60,0,0
59394,-100,4,2,3,60,0,0
59888,-100,4,2,1,60,0,0
62361,-100,4,2,3,60,0,0
62526,-100,4,2,1,60,0,0
64504,-100,4,2,3,60,0,0
65163,-100,4,2,1,60,0,0
67635,-100,4,2,3,60,0,0
67800,-100,4,2,1,60,0,0
69943,-100,4,2,3,60,0,0
70438,-100,4,2,1,60,0,0
72910,-100,4,2,3,60,0,0
74394,-100,4,3,3,60,0,0
75053,-100,4,3,1,60,0,0
75712,-100,4,2,1,70,0,1
78515,-100,4,3,1,70,0,1
79009,-100,4,2,1,70,0,1
83583,-100,4,2,1,70,0,0
83624,-100,4,2,1,70,0,1
84778,-100,4,2,1,70,0,0
84861,-100,4,2,1,70,0,0

[Colours]
Combo1 : 191,96,0
Combo2 : 255,155,106
Combo3 : 255,94,94
Combo4 : 0,106,0

[HitObjects]
336,304,548,6,0,P|360:264|368:192,1,85,2|2,0:0|0:0,0:0:0:0:
256,72,877,1,2,0:0:0:0:
171,122,1042,2,0,P|189:164|232:200,1,85,0|2,0:0|0:0,0:0:0:0:
368,128,1372,2,0,P|424:88|424:40,2,85,0|0|2,0:0|0:0|0:0,0:0:0:0:
136,120,1866,6,0,P|104:168|112:232,1,85,8|0,0:0|0:0,0:0:0:0:
224,280,2196,1,12,0:0:0:0:
368,192,2361,2,0,L|376:80,1,85,8|2,0:0|0:0,0:0:0:0:
192,136,2690,2,0,L|184:16,1,85,8|2,0:0|0:0,0:0:0:0:
416,192,3020,6,0,L|432:-8,1,170,12|2,0:0|0:0,0:0:0:0:
256,48,3515,2,0,L|248:152,2,85,0|2|0,0:0|0:0|0:0,0:0:0:0:
400,40,4009,2,0,L|408:128,2,85,2|0|2,0:0|0:0|0:0,0:0:0:0:
160,40,4504,6,0,P|112:80|120:192,1,170,8|8,0:0|0:0,0:0:0:0:
224,192,4998,2,0,L|280:120,1,85,8|2,0:0|0:0,0:0:0:0:
96,176,5328,2,0,L|32:264,1,85,8|2,0:0|0:0,0:0:0:0:
296,203,5657,6,0,L|312:3,1,170,12|2,0:0|0:0,0:0:0:0:
120,24,6152,2,0,P|48:88|32:184,1,170,0|0,0:0|0:0,0:0:0:0:
48,256,6646,1,2,0:0:0:0:
104,328,6811,1,0,0:0:0:0:
192,344,6976,1,2,0:0:0:0:
432,272,7141,6,0,L|440:176,1,85,8|2,0:0|0:0,0:0:0:0:
296,168,7471,2,0,P|248:112|248:88,2,85,8|2|8,0:0|0:0|0:0,0:0:0:0:
440,128,7965,2,0,P|488:72|488:32,2,85,2|8|2,0:0|0:0|0:0,0:0:0:0:
200,48,8460,6,0,P|128:112|112:208,2,170,4|0|0,3:3|0:0|0:0,0:0:0:0:
424,64,9449,2,0,L|416:176,1,85,0|2,0:0|0:0,0:0:0:0:
176,152,9778,5,8,0:0:0:0:
88,208,9943,1,8,0:0:0:0:
184,248,10108,1,8,0:0:0:0:
96,312,10273,1,8,0:0:0:0:
336,328,10438,5,8,3:3:0:0:
384,304,10520,1,8,3:3:0:0:
408,256,10602,1,8,3:3:0:0:
400,208,10685,1,8,3:3:0:0:
360,176,10767,1,8,0:0:0:0:
320,144,10850,1,0,0:0:0:0:
280,112,10932,1,8,0:0:0:0:
232,96,11015,1,0,0:0:0:0:
184,120,11097,6,0,P|88:240|96:280,1,170,4|2,0:0|0:0,0:0:0:0:
184,264,11591,2,0,P|189:216|184:168,1,85,2|2,0:0|0:0,0:0:0:0:
88,128,11921,2,0,P|82:80|88:32,2,85,2|2|2,0:0|0:0|0:0,0:0:0:0:
320,200,12416,6,0,L|336:104,1,85,8|0,0:0|0:0,0:0:0:0:
232,88,12745,1,8,0:0:0:0:
192,192,12910,1,10,0:0:0:0:
304,176,13075,1,0,0:0:0:0:
472,192,13405,1,0,0:0:0:0:
304,208,13734,5,2,0:0:0:0:
192,192,13899,1,2,0:0:0:0:
232,296,14064,1,2,0:0:0:0:
384,80,14394,1,2,0:0:0:0:
104,32,14723,1,2,0:0:0:0:
336,72,15053,6,0,L|376:152,1,85,8|0,0:0|0:0,0:0:0:0:
256,168,15383,2,0,L|176:224,2,85,8|8|0,0:0|0:0|0:0,0:0:0:0:
408,112,16042,1,0,0:0:0:0:
176,96,16372,6,0,L|128:176,2,85,2|2|2,0:0|0:0|0:0,0:0:0:0:
328,56,17031,1,2,0:0:0:0:
136,96,17361,1,2,0:0:0:0:
368,216,17690,5,8,0:0:0:0:
176,184,18020,2,0,L|168:80,1,85,8|8,0:0|0:0,0:0:0:0:
280,96,18350,2,0,L|368:128,2,85,0|8|0,0:0|0:0|0:0,0:0:0:0:
56,136,19009,6,0,L|80:48,1,85,2|2,0:0|0:0,0:0:0:0:
192,56,19339,2,0,L|96:32,1,85,0|0,0:0|0:0,0:0:0:0:
248,192,19668,1,0,0:0:0:0:
304,128,19833,1,0,0:0:0:0:
312,48,19998,1,2,0:0:0:0:
80,136,20328,5,8,0:0:0:0:
344,144,20657,2,0,P|376:96|384:64,2,68,8|8|0,0:0|0:0|0:0,0:0:0:0:
232,168,21152,1,8,0:0:0:0:
152,88,21317,1,0,0:0:0:0:
128,200,21482,1,12,0:0:0:0:
216,272,21646,5,2,0:0:0:0:
304,200,21811,1,2,0:0:0:0:
408,160,21976,1,2,0:0:0:0:
320,120,22141,1,2,0:0:0:0:
224,56,22306,2,0,L|136:96,1,68,2|2,0:0|0:0,0:0:0:0:
64,48,22636,2,0,L|150:6,1,68,2|2,0:0|0:0,0:0:0:0:
368,184,22965,6,0,L|376:80,1,85,8|0,0:0|0:0,0:0:0:0:
256,32,23295,1,8,0:0:0:0:
72,192,23624,2,0,L|96:88,1,85,0|8,0:0|0:0,0:0:0:0:
248,64,23954,1,0,0:0:0:0:
440,192,24284,6,0,L|416:88,1,85,2|2,0:0|0:0,0:0:0:0:
264,64,24614,1,2,0:0:0:0:
64,72,24943,1,2,0:0:0:0:
352,88,25273,1,2,0:0:0:0:
64,160,25602,6,0,P|70:113|88:72,1,85,8|0,0:0|0:0,0:0:0:0:
208,24,25932,1,8,0:0:0:0:
344,16,26097,1,8,0:0:0:0:
184,16,26262,1,0,0:0:0:0:
384,48,26591,2,0,L|400:152,1,85,0|12,0:0|0:0,0:0:0:0:
256,192,26921,6,0,P|160:216|128:288,2,170,2|2|2,0:0|0:0|0:0,0:0:0:0:
448,184,27910,2,0,L|424:88,1,85,2|2,0:0|0:0,0:0:0:0:
184,56,28240,6,0,L|80:24,1,85,8|0,0:0|0:0,0:0:0:0:
192,144,28569,2,0,L|296:176,1,85,8|8,0:0|0:0,0:0:0:0:
147,313,28899,2,0,P|68:262|54:163,1,170
176,80,29394,1,12,0:0:0:0:
304,64,29558,6,0,P|376:168|384:224,1,170,2|2,0:0|0:0,0:0:0:0:
256,264,30053,1,2,0:0:0:0:
312,192,30218,1,2,0:0:0:0:
456,272,30383,1,2,0:0:0:0:
392,192,30548,1,2,0:0:0:0:
104,256,30877,6,0,L|72:56,1,170,8|0,0:0|2:0,0:0:0:0:
192,56,31372,1,8,0:0:0:0:
344,48,31537,1,0,0:0:0:0:
128,40,31866,1,8,0:0:0:0:
424,24,32196,5,12,0:0:0:0:
184,48,32526,2,0,P|128:128|152:176,1,127.5,2|2,0:0|0:0,0:0:0:0:
208,128,32855,2,0,P|248:176|232:256,1,127.5,2|2,0:0|0:0,0:0:0:0:
168,240,33185,2,0,L|144:336,1,85,2|2,0:0|0:0,0:0:0:0:
392,272,33515,6,0,P|456:208|456:168,2,127.5,10|10|10,0:0|0:0|0:0,0:0:0:0:
240,200,34174,2,0,L|232:112,1,85,2|2,0:0|0:0,0:0:0:0:
384,128,34504,2,0,L|392:40,1,85,2|2,0:0|0:0,0:0:0:0:
120,272,34833,6,0,P|56:208|56:168,2,127.5,8|8|8,0:0|0:0|0:0,0:0:0:0:
272,200,35492,2,0,L|280:112,1,85,0|0,0:0|0:0,0:0:0:0:
128,128,35822,2,0,L|120:40,1,85,0|0,0:0|0:0,0:0:0:0:
456,240,36152,6,0,L|432:96,1,127.5,8|8,0:0|0:0,0:0:0:0:
384,80,36482,2,0,L|288:72,1,85,0|8,0:0|0:0,0:0:0:0:
176,64,36811,2,0,P|128:104|120:160,1,85,8|0,0:0|0:0,0:0:0:0:
112,184,37058,1,8,0:0:0:0:
120,123,37141,2,0,P|140:86|176:64,1,85,0|8,0:0|0:0,0:0:0:0:
480,208,37471,6,0,P|464:120|384:80,1,170,12|0,0:0|0:0,0:0:0:0:
96,112,38130,1,8,0:0:0:0:
320,88,38377,1,8,0:0:0:0:
336,16,38460,1,0,0:0:0:0:
224,24,38624,1,8,0:0:0:0:
376,48,38789,5,12,0:0:0:0:
88,184,39119,1,2,0:0:0:0:
64,240,39201,1,0,0:0:0:0:
96,296,39284,1,2,0:0:0:0:
152,328,39366,1,2,0:0:0:0:
216,320,39449,2,0,P|264:272|256:248,1,85,14|0,0:0|0:0,0:0:0:0:
152,200,39778,2,0,P|96:136|96:120,1,85,2|2,0:0|0:0,0:0:0:0:
368,160,40108,6,0,P|384:88|368:72,1,85,14|2,0:0|0:0,0:0:0:0:
264,32,40438,2,0,L|144:0,1,85,10|2,0:0|0:0,0:0:0:0:
64,64,40767,2,0,L|88:176,1,85,10|2,0:0|0:0,0:0:0:0:
176,264,41097,2,0,L|272:312,1,85,10|2,0:0|0:0,0:0:0:0:
488,240,41427,6,0,L|496:120,1,85,14|2,0:0|0:0,0:0:0:0:
368,144,41756,2,0,L|344:48,1,85,2|2,0:0|0:0,0:0:0:0:
112,224,42086,6,0,L|104:104,1,85,14|2,0:0|0:0,0:0:0:0:
232,128,42415,2,0,L|256:32,1,85,2|2,0:0|0:0,0:0:0:0:
488,248,42745,6,0,P|472:168|384:128,1,170,14|10,0:0|0:0,0:0:0:0:
336,136,43157,1,2,0:0:0:0:
288,176,43240,1,10,0:0:0:0:
272,240,43322,1,2,0:0:0:0:
304,296,43405,2,0,P|344:344|336:384,1,85,2|2,0:0|0:0,0:0:0:0:
112,288,43734,2,0,L|56:200,1,85,10|10,0:0|0:0,0:0:0:0:
240,176,44064,6,0,P|304:112|312:40,2,127.5,8|8|8,0:0|0:0|0:0,0:0:0:0:
136,248,44723,1,2,0:0:0:0:
40,160,44888,1,2,0:0:0:0:
64,32,45053,1,2,0:0:0:0:
192,8,45218,1,2,0:0:0:0:
424,120,45383,6,0,P|488:184|496:256,2,127.5,8|8|8,0:0|0:0|0:0,0:0:0:0:
304,72,46042,1,2,0:0:0:0:
384,168,46207,1,2,0:0:0:0:
432,288,46372,1,2,0:0:0:0:
328,368,46537,1,2,0:0:0:0:
88,272,46701,6,0,P|38:232|14:174,2,127.5,8|8|8,0:0|0:0|0:0,0:0:0:0:
216,272,47361,1,2,0:0:0:0:
328,216,47526,1,0,0:0:0:0:
376,104,47690,1,2,0:0:0:0:
352,8,47855,1,2,0:0:0:0:
112,240,48020,6,0,P|62:200|38:142,2,127.5,8|8|8,0:0|0:0|0:0,0:0:0:0:
240,240,48679,2,0,P|328:192|336:160,1,127.5,8|8,0:0|0:0,0:0:0:0:
312,112,49009,2,0,L|264:16,1,85,0|8,0:0|0:0,0:0:0:0:
176,112,49339,5,10,0:0:0:0:
104,216,49504,1,2,0:0:0:0:
192,312,49668,1,2,0:0:0:0:
72,360,49833,1,10,0:0:0:0:
184,304,49998,1,6,0:0:0:0:
256,200,50163,1,2,0:0:0:0:
168,104,50327,1,2,0:0:0:0:
184,232,50492,1,2,0:0:0:0:
424,56,50657,5,8,0:0:0:0:
416,184,50822,1,0,0:0:0:0:
336,280,50986,1,0,0:0:0:0:
208,312,51151,1,8,0:0:0:0:
120,216,51316,1,8,0:0:0:0:
240,184,51481,1,0,0:0:0:0:
136,112,51645,1,0,0:0:0:0:
256,56,51810,1,8,0:0:0:0:
421,206,51976,6,0,P|480:152|496:104,2,127.5,8|8|8,0:0|0:0|0:0,0:0:0:0:
91,206,52718,2,0,P|32:152|16:104,2,127.5,8|8|8,0:0|0:0|0:0,0:0:0:0:
360,256,53624,2,0,P|256:112|208:272,1,425,2|2,0:0|0:0,0:0:0:0:
376,272,54613,6,0,L|456:224,1,85,4|0,0:0|0:0,0:0:0:0:
328,184,54943,2,0,L|232:144,1,85,8|0,0:0|0:0,0:0:0:0:
376,112,55273,1,0,0:0:0:0:
128,72,55602,1,8,0:0:0:0:
256,48,55767,1,0,0:0:0:0:
384,48,55932,6,0,L|376:160,1,85,0|0,0:0|0:0,0:0:0:0:
248,152,56262,2,0,L|256:264,1,85,8|8,0:0|0:0,0:0:0:0:
384,216,56591,2,0,L|376:328,1,85,0|0,0:0|0:0,0:0:0:0:
296,352,56921,1,8,0:0:0:0:
377,300,57086,1,0,0:0:0:0:
144,224,57251,6,0,L|128:120,1,85,12|0,0:0|0:0,0:0:0:0:
240,96,57580,2,0,L|360:72,2,85,0|8|0,0:0|0:0|0:0,0:0:0:0:
112,120,58075,2,0,L|88:232,1,85,8|0,0:0|0:0,0:0:0:0:
224,208,58405,6,0,P|312:120|312:64,1,170,12|0,0:0|0:0,0:0:0:0:
184,72,58899,2,0,L|168:160,1,85,2|2,0:0|0:0,0:0:0:0:
248,256,59229,1,2,0:0:0:0:
376,288,59394,5,2,0:0:0:0:
424,248,59476,1,2,0:0:0:0:
448,192,59558,1,2,0:0:0:0:
424,136,59641,1,2,0:0:0:0:
376,96,59723,1,2,0:0:0:0:
136,120,59888,6,0,L|104:224,1,85,4|0,0:0|0:0,0:0:0:0:
192,288,60218,2,0,L|264:352,1,85,8|0,0:0|0:0,0:0:0:0:
128,328,60548,2,0,L|88:232,1,85,0|0,0:0|0:0,0:0:0:0:
208,208,60877,2,0,L|288:176,1,85,8|0,0:0|0:0,0:0:0:0:
400,184,61207,6,0,L|440:88,2,85,0|0|8,0:0|0:0|0:0,0:0:0:0:
144,176,61866,1,0,0:0:0:0:
56,248,62031,1,0,0:0:0:0:
168,256,62196,1,8,0:0:0:0:
400,240,62361,1,0,0:0:0:0:
424,168,62443,1,0,0:0:0:0:
432,88,62526,6,0,L|320:64,1,85,4|0,0:0|0:0,0:0:0:0:
240,88,62855,2,0,L|352:64,1,85,8|0,0:0|0:0,0:0:0:0:
216,80,63185,2,0,L|104:56,1,85,0|0,0:0|0:0,0:0:0:0:
240,48,63515,6,0,L|352:24,2,85,8|0|0,0:0|0:0|0:0,0:0:0:0:
132,62,64009,2,0,L|216:80,1,85,0|8,0:0|0:0,0:0:0:0:
80,200,64504,1,2,0:0:0:0:
208,248,64668,1,2,0:0:0:0:
336,232,64833,1,2,0:0:0:0:
328,168,64916,1,2,0:0:0:0:
296,112,64998,1,2,0:0:0:0:
240,80,65080,1,2,0:0:0:0:
136,72,65163,6,0,L|64:176,2,85,4|0|8,0:0|0:0|0:0,0:0:0:0:
304,88,65657,6,0,L|384:136,1,85,0|0,0:0|0:0,0:0:0:0:
256,176,65987,2,0,L|160:216,1,85,0|8,0:0|0:0,0:0:0:0:
304,248,66317,1,0,0:0:0:0:
424,200,66482,6,0,L|408:104,1,85,0|0,0:0|0:0,0:0:0:0:
280,112,66811,2,0,L|288:8,1,85,8|8,0:0|0:0,0:0:0:0:
408,72,67141,2,0,L|440:168,2,85,0|0|8,0:0|0:0|0:0,0:0:0:0:
176,208,67635,1,0,0:0:0:0:
128,192,67718,1,0,0:0:0:0:
80,152,67800,6,0,P|80:24|112:8,1,170,12|0,0:0|0:0,0:0:0:0:
344,168,68295,2,0,P|344:40|312:24,1,170,8|8,0:0|0:0,0:0:0:0:
72,88,68954,6,0,P|22:152|51:228,1,170,8|0,0:0|0:0,0:0:0:0:
168,280,69449,2,0,L|280:312,1,85,10|10,0:0|0:0,0:0:0:0:
376,264,69778,2,0,L|432:200,1,85,10|10,0:0|0:0,0:0:0:0:
456,136,70026,1,0,0:0:0:0:
448,72,70108,1,0,0:0:0:0:
400,32,70190,1,0,0:0:0:0:
336,8,70273,1,0,0:0:0:0:
104,56,70438,6,0,P|48:136|40:208,1,170,4|8,0:0|0:0,0:0:0:0:
128,304,70932,1,0,0:0:0:0:
256,336,71097,1,0,0:0:0:0:
352,256,71262,2,0,L|328:136,1,85,0|8,0:0|0:0,0:0:0:0:
216,136,71591,2,0,L|240:32,1,85,0|0,0:0|0:0,0:0:0:0:
488,112,72086,2,0,L|480:16,1,85,8|8,0:0|0:0,0:0:0:0:
352,8,72416,2,0,L|248:-8,1,85,0|0,0:0|0:0,0:0:0:0:
144,0,72745,2,0,L|151:84,1,85,0|2,0:0|0:0,0:0:0:0:
208,112,72993,1,2,0:0:0:0:
264,152,73075,6,0,L|271:236,1,85,8|0,0:0|0:0,0:0:0:0:
160,176,73405,2,0,L|167:260,1,85,8|0,0:0|0:0,0:0:0:0:
288,152,73734,2,0,L|295:236,1,85,8|0,0:0|0:0,0:0:0:0:
128,184,74064,2,0,L|135:268,1,85,8|8,0:0|0:0,0:0:0:0:
304,256,74394,5,0,0:0:0:0:
360,224,74476,1,0,0:0:0:0:
392,168,74558,1,0,0:0:0:0:
400,104,74641,1,0,0:0:0:0:
368,48,74723,1,0,0:0:0:0:
240,24,74888,1,0,0:0:0:0:
128,80,75053,5,8,0:0:0:0:
80,120,75135,1,8,0:0:0:0:
48,176,75218,1,8,0:0:0:0:
56,240,75300,1,8,0:0:0:0:
96,296,75383,1,8,0:0:0:0:
152,328,75465,1,8,0:0:0:0:
216,336,75548,1,8,0:0:0:0:
448,232,75712,6,0,L|456:120,1,85,8|0,0:0|0:0,0:0:0:0:
440,80,75960,1,8,0:0:0:0:
400,32,76042,2,0,P|336:0|312:8,1,85,8|8,0:0|0:0,0:0:0:0:
176,80,76372,1,6,0:0:0:0:
304,136,76537,1,0,0:0:0:0:
168,216,76701,2,0,L|144:328,1,85,6|6,0:0|0:0,0:0:0:0:
392,272,77031,6,0,P|408:232|400:160,1,85,8|0,0:0|0:0,0:0:0:0:
392,128,77278,1,8,0:0:0:0:
360,72,77361,2,0,P|296:24|256:24,1,85,8|8,0:0|0:0,0:0:0:0:
144,64,77690,2,0,L|80:168,1,85,6|0,0:0|0:0,0:0:0:0:
248,192,78020,2,0,L|312:272,1,85,6|6,0:0|0:0,0:0:0:0:
48,208,78350,6,0,L|32:320,1,85,0|0,0:0|0:0,0:0:0:0:
184,320,78679,2,0,L|264:264,1,85,2|2,0:0|0:0,0:0:0:0:
416,216,79009,1,8,0:0:0:0:
368,112,79174,1,0,0:0:0:0:
240,88,79339,1,8,0:0:0:0:
152,8,79504,1,8,0:0:0:0:
423,144,79668,6,0,L|447:48,1,85,8|0,0:0|0:0,0:0:0:0:
311,48,79998,2,0,L|223:16,1,85,8|0,0:0|0:0,0:0:0:0:
72,152,80328,2,0,L|48:56,1,85,8|8,0:0|0:0,0:0:0:0:
184,56,80658,2,0,L|272:24,1,85,8|0,0:0|0:0,0:0:0:0:
496,144,80987,6,0,L|506:46,3,85,8|0|8|8,0:0|0:0|0:0|0:0,0:0:0:0:
360,104,81646,2,0,L|320:24,3,85,6|0|6|0,0:0|0:0|0:0|0:0,0:0:0:0:
80,112,82306,6,0,L|70:14,3,85,8|8|8|8,0:0|0:0|0:0|0:0,0:0:0:0:
216,144,82965,1,8,0:0:0:0:
256,192,83048,1,0,0:0:0:0:
272,256,83130,1,8,0:0:0:0:
256,320,83212,1,8,0:0:0:0:
208,360,83295,1,8,0:0:0:0:
264,328,83377,1,0,0:0:0:0:
304,272,83460,1,8,0:0:0:0:
312,208,83542,1,0,0:0:0:0:
128,168,83789,5,12,0:0:0:0:
88,32,84037,1,12,0:0:0:0:
408,176,84284,1,12,0:0:0:0:
448,48,84531,1,12,0:0:0:0:
88,32,84778,1,12,0:0:0:0:
256,192,84943,12,0,86262,0:0:0:0:
