osu file format v14

[General]
AudioFilename: audio.mp3
AudioLeadIn: 0
PreviewTime: 4637
Countdown: 0
SampleSet: Soft
StackLeniency: 0.7
Mode: 0
LetterboxInBreaks: 0
WidescreenStoryboard: 1

[Editor]
DistanceSpacing: 1
BeatDivisor: 4
GridSize: 4
TimelineZoom: 1

[Metadata]
Title:You Reposted in the Wrong Neighborhood
TitleUnicode:You Reposted in the Wrong Neighborhood
Artist:S H O K K
ArtistUnicode:SHOKK青
Creator:HazeTrance
Version:Normal
Source:
Tags:h3h3 meme soundcloud glue70 casin nate dogg eminem shake that ass
BeatmapID:1106495
BeatmapSetID:519340

[Difficulty]
HPDrainRate:4.5
CircleSize:3.5
OverallDifficulty:5
ApproachRate:5.5
SliderMultiplier:2
SliderTickRate:1

[Events]
//Background and Video events
0,0,"you reposted in the wrong neighborhood resized.jpg",0,0
//Break Periods
//Storyboard Layer 0 (Background)
//Storyboard Layer 1 (Fail)
//Storyboard Layer 2 (Pass)
//Storyboard Layer 3 (Foreground)
//Storyboard Sound Samples

[TimingPoints]
4781,576.923076923077,4,2,0,100,1,0

[Colours]
Combo1 : 128,0,255
Combo2 : 255,0,128

[HitObjects]
256,192,166,12,4,4204,0:0:0:0:
136,68,4781,5,2,0:0:0:0:
223,117,5070,1,0,0:0:0:0:
137,166,5358,2,2,P|174:202|236:217,1,100,10|2,0:0|0:0,0:0:0:0:
320,196,5935,1,2,0:0:0:0:
388,268,6224,1,0,0:0:0:0:
292,296,6512,2,2,P|232:312|176:340,1,100,10|2,0:0|0:0,0:0:0:0:
116,268,7089,6,2,P|124:216|116:168,1,100
188,100,7666,2,2,P|240:108|288:100,1,100,10|2,0:0|0:0,0:0:0:0:
361,166,8243,2,2,P|353:218|361:266,1,100
260,269,8819,2,2,P|268:217|260:169,1,100,10|2,0:0|0:0,0:0:0:0:
174,221,9396,5,2,0:0:0:0:
167,320,9684,2,0,L|35:320,2,100
267,319,10550,2,0,L|321:283,1,50,10|0,0:0|0:0,0:0:0:0:
326,281,10839,2,0,P|338:221|304:160,1,100,2|2,0:0|0:0,0:0:0:0:
266,102,11416,6,0,B|206:150,1,50,2|0,0:0|0:0,0:0:0:0:
210,145,11704,2,2,P|158:217|126:221,1,100,10|2,0:0|0:0,0:0:0:0:
226,285,12281,2,2,P|278:213|310:209,1,100
320,119,12858,2,2,P|362:155|382:205,1,100,10|2,0:0|0:0,0:0:0:0:
389,294,13435,1,6,0:0:0:0:
440,100,14012,5,2,0:0:0:0:
340,99,14300,1,0,0:0:0:0:
239,99,14589,2,2,P|194:114|149:168,1,100,10|2,0:0|0:0,0:0:0:0:
158,250,15166,5,2,0:0:0:0:
246,203,15454,1,0,0:0:0:0:
335,247,15743,2,2,P|348:299|328:357,1,100,10|2,0:0|0:0,0:0:0:0:
247,296,16320,6,2,L|131:288,1,100
119,192,16897,2,2,L|239:200,1,100,10|2,0:0|0:0,0:0:0:0:
318,209,17474,1,2,0:0:0:0:
318,209,17762,1,2,0:0:0:0:
390,140,18050,1,10,0:0:0:0:
348,48,18339,6,0,L|290:22,1,50,2|0,0:0|0:0,0:0:0:0:
283,21,18627,2,0,P|220:49|155:31,1,100,2|0,0:0|0:0,0:0:0:0:
92,26,19204,1,10,0:0:0:0:
117,122,19493,2,0,L|104:70,2,50,0|0|2,0:0|0:0|0:0,0:0:0:0:
146,217,20070,1,0,0:0:0:0:
146,217,20358,1,10,0:0:0:0:
327,300,20935,6,2,P|251:288|211:292,1,100
275,200,21512,2,2,P|351:188|391:192,1,100,10|2,0:0|0:0,0:0:0:0:
319,105,22089,2,2,L|207:73,2,100,10|10|10,0:0|0:0|0:0,0:0:0:0:
415,130,22954,5,0,0:0:0:0:
415,130,23242,1,0,0:0:0:0:
355,210,23531,2,0,L|294:266,1,50,2|0,0:0|0:0,0:0:0:0:
301,256,23820,2,0,L|253:277,1,50,2|0,0:0|0:0,0:0:0:0:
237,284,24108,2,0,L|184:290,1,50,2|0,0:0|0:0,0:0:0:0:
167,291,24397,2,2,P|121:282|56:245,2,100,10|10|10,0:0|0:0|0:0,0:0:0:0:
158,91,25550,5,10,0:0:0:0:
257,100,25838,2,0,L|338:114,1,50,2|0,0:0|0:0,0:0:0:0:
326,115,26127,2,0,L|371:139,1,50,2|0,0:0|0:0,0:0:0:0:
387,150,26415,2,0,L|424:188,1,50,2|0,0:0|0:0,0:0:0:0:
435,201,26704,2,2,P|455:242|465:316,2,100,10|10|10,0:0|0:0|0:0,0:0:0:0:
358,265,27570,6,0,L|293:221,1,50,2|0,0:0|0:0,0:0:0:0:
297,232,27858,2,2,P|236:271|187:275,1,100,10|2,0:0|0:0,0:0:0:0:
121,228,28434,2,2,P|182:189|231:185,1,100
226,86,29011,2,8,L|334:142,2,100,10|8|8,0:0|0:0|0:0,0:0:0:0:
208,184,29877,6,0,L|164:212,1,50,2|0,0:0|0:0,0:0:0:0:
147,220,30166,2,2,P|67:200|11:216,1,100,10|2,0:0|0:0,0:0:0:0:
82,107,30743,2,2,P|154:91|210:51,1,100
258,21,31320,2,0,P|290:9|390:21,2,100,10|8|8,0:0|0:0|0:0,0:0:0:0:
268,120,32185,6,0,L|322:148,1,50,2|0,0:0|0:0,0:0:0:0:
328,154,32474,2,0,P|344:208|400:250,1,100,10|0,0:0|0:0,0:0:0:0:
427,153,33050,1,10,0:0:0:0:
400,56,33338,6,0,L|345:68,1,50,2|0,0:0|0:0,0:0:0:0:
331,71,33627,2,0,P|280:53|220:62,1,100,10|0,0:0|0:0,0:0:0:0:
136,74,34204,1,10,0:0:0:0:
92,269,34781,6,0,L|165:240,1,50,10|0,0:0|0:0,0:0:0:0:
158,247,35070,2,0,P|216:264|261:244,1,100,2|2,0:0|0:0,0:0:0:0:
346,218,35647,1,8,0:0:0:0:
439,183,35935,2,0,L|491:287,2,100,10|8|8,0:0|0:0|0:0,0:0:0:0:
366,114,36800,5,2,0:0:0:0:
266,111,37088,2,2,P|170:99|150:103,1,100,10|2,0:0|0:0,0:0:0:0:
146,197,37666,2,2,P|238:185|258:189,1,100,10|2,0:0|0:0,0:0:0:0:
341,209,38243,2,2,P|353:301|349:321,1,100,10|2,0:0|0:0,0:0:0:0:
251,309,38820,2,2,P|239:217|243:197,1,100,10|2,0:0|0:0,0:0:0:0:
296,128,39397,5,2,0:0:0:0:
296,128,39685,1,2,0:0:0:0:
395,161,39974,2,2,P|431:217|439:257,1,100,8|0,0:0|0:0,0:0:0:0:
354,303,40550,2,2,P|291:299|232:313,1,100
134,342,41127,6,0,L|98:386,2,50,10|0|2,0:0|0:0|0:0,0:0:0:0:
183,254,41704,6,0,B|295:110|295:110|323:126,1,200,6|2,0:0|0:0,0:0:0:0:
