osu file format v14

[General]
AudioFilename: audio.mp3
AudioLeadIn: 0
PreviewTime: 4637
Countdown: 0
SampleSet: Soft
StackLeniency: 0.7
Mode: 0
LetterboxInBreaks: 0
WidescreenStoryboard: 1

[Editor]
DistanceSpacing: 0.4
BeatDivisor: 4
GridSize: 4
TimelineZoom: 1

[Metadata]
Title:You Reposted in the Wrong Neighborhood
TitleUnicode:You Reposted in the Wrong Neighborhood
Artist:S H O K K
ArtistUnicode:SHOKK青
Creator:HazeTrance
Version:Hard
Source:
Tags:h3h3 meme soundcloud glue70 casin nate dogg eminem shake that ass
BeatmapID:1103340
BeatmapSetID:519340

[Difficulty]
HPDrainRate:5.5
CircleSize:4.5
OverallDifficulty:6
ApproachRate:6.5
SliderMultiplier:2.5
SliderTickRate:1

[Events]
//Background and Video events
0,0,"you reposted in the wrong neighborhood resized.jpg",0,0
//Break Periods
//Storyboard Layer 0 (Background)
//Storyboard Layer 1 (Fail)
//Storyboard Layer 2 (Pass)
//Storyboard Layer 3 (Foreground)
//Storyboard Sound Samples

[TimingPoints]
4781,576.923076923077,4,2,0,100,1,0
41704,-200,4,2,0,100,0,0

[Colours]
Combo1 : 128,0,255
Combo2 : 255,0,128

[HitObjects]
256,192,166,12,4,4204,0:0:0:0:
303,191,4781,5,2,0:0:0:0:
352,36,5070,1,0,0:0:0:0:
327,31,5214,1,0,0:0:0:0:
302,33,5358,2,2,P|234:49|184:104,1,125,10|2,0:0|0:0,0:0:0:0:
235,193,5935,1,2,0:0:0:0:
401,175,6224,1,0,0:0:0:0:
402,150,6368,1,0,0:0:0:0:
400,124,6512,2,2,P|375:66|307:24,1,125,10|2,0:0|0:0,0:0:0:0:
161,99,7088,6,2,P|186:157|254:199,1,125,10|2,0:0|0:0,0:0:0:0:
400,124,7666,2,2,P|284:104|232:112,1,125,10|2,0:0|0:0,0:0:0:0:
109,175,8243,2,2,P|228:193|280:185,1,125
400,124,8820,2,2,P|372:68|304:36,1,125,10|2,0:0|0:0,0:0:0:0:
179,148,9396,6,0,P|207:204|275:236,1,125,2|0,0:0|0:0,0:0:0:0:
400,124,9974,1,10,0:0:0:0:
241,67,10262,1,0,0:0:0:0:
265,235,10550,1,2,0:0:0:0:
290,237,10695,1,0,0:0:0:0:
314,233,10839,2,0,P|369:195|398:130,1,125,0|10,0:0|0:0,0:0:0:0:
278,64,11416,5,0,0:0:0:0:
276,88,11560,1,0,0:0:0:0:
275,110,11704,2,2,L|263:249,1,125
400,124,12281,2,2,P|443:160|469:242,1,125,10|2,0:0|0:0,0:0:0:0:
310,333,12858,2,2,P|240:313|187:243,1,125
153,106,13435,1,14,0:0:0:0:
153,106,14012,5,2,0:0:0:0:
295,35,14300,1,0,0:0:0:0:
319,30,14445,1,0,0:0:0:0:
343,31,14589,2,2,P|404:42|452:118,1,125,10|2,0:0|0:0,0:0:0:0:
432,216,15166,1,2,0:0:0:0:
259,232,15454,1,0,0:0:0:0:
248,209,15599,1,0,0:0:0:0:
245,184,15743,2,2,P|241:120|265:60,1,125,10|2,0:0|0:0,0:0:0:0:
401,147,16320,5,2,0:0:0:0:
380,160,16464,1,0,0:0:0:0:
359,174,16608,1,0,0:0:0:0:
174,279,16897,2,2,P|238:215|246:167,1,125,10|2,0:0|0:0,0:0:0:0:
336,52,17474,2,2,P|236:24|188:52,1,125
136,152,18050,2,2,P|231:190|260:178,1,125,10|2,0:0|0:0,0:0:0:0:
300,168,18483,1,0,0:0:0:0:
355,163,18627,6,2,P|426:167|482:227,1,125
365,309,19204,2,2,P|299:275|254:212,1,125
246,184,19637,1,0,0:0:0:0:
229,130,19781,2,2,P|235:67|295:-13,1,125
359,156,20358,2,2,P|303:188|223:172,1,125,10|2,0:0|0:0,0:0:0:0:
36,120,20934,6,0,L|180:156,1,125,2|0,0:0|0:0,0:0:0:0:
416,251,21512,2,2,L|272:215,1,125,10|2,0:0|0:0,0:0:0:0:
80,206,22089,1,10,0:0:0:0:
282,125,22377,1,10,0:0:0:0:
252,341,22666,1,10,0:0:0:0:
188,366,22954,1,2,0:0:0:0:
229,77,23242,5,10,0:0:0:0:
376,108,23531,5,2,0:0:0:0:
372,120,23675,1,0,0:0:0:0:
368,132,23820,1,2,0:0:0:0:
364,144,23964,1,0,0:0:0:0:
360,155,24107,2,0,L|336:217,1,62.5
314,262,24397,2,2,P|250:286|142:282,1,125,10|2,0:0|0:0,0:0:0:0:
264,58,24974,2,2,P|328:34|436:38,1,125,10|2,0:0|0:0,0:0:0:0:
153,206,25550,5,10,0:0:0:0:
265,182,25839,1,2,0:0:0:0:
281,178,25983,1,0,0:0:0:0:
297,174,26127,1,2,0:0:0:0:
313,170,26272,1,0,0:0:0:0:
329,166,26416,1,2,0:0:0:0:
72,264,26704,2,2,L|216:296,1,125,10|2,0:0|0:0,0:0:0:0:
304,56,27281,2,2,P|240:112|232:160,1,125,10|2,0:0|0:0,0:0:0:0:
233,204,27714,1,2,0:0:0:0:
235,260,27858,6,2,P|251:320|319:368,1,125,10|2,0:0|0:0,0:0:0:0:
453,189,28435,2,2,P|400:232|331:256,1,125
291,262,28868,1,2,0:0:0:0:
235,260,29011,2,2,P|152:245|81:208,1,125,10|2,0:0|0:0,0:0:0:0:
66,199,29445,1,2,0:0:0:0:
192,144,29733,2,0,L|240:202,2,62.5,0|2|0,0:0|0:0|0:0,0:0:0:0:
156,100,30165,1,8,0:0:0:0:
107,29,30454,2,0,P|55:81|23:149,1,125,8|0,0:0|0:0,0:0:0:0:
152,184,31031,2,2,P|148:264|180:312,1,125,10|2,0:0|0:0,0:0:0:0:
212,337,31464,1,2,0:0:0:0:
264,357,31608,6,2,P|330:355|395:294,1,125,2|10,0:0|0:0,0:0:0:0:
324,166,32184,1,2,0:0:0:0:
324,166,32328,1,0,0:0:0:0:
324,166,32472,1,10,0:0:0:0:
457,74,32762,5,2,0:0:0:0:
457,74,32906,1,0,0:0:0:0:
457,74,33050,1,10,0:0:0:0:
484,220,33338,2,0,L|384:280,3,62.5
296,312,34060,2,0,P|216:288|164:192,1,187.5,2|2,0:0|0:0,0:0:0:0:
24,80,34781,6,2,P|144:96|160:80,1,125,10|2,0:0|0:0,0:0:0:0:
408,56,35358,2,2,P|320:28|268:32,1,125,10|2,0:0|0:0,0:0:0:0:
318,329,35934,2,0,L|351:277,3,62.5,8|0|0|0,0:0|0:0|0:0|0:0,0:0:0:0:
432,128,36800,1,2,0:0:0:0:
97,77,37089,6,2,P|156:56|232:76,1,125,10|2,0:0|0:0,0:0:0:0:
268,336,37665,2,2,P|213:304|180:233,1,125,10|2,0:0|0:0,0:0:0:0:
348,64,38242,2,2,P|358:125|325:197,1,125,10|2,0:0|0:0,0:0:0:0:
56,200,38819,2,2,P|96:152|172:131,1,125,10|2,0:0|0:0,0:0:0:0:
456,200,39397,5,2,0:0:0:0:
252,246,39685,1,2,0:0:0:0:
56,200,39973,2,2,P|96:152|172:131,1,125,10|2,0:0|0:0,0:0:0:0:
376,168,40550,2,2,P|320:228|252:244,1,125
82,267,41127,1,10,0:0:0:0:
122,267,41272,1,0,0:0:0:0:
160,255,41416,1,2,0:0:0:0:
197,231,41560,1,0,0:0:0:0:
224,202,41704,6,2,B|250:160|248:128|248:128|264:124,1,93.75,6|2,0:0|0:0,0:0:0:0:
