osu file format v14

[General]
AudioFilename: Rzabka LOL x prod. by @TSKSOMD - Official Video -.mp3
AudioLeadIn: 0
PreviewTime: -1
Countdown: 1
SampleSet: None
StackLeniency: 0.7
Mode: 0
LetterboxInBreaks: 0
WidescreenStoryboard: 0

[Editor]
DistanceSpacing: 2
BeatDivisor: 4
GridSize: 8
TimelineZoom: 1

[Metadata]
Title:Jump & stream training with Rzabka
TitleUnicode:Jump & stream training with Rzabka
Artist:Rzabka
ArtistUnicode:Rzabka
Creator:Kubara
Version:WALI BASS
Source:rzabka SOMD
Tags:rzabka SOMD bass rap polish jump jumps stream streams training
BeatmapID:904425
BeatmapSetID:417696

[Difficulty]
HPDrainRate:5
CircleSize:4.5
OverallDifficulty:7
ApproachRate:9
SliderMultiplier:1.59999990463257
SliderTickRate:1

[Events]
//Background and Video events
0,0,"maxresdefault.jpg",0,0
Video,0,"Rzabka • LOL x prod. by @TSKSOMD - Official Video -.mp4"
//Break Periods
//Storyboard Layer 0 (Background)
//Storyboard Layer 1 (Fail)
//Storyboard Layer 2 (Pass)
//Storyboard Layer 3 (Foreground)
//Storyboard Sound Samples

[TimingPoints]
0,379.650721336371,4,1,0,100,1,0

[HitObjects]
264,328,6171,5,0,0:0:0:0:
64,280,6551,1,0,0:0:0:0:
232,160,6931,1,0,0:0:0:0:
48,72,7308,1,0,0:0:0:0:
232,160,7687,1,0,0:0:0:0:
416,72,8070,1,0,0:0:0:0:
232,160,8447,1,0,0:0:0:0:
384,256,8667,1,0,0:3:0:0:
400,288,8731,1,0,0:3:0:0:
416,256,8794,1,0,0:3:0:0:
248,128,9206,5,0,0:0:0:0:
440,56,9586,1,0,0:0:0:0:
288,192,9966,1,0,0:0:0:0:
440,328,10343,1,0,0:0:0:0:
248,248,10722,1,0,0:0:0:0:
56,328,11105,1,0,0:0:0:0:
240,248,11482,1,0,0:0:0:0:
120,128,11705,1,0,0:3:0:0:
112,96,11769,1,0,0:3:0:0:
88,120,11832,1,0,0:3:0:0:
208,304,12243,5,0,0:0:0:0:
104,168,12433,1,0,0:0:0:0:
272,168,12623,1,0,0:0:0:0:
160,296,12813,5,0,0:0:0:0:
56,160,13003,1,0,0:0:0:0:
224,160,13193,1,0,0:0:0:0:
320,296,13382,5,0,0:0:0:0:
424,160,13572,1,0,0:0:0:0:
256,160,13762,1,0,0:0:0:0:
368,288,13952,5,0,0:0:0:0:
472,152,14142,1,0,0:0:0:0:
304,152,14332,1,0,0:0:0:0:
136,152,14521,1,0,0:0:0:0:
272,288,14742,1,0,0:3:0:0:
325,307,14806,1,0,0:3:0:0:
379,290,14869,1,0,0:3:0:0:
264,328,15280,5,0,0:0:0:0:
112,256,15470,1,0,0:0:0:0:
184,104,15660,1,0,0:0:0:0:
256,256,15850,5,0,0:0:0:0:
104,184,16040,1,0,0:0:0:0:
176,32,16230,1,0,0:0:0:0:
264,328,16419,5,0,0:0:0:0:
112,256,16609,1,0,0:0:0:0:
184,104,16799,1,0,0:0:0:0:
256,256,16989,5,0,0:0:0:0:
104,184,17179,1,0,0:0:0:0:
176,32,17369,1,0,0:0:0:0:
248,184,17558,1,0,0:0:0:0:
416,72,17779,1,0,0:3:0:0:
456,112,17843,1,0,0:3:0:0:
464,168,17906,1,0,0:3:0:0:
256,192,19457,12,0,20690,0:0:0:0:
256,192,21545,12,0,21735,0:0:0:0:
256,192,21924,12,0,22114,0:0:0:0:
208,200,22779,6,0,B|184:112|184:112|272:168|272:168|232:64|232:64|240:72,1,279.999983310699
256,320,24392,5,0,0:0:0:0:
416,288,24582,1,0,0:0:0:0:
256,256,24772,1,0,0:0:0:0:
416,224,24962,1,0,0:0:0:0:
256,192,25152,1,0,0:0:0:0:
416,160,25342,1,0,0:0:0:0:
256,128,25531,5,0,0:0:0:0:
96,160,25721,1,0,0:0:0:0:
256,192,25911,1,0,0:0:0:0:
96,224,26101,1,0,0:0:0:0:
256,256,26291,1,0,0:0:0:0:
96,288,26481,1,0,0:0:0:0:
256,320,26670,1,0,0:0:0:0:
424,240,26891,2,0,B|450:143|445:149|456:148,1,79.9999952316284
168,64,27429,5,0,0:0:0:0:
48,168,27619,1,0,0:0:0:0:
184,256,27809,1,0,0:0:0:0:
200,96,27999,5,0,0:0:0:0:
80,200,28189,1,0,0:0:0:0:
216,288,28379,1,0,0:0:0:0:
376,304,28568,5,0,0:0:0:0:
256,200,28758,1,0,0:0:0:0:
392,112,28948,1,0,0:0:0:0:
328,256,29138,5,0,0:0:0:0:
288,176,29328,1,0,0:0:0:0:
424,80,29518,1,0,0:0:0:0:
264,72,29707,1,0,0:0:0:0:
424,296,29928,2,0,B|355:335|323:330|331:337,1,79.9999952316284
256,192,31511,12,0,32744,0:0:0:0:
256,192,33599,12,0,33789,0:0:0:0:
256,192,33978,12,0,34168,0:0:0:0:
272,192,34832,6,0,B|351:146|351:146|249:124|249:124|351:78|351:78|339:78,1,279.999983310699
288,256,36541,5,0,0:0:0:0:
160,152,36731,1,0,0:0:0:0:
320,152,36921,1,0,0:0:0:0:
200,256,37110,1,0,0:0:0:0:
240,104,37300,1,0,0:0:0:0:
288,256,37490,1,0,0:0:0:0:
152,120,37680,5,0,0:0:0:0:
344,120,37870,1,0,0:0:0:0:
208,256,38060,1,0,0:0:0:0:
248,72,38249,1,0,0:0:0:0:
288,256,38439,1,0,0:0:0:0:
152,120,38629,1,0,0:0:0:0:
344,120,38819,1,0,0:0:0:0:
440,320,39040,2,0,B|371:359|339:354|347:361,1,79.9999952316284
208,96,39578,5,0,0:0:0:0:
368,256,39768,1,0,0:0:0:0:
144,256,39958,1,0,0:0:0:0:
312,96,40147,1,0,0:0:0:0:
256,312,40337,1,0,0:0:0:0:
208,96,40527,1,0,0:0:0:0:
376,288,40717,5,0,0:0:0:0:
120,288,40907,1,0,0:0:0:0:
296,104,41097,1,0,0:0:0:0:
248,352,41286,1,0,0:0:0:0:
200,104,41476,1,0,0:0:0:0:
376,288,41666,1,0,0:0:0:0:
120,288,41856,1,0,0:0:0:0:
336,80,42077,2,0,B|405:41|437:46|429:39,1,79.9999952316284
256,192,43280,12,0,43944,0:0:0:0:
256,320,44134,5,0,0:0:0:0:
120,240,44324,1,0,0:0:0:0:
184,96,44514,1,0,0:0:0:0:
344,96,44703,1,0,0:0:0:0:
408,240,44893,2,0,P|296:296|192:288,1,199.999988079071
144,72,45652,2,0,L|240:80,1,79.9999952316285
328,296,46222,2,0,L|416:288,1,79.9999952316285
80,64,46791,2,0,L|168:56,1,79.9999952316285
256,192,47171,12,0,47741,0:0:0:0:
208,96,48690,5,0,0:0:0:0:
368,256,48880,1,0,0:0:0:0:
144,256,49070,1,0,0:0:0:0:
312,96,49259,1,0,0:0:0:0:
256,312,49449,1,0,0:0:0:0:
208,96,49639,1,0,0:0:0:0:
376,288,49829,5,0,0:0:0:0:
120,288,50019,1,0,0:0:0:0:
296,104,50209,1,0,0:0:0:0:
248,352,50398,1,0,0:0:0:0:
200,104,50588,1,0,0:0:0:0:
376,288,50778,1,0,0:0:0:0:
120,288,50968,1,0,0:0:0:0:
208,96,51157,5,0,0:0:0:0:
368,256,51347,1,0,0:0:0:0:
144,256,51537,1,0,0:0:0:0:
312,96,51726,1,0,0:0:0:0:
256,312,51916,1,0,0:0:0:0:
208,96,52106,1,0,0:0:0:0:
376,288,52296,5,0,0:0:0:0:
120,288,52486,1,0,0:0:0:0:
296,104,52676,1,0,0:0:0:0:
248,352,52865,1,0,0:0:0:0:
200,104,53055,1,0,0:0:0:0:
376,288,53245,1,0,0:0:0:0:
120,288,53435,1,0,0:0:0:0:
208,96,53625,5,0,0:0:0:0:
368,256,53815,1,0,0:0:0:0:
144,256,54005,1,0,0:0:0:0:
312,96,54194,1,0,0:0:0:0:
256,312,54384,1,0,0:0:0:0:
208,96,54574,1,0,0:0:0:0:
336,192,54764,5,0,0:0:0:0:
176,192,54954,1,0,0:0:0:0:
336,192,55144,1,0,0:0:0:0:
176,192,55334,1,0,0:0:0:0:
256,56,55523,1,0,0:0:0:0:
256,216,55713,1,0,0:0:0:0:
256,56,55903,1,0,0:0:0:0:
256,216,56093,1,0,0:0:0:0:
368,328,56283,5,0,0:0:0:0:
488,224,56473,1,0,0:0:0:0:
352,136,56663,1,0,0:0:0:0:
336,296,56853,5,0,0:0:0:0:
456,192,57043,1,0,0:0:0:0:
320,104,57233,1,0,0:0:0:0:
160,88,57422,5,0,0:0:0:0:
280,192,57612,1,0,0:0:0:0:
144,280,57802,1,0,0:0:0:0:
208,136,57992,5,0,0:0:0:0:
248,216,58182,1,0,0:0:0:0:
112,312,58372,1,0,0:0:0:0:
272,320,58561,1,0,0:0:0:0:
304,168,58750,5,0,0:0:0:0:
144,200,58940,1,0,0:0:0:0:
304,232,59130,1,0,0:0:0:0:
144,264,59320,1,0,0:0:0:0:
304,296,59510,1,0,0:0:0:0:
144,328,59700,1,0,0:0:0:0:
304,360,59889,5,0,0:0:0:0:
464,328,60079,1,0,0:0:0:0:
304,296,60269,1,0,0:0:0:0:
464,264,60459,1,0,0:0:0:0:
304,80,60839,5,0,0:0:0:0:
408,216,61029,1,0,0:0:0:0:
240,216,61219,1,0,0:0:0:0:
352,88,61409,5,0,0:0:0:0:
456,224,61599,1,0,0:0:0:0:
288,224,61789,1,0,0:0:0:0:
192,88,61978,5,0,0:0:0:0:
88,224,62168,1,0,0:0:0:0:
256,224,62358,1,0,0:0:0:0:
144,96,62548,5,0,0:0:0:0:
40,232,62738,1,0,0:0:0:0:
208,232,62928,1,0,0:0:0:0:
376,232,63117,1,0,0:0:0:0:
248,328,63306,5,0,0:0:0:0:
352,192,63496,1,0,0:0:0:0:
184,192,63686,1,0,0:0:0:0:
80,312,63876,5,0,0:0:0:0:
72,257,63970,1,0,0:0:0:0:
75,203,64065,1,0,0:0:0:0:
96,153,64160,1,0,0:0:0:0:
136,115,64255,1,0,0:0:0:0:
185,90,64350,1,0,0:0:0:0:
237,74,64445,1,0,0:0:0:0:
291,64,64540,1,0,0:0:0:0:
345,58,64635,1,0,0:0:0:0:
400,56,64730,1,0,0:0:0:0:
419,95,64825,1,0,0:0:0:0:
417,149,64920,1,0,0:0:0:0:
404,202,65014,1,0,0:0:0:0:
377,250,65109,1,0,0:0:0:0:
337,287,65204,1,0,0:0:0:0:
289,311,65299,1,0,0:0:0:0:
236,326,65394,1,0,0:0:0:0:
181,333,65489,1,0,0:0:0:0:
127,335,65584,1,0,0:0:0:0:
72,336,65679,1,0,0:0:0:0:
62,335,65774,1,0,0:0:0:0:
117,335,65869,1,0,0:0:0:0:
172,332,65964,1,0,0:0:0:0:
226,327,66058,1,0,0:0:0:0:
280,317,66153,1,0,0:0:0:0:
332,301,66248,1,0,0:0:0:0:
380,275,66343,1,0,0:0:0:0:
418,236,66438,1,0,0:0:0:0:
436,185,66533,1,0,0:0:0:0:
422,133,66628,1,0,0:0:0:0:
382,96,66723,1,0,0:0:0:0:
332,75,66818,1,0,0:0:0:0:
278,64,66913,1,0,0:0:0:0:
224,59,67008,1,0,0:0:0:0:
169,59,67103,1,0,0:0:0:0:
114,61,67197,1,0,0:0:0:0:
60,68,67292,1,0,0:0:0:0:
48,96,67387,1,0,0:0:0:0:
87,135,67482,1,0,0:0:0:0:
126,173,67577,1,0,0:0:0:0:
167,209,67672,1,0,0:0:0:0:
212,242,67767,1,0,0:0:0:0:
259,268,67862,1,0,0:0:0:0:
312,283,67957,1,0,0:0:0:0:
365,275,68052,1,0,0:0:0:0:
402,236,68147,1,0,0:0:0:0:
409,182,68241,1,0,0:0:0:0:
388,132,68336,1,0,0:0:0:0:
347,96,68431,1,0,0:0:0:0:
295,80,68526,1,0,0:0:0:0:
240,83,68621,1,0,0:0:0:0:
189,101,68716,1,0,0:0:0:0:
143,131,68811,1,0,0:0:0:0:
104,170,68906,1,0,0:0:0:0:
74,215,69001,1,0,0:0:0:0:
51,265,69096,1,0,0:0:0:0:
36,318,69191,1,0,0:0:0:0:
50,322,69286,1,0,0:0:0:0:
87,281,69380,1,0,0:0:0:0:
126,243,69475,1,0,0:0:0:0:
168,207,69570,1,0,0:0:0:0:
212,174,69665,1,0,0:0:0:0:
257,144,69760,1,0,0:0:0:0:
304,116,69855,1,0,0:0:0:0:
353,91,69950,1,0,0:0:0:0:
404,72,70045,1,0,0:0:0:0:
439,89,70140,1,0,0:0:0:0:
438,144,70235,1,0,0:0:0:0:
432,199,70330,1,0,0:0:0:0:
415,251,70424,1,0,0:0:0:0:
381,293,70519,1,0,0:0:0:0:
333,319,70614,1,0,0:0:0:0:
281,334,70709,1,0,0:0:0:0:
226,341,70804,1,0,0:0:0:0:
184,336,70899,1,0,0:0:0:0:
133,292,70993,1,0,0:0:0:0:
111,228,71088,1,0,0:0:0:0:
125,162,71183,1,0,0:0:0:0:
171,113,71278,1,0,0:0:0:0:
235,90,71373,1,0,0:0:0:0:
302,91,71468,1,0,0:0:0:0:
362,121,71563,1,0,0:0:0:0:
399,177,71658,1,0,0:0:0:0:
402,244,71753,1,0,0:0:0:0:
372,305,71848,1,0,0:0:0:0:
318,345,71943,1,0,0:0:0:0:
291,301,72037,1,0,0:0:0:0:
265,238,72132,1,0,0:0:0:0:
229,181,72227,1,0,0:0:0:0:
184,129,72322,1,0,0:0:0:0:
134,83,72417,1,0,0:0:0:0:
80,43,72512,1,0,0:0:0:0:
