osu file format v14

[General]
AudioFilename: audio.mp3
AudioLeadIn: 0
PreviewTime: 29176
Countdown: 1
SampleSet: None
StackLeniency: 0.7
Mode: 1
LetterboxInBreaks: 0
WidescreenStoryboard: 0

[Editor]
DistanceSpacing: 1
BeatDivisor: 8
GridSize: 32
TimelineZoom: 1.9

[Metadata]
Title:Perspicuus Aestus
TitleUnicode:Perspicuus Aestus
Artist:Ryusse
ArtistUnicode:Ryusse
Creator:-[ ix Ishida xi ]-
Version:-[ ix Mega xi ]-
Source:
Tags:
BeatmapID:1725559
BeatmapSetID:823394

[Difficulty]
HPDrainRate:5
CircleSize:5
OverallDifficulty:5
ApproachRate:5
SliderMultiplier:1.4
SliderTickRate:1

[Events]
//Background and Video events
0,0,"Perspicuus_aestus.jpg",0,0
//Break Periods
//Storyboard Layer 0 (Background)
//Storyboard Layer 1 (Fail)
//Storyboard Layer 2 (Pass)
//Storyboard Layer 3 (Foreground)
//Storyboard Sound Samples

[TimingPoints]
636,324.324324324324,4,1,0,100,1,0
636,-100,4,1,0,100,0,0
29257,-100,4,1,0,100,0,0
39554,-100,4,1,0,100,0,0
44744,-100,4,1,0,100,0,0
46041,-100,4,1,0,100,0,0
47338,-100,4,1,0,100,0,0
47987,-100,4,1,0,100,0,0
48635,-100,4,1,0,100,0,0
49284,-100,4,1,0,100,0,0
49933,-100,4,1,0,100,0,0
60311,-100,4,1,0,100,0,1
70690,-100,4,1,0,100,0,1
91446,-100,4,1,0,100,0,1
101825,-100,4,1,0,100,0,1
112203,-100,4,1,0,100,0,0

[HitObjects]
256,192,8419,5,0,0:0:0:0:
256,192,8582,1,8,0:0:0:0:
256,192,8663,1,8,0:0:0:0:
256,192,8744,1,0,0:0:0:0:
256,192,8906,1,8,0:0:0:0:
256,192,9068,1,0,0:0:0:0:
256,192,9230,1,8,0:0:0:0:
256,192,9311,1,8,0:0:0:0:
256,192,9392,1,0,0:0:0:0:
256,192,9555,1,8,0:0:0:0:
256,192,9717,1,0,0:0:0:0:
256,192,9879,1,8,0:0:0:0:
256,192,9960,1,8,0:0:0:0:
256,192,10041,1,0,0:0:0:0:
256,192,10203,1,8,0:0:0:0:
256,192,10365,1,0,0:0:0:0:
256,192,10447,1,0,0:0:0:0:
256,192,10528,1,0,0:0:0:0:
288,192,10609,1,8,0:0:0:0:
288,192,10690,1,8,0:0:0:0:
288,192,10771,1,8,0:0:0:0:
288,192,10852,1,0,0:0:0:0:
288,192,10933,1,8,0:0:0:0:
288,192,11014,1,0,0:0:0:0:
288,192,11176,1,8,0:0:0:0:
288,192,11257,1,8,0:0:0:0:
288,192,11338,1,0,0:0:0:0:
288,192,11501,1,8,0:0:0:0:
288,192,11663,1,0,0:0:0:0:
288,192,11987,1,0,0:0:0:0:
288,192,12149,1,8,0:0:0:0:
256,224,12230,1,8,0:0:0:0:
288,192,12311,1,0,0:0:0:0:
288,192,12474,1,8,0:0:0:0:
288,192,12636,1,0,0:0:0:0:
288,192,12717,1,0,0:0:0:0:
288,192,12798,1,8,0:0:0:0:
320,192,12960,1,0,0:0:0:0:
320,192,13041,1,8,0:0:0:0:
320,192,13122,1,8,0:0:0:0:
320,192,13203,1,8,0:0:0:0:
320,192,13284,1,0,0:0:0:0:
288,192,13365,1,0,0:0:0:0:
288,192,13447,1,8,0:0:0:0:
288,192,13528,1,0,0:0:0:0:
288,192,13609,1,0,0:0:0:0:
320,192,13771,1,8,0:0:0:0:
320,192,13852,1,8,0:0:0:0:
320,192,13933,1,0,0:0:0:0:
320,192,14095,1,8,0:0:0:0:
320,192,14257,1,0,0:0:0:0:
320,192,14419,1,8,0:0:0:0:
320,192,14501,1,8,0:0:0:0:
320,192,14582,1,0,0:0:0:0:
320,192,14744,1,8,0:0:0:0:
288,192,14906,1,0,0:0:0:0:
288,192,15068,1,8,0:0:0:0:
288,192,15149,1,8,0:0:0:0:
288,192,15230,1,0,0:0:0:0:
288,192,15392,1,8,0:0:0:0:
288,192,15555,1,0,0:0:0:0:
288,192,15636,1,0,0:0:0:0:
288,192,15717,1,0,0:0:0:0:
288,192,15798,1,8,0:0:0:0:
288,192,15879,1,8,0:0:0:0:
288,192,15960,1,8,0:0:0:0:
288,192,16041,1,0,0:0:0:0:
288,192,16122,1,8,0:0:0:0:
288,192,16203,1,0,0:0:0:0:
288,192,16365,1,8,0:0:0:0:
288,192,16447,1,8,0:0:0:0:
288,192,16528,1,0,0:0:0:0:
288,192,16690,1,8,0:0:0:0:
288,192,16852,1,0,0:0:0:0:
288,192,17176,1,0,0:0:0:0:
288,160,17338,1,8,0:0:0:0:
288,160,17419,1,8,0:0:0:0:
288,160,17501,1,0,0:0:0:0:
288,160,17663,1,8,0:0:0:0:
288,160,17825,1,0,0:0:0:0:
288,160,17906,1,0,0:0:0:0:
288,160,17987,1,8,0:0:0:0:
288,160,18149,1,0,0:0:0:0:
288,160,18230,1,0,0:0:0:0:
288,160,18311,1,0,0:0:0:0:
288,160,18392,1,0,0:0:0:0:
288,160,18474,1,8,0:0:0:0:
288,160,18636,1,8,0:0:0:0:
288,160,18717,1,8,0:0:0:0:
288,160,18798,1,4,0:0:0:0:
288,160,18960,1,8,0:0:0:0:
288,160,19041,1,8,0:0:0:0:
288,160,19122,1,0,0:0:0:0:
288,160,19284,1,8,0:0:0:0:
352,160,19447,1,0,0:0:0:0:
352,128,19771,1,0,0:0:0:0:
352,128,19933,1,8,0:0:0:0:
352,128,20014,1,8,0:0:0:0:
352,128,20095,1,0,0:0:0:0:
352,128,20257,1,8,0:0:0:0:
352,128,20419,1,0,0:0:0:0:
352,128,20501,1,0,0:0:0:0:
352,128,20582,1,8,0:0:0:0:
352,128,20744,1,0,0:0:0:0:
256,96,20825,1,0,0:0:0:0:
256,96,20906,1,0,0:0:0:0:
256,96,20987,1,8,0:0:0:0:
256,96,21068,1,8,0:0:0:0:
256,96,21149,1,8,0:0:0:0:
256,96,21230,1,0,0:0:0:0:
256,96,21311,1,8,0:0:0:0:
256,96,21392,1,0,0:0:0:0:
288,128,21555,1,8,0:0:0:0:
288,128,21636,1,8,0:0:0:0:
288,128,21717,1,0,0:0:0:0:
288,128,21879,1,8,0:0:0:0:
288,128,22041,1,0,0:0:0:0:
288,96,22203,1,8,0:0:0:0:
288,128,22365,1,0,0:0:0:0:
288,128,22528,1,8,0:0:0:0:
288,128,22609,1,8,0:0:0:0:
288,128,22690,1,0,0:0:0:0:
288,128,22852,1,8,0:0:0:0:
288,128,23014,1,0,0:0:0:0:
288,128,23095,1,0,0:0:0:0:
288,128,23176,1,8,0:0:0:0:
288,128,23338,1,0,0:0:0:0:
288,128,23419,1,8,0:0:0:0:
288,128,23501,1,8,0:0:0:0:
288,128,23582,1,8,0:0:0:0:
288,128,23663,1,0,0:0:0:0:
288,96,23744,1,0,0:0:0:0:
288,96,23825,1,8,0:0:0:0:
288,96,23906,1,8,0:0:0:0:
288,96,23987,1,0,0:0:0:0:
288,96,24149,1,8,0:0:0:0:
288,96,24230,1,8,0:0:0:0:
288,96,24311,1,0,0:0:0:0:
288,96,24474,1,8,0:0:0:0:
320,64,24636,1,0,0:0:0:0:
320,64,24960,1,0,0:0:0:0:
320,64,25122,1,8,0:0:0:0:
320,64,25284,1,0,0:0:0:0:
352,96,25447,1,8,0:0:0:0:
352,96,25528,1,8,0:0:0:0:
352,96,25609,1,0,0:0:0:0:
352,96,25771,1,8,0:0:0:0:
352,96,25933,1,0,0:0:0:0:
320,96,26014,1,0,0:0:0:0:
320,96,26095,1,0,0:0:0:0:
320,96,26176,1,0,0:0:0:0:
320,96,26257,1,8,0:0:0:0:
320,96,26338,1,8,0:0:0:0:
320,96,26419,1,0,0:0:0:0:
320,96,26501,1,0,0:0:0:0:
320,96,26582,1,4,0:0:0:0:
320,96,26744,1,0,0:0:0:0:
320,96,26906,1,0,0:0:0:0:
320,96,27068,1,0,0:0:0:0:
320,96,27230,1,12,0:0:0:0:
320,96,27392,1,8,0:0:0:0:
320,96,27555,1,8,0:0:0:0:
320,96,27717,1,0,0:0:0:0:
320,96,27879,1,0,0:0:0:0:
320,96,27960,1,0,0:0:0:0:
320,96,28041,1,0,0:0:0:0:
320,96,28122,1,0,0:0:0:0:
320,96,28203,1,0,0:0:0:0:
320,96,28284,1,0,0:0:0:0:
320,96,28365,1,0,0:0:0:0:
320,96,28447,1,0,0:0:0:0:
416,64,28528,1,8,0:0:0:0:
384,96,28609,1,0,0:0:0:0:
384,96,28690,1,0,0:0:0:0:
384,96,28771,1,0,0:0:0:0:
192,128,28852,1,8,0:0:0:0:
256,96,28892,1,8,0:0:0:0:
256,96,28933,1,8,0:0:0:0:
256,96,28974,1,8,0:0:0:0:
256,96,29014,1,8,0:0:0:0:
256,96,29055,1,8,0:0:0:0:
256,96,29095,1,8,0:0:0:0:
256,96,29136,1,8,0:0:0:0:
256,96,29176,1,0,0:0:0:0:
352,128,29663,1,8,0:0:0:0:
352,128,29987,1,8,0:0:0:0:
352,128,30311,1,8,0:0:0:0:
352,128,30636,1,8,0:0:0:0:
288,64,30960,1,0,0:0:0:0:
288,64,31122,1,8,0:0:0:0:
224,96,31284,1,0,0:0:0:0:
352,128,31447,1,8,0:0:0:0:
224,96,31609,1,0,0:0:0:0:
352,128,31771,1,0,0:0:0:0:
352,160,32257,1,8,0:0:0:0:
352,160,32582,1,8,0:0:0:0:
352,160,32906,1,8,0:0:0:0:
352,160,33230,1,8,0:0:0:0:
352,160,33555,1,0,0:0:0:0:
352,160,33717,1,8,0:0:0:0:
224,96,34041,1,8,0:0:0:0:
224,96,34365,1,0,0:0:0:0:
224,96,34852,1,8,0:0:0:0:
224,96,35176,1,8,0:0:0:0:
352,128,35501,1,8,0:0:0:0:
352,96,35825,1,8,0:0:0:0:
352,96,36149,1,0,0:0:0:0:
352,96,36311,1,8,0:0:0:0:
256,128,36474,1,0,0:0:0:0:
352,128,36636,1,8,0:0:0:0:
256,128,36798,1,0,0:0:0:0:
256,128,36879,1,0,0:0:0:0:
256,128,36960,1,0,0:0:0:0:
256,128,37284,1,8,0:0:0:0:
256,128,37447,1,0,0:0:0:0:
224,96,37771,1,0,0:0:0:0:
224,96,37933,1,8,0:0:0:0:
320,128,38095,1,0,0:0:0:0:
320,128,38176,1,0,0:0:0:0:
256,96,38257,1,0,0:0:0:0:
320,128,38582,1,8,0:0:0:0:
448,192,38825,1,0,0:0:0:0:
256,96,38865,1,8,0:0:0:0:
256,96,38906,1,8,0:0:0:0:
256,96,39068,1,8,0:0:0:0:
256,96,39230,1,8,0:0:0:0:
256,96,39392,1,0,0:0:0:0:
320,96,39555,1,0,0:0:0:0:
320,96,39636,1,0,0:0:0:0:
320,96,39717,1,0,0:0:0:0:
320,96,39798,1,0,0:0:0:0:
384,192,39879,1,0,0:0:0:0:
320,128,39960,1,8,0:0:0:0:
320,96,40122,1,0,0:0:0:0:
320,96,40284,1,0,0:0:0:0:
320,96,40365,1,0,0:0:0:0:
320,96,40447,1,0,0:0:0:0:
320,96,40528,1,8,0:0:0:0:
352,128,40609,1,0,0:0:0:0:
352,128,40690,1,0,0:0:0:0:
416,160,40771,1,8,0:0:0:0:
352,160,40852,1,8,0:0:0:0:
352,160,40933,1,0,0:0:0:0:
384,160,41014,1,0,0:0:0:0:
416,160,41095,1,0,0:0:0:0:
416,192,41176,1,8,0:0:0:0:
416,192,41257,1,0,0:0:0:0:
416,192,41338,1,0,0:0:0:0:
416,192,41419,1,0,0:0:0:0:
320,128,41460,1,0,0:0:0:0:
320,128,41501,1,8,0:0:0:0:
192,96,41663,1,0,0:0:0:0:
224,128,41744,1,0,0:0:0:0:
224,128,41825,1,8,0:0:0:0:
224,128,41906,1,0,0:0:0:0:
224,128,41987,1,8,0:0:0:0:
224,128,42068,1,0,0:0:0:0:
256,224,42149,1,0,0:0:0:0:
320,96,42230,1,0,0:0:0:0:
320,96,42311,1,0,0:0:0:0:
320,96,42392,1,0,0:0:0:0:
384,192,42473,1,0,0:0:0:0:
320,128,42554,1,8,0:0:0:0:
320,96,42716,1,0,0:0:0:0:
320,96,42878,1,0,0:0:0:0:
320,96,42959,1,0,0:0:0:0:
320,96,43041,1,0,0:0:0:0:
320,96,43122,1,8,0:0:0:0:
352,128,43203,1,0,0:0:0:0:
352,128,43284,1,0,0:0:0:0:
416,160,43365,1,8,0:0:0:0:
352,160,43446,1,8,0:0:0:0:
352,160,43527,1,0,0:0:0:0:
384,160,43608,1,0,0:0:0:0:
416,160,43689,1,0,0:0:0:0:
416,192,43770,1,8,0:0:0:0:
416,192,43851,1,0,0:0:0:0:
416,192,43932,1,0,0:0:0:0:
256,96,44014,1,8,0:0:0:0:
256,96,44095,1,0,0:0:0:0:
352,64,44176,1,0,0:0:0:0:
352,64,44257,1,0,0:0:0:0:
352,64,44338,1,0,0:0:0:0:
352,64,44419,1,8,0:0:0:0:
352,64,44501,1,0,0:0:0:0:
352,64,44582,1,8,0:0:0:0:
352,64,44663,1,0,0:0:0:0:
352,64,44744,1,0,0:0:0:0:
352,64,44906,1,0,0:0:0:0:
352,64,44987,1,0,0:0:0:0:
352,64,45068,1,0,0:0:0:0:
352,64,45230,1,8,0:0:0:0:
352,64,45392,1,0,0:0:0:0:
352,96,45474,1,8,0:0:0:0:
352,96,45555,1,0,0:0:0:0:
352,96,45636,1,0,0:0:0:0:
352,96,45717,1,0,0:0:0:0:
352,96,45879,1,8,0:0:0:0:
352,96,46041,1,0,0:0:0:0:
352,96,46203,1,0,0:0:0:0:
352,96,46284,1,0,0:0:0:0:
352,96,46365,1,0,0:0:0:0:
352,96,46528,1,8,0:0:0:0:
352,96,46690,1,0,0:0:0:0:
352,96,46771,1,8,0:0:0:0:
352,96,46852,1,0,0:0:0:0:
352,96,46933,1,0,0:0:0:0:
352,96,47014,1,8,0:0:0:0:
352,96,47095,1,0,0:0:0:0:
352,96,47176,1,8,0:0:0:0:
352,96,47257,1,0,0:0:0:0:
352,96,47338,1,0,0:0:0:0:
352,96,47501,1,0,0:0:0:0:
352,96,47582,1,0,0:0:0:0:
384,96,47663,1,0,0:0:0:0:
384,96,47825,1,8,0:0:0:0:
384,96,47906,1,0,0:0:0:0:
384,96,47987,1,0,0:0:0:0:
384,96,48149,1,0,0:0:0:0:
384,96,48230,1,0,0:0:0:0:
384,96,48311,1,0,0:0:0:0:
384,96,48474,1,8,0:0:0:0:
384,96,48555,1,0,0:0:0:0:
384,96,48636,1,0,0:0:0:0:
352,96,48798,1,0,0:0:0:0:
352,96,48879,1,0,0:0:0:0:
352,96,48960,1,0,0:0:0:0:
352,96,49122,1,8,0:0:0:0:
352,96,49203,1,0,0:0:0:0:
352,96,49284,1,0,0:0:0:0:
384,96,49365,1,0,0:0:0:0:
384,96,49447,1,8,0:0:0:0:
384,96,49528,1,8,0:0:0:0:
448,96,49609,1,0,0:0:0:0:
448,96,49649,1,0,0:0:0:0:
448,96,49690,1,0,0:0:0:0:
448,96,49730,1,0,0:0:0:0:
448,96,49771,1,0,0:0:0:0:
448,96,49811,1,0,0:0:0:0:
448,96,49852,1,0,0:0:0:0:
448,96,49892,1,0,0:0:0:0:
448,96,49933,1,4,0:0:0:0:
320,96,50095,1,8,0:0:0:0:
320,96,50176,1,0,0:0:0:0:
320,96,50257,1,0,0:0:0:0:
320,96,50419,1,8,0:0:0:0:
352,160,50663,1,0,0:0:0:0:
320,96,50744,1,8,0:0:0:0:
320,96,50906,1,0,0:0:0:0:
320,96,51068,1,8,0:0:0:0:
320,96,51311,1,0,0:0:0:0:
320,96,51392,1,8,0:0:0:0:
320,96,51555,1,0,0:0:0:0:
320,96,51717,1,8,0:0:0:0:
320,96,51879,1,0,0:0:0:0:
320,96,51960,1,0,0:0:0:0:
320,96,52041,1,8,0:0:0:0:
320,96,52203,1,0,0:0:0:0:
320,96,52284,1,0,0:0:0:0:
320,96,52365,1,0,0:0:0:0:
320,96,52447,1,0,0:0:0:0:
320,96,52528,1,0,0:0:0:0:
320,96,52690,1,8,0:0:0:0:
320,96,52771,1,0,0:0:0:0:
320,96,52852,1,0,0:0:0:0:
320,96,53014,1,8,0:0:0:0:
320,96,53258,1,0,0:0:0:0:
320,96,53339,1,8,0:0:0:0:
320,96,53420,1,0,0:0:0:0:
320,96,53501,1,0,0:0:0:0:
320,96,53663,1,8,0:0:0:0:
320,96,53825,1,0,0:0:0:0:
320,96,53987,1,8,0:0:0:0:
320,96,54069,1,0,0:0:0:0:
320,96,54150,1,0,0:0:0:0:
320,96,54312,1,8,0:0:0:0:
320,96,54474,1,0,0:0:0:0:
320,96,54555,1,0,0:0:0:0:
320,96,54636,1,8,0:0:0:0:
320,96,54798,1,0,0:0:0:0:
320,96,54879,1,0,0:0:0:0:
320,96,54960,1,0,0:0:0:0:
320,96,55042,1,0,0:0:0:0:
320,96,55123,1,0,0:0:0:0:
352,160,55284,1,8,0:0:0:0:
352,192,55365,1,0,0:0:0:0:
352,160,55447,1,0,0:0:0:0:
416,96,55609,1,8,0:0:0:0:
416,96,55771,1,0,0:0:0:0:
416,96,55852,1,0,0:0:0:0:
416,96,55933,1,8,0:0:0:0:
384,128,56014,1,0,0:0:0:0:
384,128,56055,1,0,0:0:0:0:
384,128,56095,1,0,0:0:0:0:
224,96,56257,1,8,0:0:0:0:
320,96,56419,1,0,0:0:0:0:
320,96,56582,1,8,0:0:0:0:
320,96,56663,1,0,0:0:0:0:
320,96,56744,1,0,0:0:0:0:
320,96,56906,1,8,0:0:0:0:
352,128,57068,1,0,0:0:0:0:
352,128,57149,1,0,0:0:0:0:
352,128,57230,1,8,0:0:0:0:
320,160,57311,1,0,0:0:0:0:
320,160,57352,1,0,0:0:0:0:
320,160,57392,1,0,0:0:0:0:
384,128,57474,1,0,0:0:0:0:
384,128,57555,1,8,0:0:0:0:
384,128,57636,1,0,0:0:0:0:
384,128,57717,1,4,0:0:0:0:
416,128,57879,1,8,0:0:0:0:
416,128,57960,1,0,0:0:0:0:
416,128,58041,1,0,0:0:0:0:
416,128,58203,1,8,0:0:0:0:
416,160,58365,1,4,0:0:0:0:
416,160,58447,1,0,0:0:0:0:
416,160,58528,1,8,0:0:0:0:
416,160,58609,1,0,0:0:0:0:
416,160,58690,1,0,0:0:0:0:
416,160,58852,1,8,0:0:0:0:
416,160,59014,1,4,0:0:0:0:
352,96,59176,1,8,0:0:0:0:
352,96,59257,1,0,0:0:0:0:
352,96,59338,1,4,0:0:0:0:
352,96,59501,1,8,0:0:0:0:
128,128,59825,1,8,0:0:0:0:
352,96,59987,1,12,0:0:0:0:
352,96,60149,1,12,0:0:0:0:
352,96,60311,1,12,0:0:0:0:
352,96,60392,1,0,0:0:0:0:
352,96,60474,1,0,0:0:0:0:
352,96,60555,1,0,0:0:0:0:
352,96,60636,1,8,0:0:0:0:
352,96,60717,1,0,0:0:0:0:
352,96,60798,1,0,0:0:0:0:
352,96,60879,1,8,0:0:0:0:
352,96,61041,1,8,0:0:0:0:
352,96,61122,1,0,0:0:0:0:
352,96,61203,1,0,0:0:0:0:
352,96,61284,1,8,0:0:0:0:
352,96,61365,1,0,0:0:0:0:
352,96,61447,1,0,0:0:0:0:
352,96,61528,1,8,0:0:0:0:
352,96,61609,1,8,0:0:0:0:
352,96,61690,1,0,0:0:0:0:
352,96,61771,1,0,0:0:0:0:
352,96,61852,1,0,0:0:0:0:
352,96,61933,1,8,0:0:0:0:
352,96,62014,1,0,0:0:0:0:
352,96,62095,1,0,0:0:0:0:
352,96,62176,1,8,0:0:0:0:
384,96,62257,1,0,0:0:0:0:
384,96,62338,1,8,0:0:0:0:
384,96,62419,1,0,0:0:0:0:
384,96,62501,1,0,0:0:0:0:
384,96,62582,1,8,0:0:0:0:
384,96,62663,1,0,0:0:0:0:
416,96,62744,1,0,0:0:0:0:
416,96,62825,1,8,0:0:0:0:
416,96,62906,1,8,0:0:0:0:
320,128,62987,1,0,0:0:0:0:
352,96,63069,1,0,0:0:0:0:
352,96,63150,1,0,0:0:0:0:
256,96,63230,1,0,0:0:0:0:
320,128,63311,1,0,0:0:0:0:
256,96,63392,1,8,0:0:0:0:
320,128,63474,1,0,0:0:0:0:
256,96,63555,1,0,0:0:0:0:
384,96,63636,1,0,0:0:0:0:
320,128,63717,1,0,0:0:0:0:
320,128,63798,1,0,0:0:0:0:
288,96,63879,1,8,0:0:0:0:
320,128,63960,1,0,0:0:0:0:
384,128,64041,1,8,0:0:0:0:
384,128,64082,1,8,0:0:0:0:
384,128,64122,1,8,0:0:0:0:
384,128,64163,1,8,0:0:0:0:
384,128,64203,1,0,0:0:0:0:
192,96,64284,1,0,0:0:0:0:
384,128,64365,1,8,0:0:0:0:
192,96,64447,1,0,0:0:0:0:
384,128,64528,1,0,0:0:0:0:
384,128,64609,1,8,0:0:0:0:
192,96,64690,1,0,0:0:0:0:
192,128,64771,1,0,0:0:0:0:
32,192,64852,1,0,0:0:0:0:
192,128,64933,1,0,0:0:0:0:
192,128,65014,1,8,0:0:0:0:
192,128,65095,1,0,0:0:0:0:
192,128,65176,1,12,0:0:0:0:
384,128,65338,1,0,0:0:0:0:
384,128,65419,1,0,0:0:0:0:
352,128,65501,1,12,0:0:0:0:
352,96,65582,1,0,0:0:0:0:
352,96,65664,1,0,0:0:0:0:
352,96,65745,1,0,0:0:0:0:
352,96,65826,1,8,0:0:0:0:
352,96,65907,1,0,0:0:0:0:
352,96,65988,1,0,0:0:0:0:
352,96,66069,1,8,0:0:0:0:
352,96,66231,1,8,0:0:0:0:
352,96,66312,1,0,0:0:0:0:
352,96,66393,1,0,0:0:0:0:
352,96,66474,1,8,0:0:0:0:
352,96,66555,1,0,0:0:0:0:
352,96,66637,1,0,0:0:0:0:
352,96,66718,1,8,0:0:0:0:
352,96,66799,1,12,0:0:0:0:
352,96,66880,1,0,0:0:0:0:
352,96,66961,1,0,0:0:0:0:
352,96,67042,1,0,0:0:0:0:
352,96,67123,1,8,0:0:0:0:
352,96,67204,1,0,0:0:0:0:
352,96,67285,1,0,0:0:0:0:
352,96,67366,1,8,0:0:0:0:
384,96,67528,1,8,0:0:0:0:
384,96,67609,1,0,0:0:0:0:
384,96,67691,1,0,0:0:0:0:
416,192,67730,1,0,0:0:0:0:
384,96,67772,1,8,0:0:0:0:
384,96,67853,1,0,0:0:0:0:
416,96,67934,1,0,0:0:0:0:
416,96,68015,1,8,0:0:0:0:
416,96,68096,1,12,0:0:0:0:
320,128,68177,1,0,0:0:0:0:
352,96,68259,1,0,0:0:0:0:
352,96,68340,1,0,0:0:0:0:
256,96,68420,1,0,0:0:0:0:
320,128,68501,1,0,0:0:0:0:
256,96,68582,1,12,0:0:0:0:
320,128,68664,1,0,0:0:0:0:
256,96,68745,1,0,0:0:0:0:
384,96,68826,1,0,0:0:0:0:
320,128,68907,1,0,0:0:0:0:
320,128,68988,1,0,0:0:0:0:
288,96,69069,1,12,0:0:0:0:
320,128,69150,1,0,0:0:0:0:
224,160,69230,1,0,0:0:0:0:
256,160,69311,1,0,0:0:0:0:
352,128,69392,1,12,0:0:0:0:
224,96,69555,1,0,0:0:0:0:
224,96,69636,1,0,0:0:0:0:
224,96,69717,1,12,0:0:0:0:
224,96,69879,1,0,0:0:0:0:
224,96,69960,1,0,0:0:0:0:
224,96,70041,1,12,0:0:0:0:
224,96,70122,1,0,0:0:0:0:
224,96,70203,1,0,0:0:0:0:
320,96,70284,1,12,0:0:0:0:
320,96,70365,1,0,0:0:0:0:
320,96,70447,1,0,0:0:0:0:
320,96,70528,1,12,0:0:0:0:
320,96,70609,1,0,0:0:0:0:
320,96,70690,1,12,0:0:0:0:
192,96,70771,1,0,0:0:0:0:
192,96,70852,1,0,0:0:0:0:
192,96,70933,1,0,0:0:0:0:
192,96,71014,1,8,0:0:0:0:
224,96,71095,1,0,0:0:0:0:
224,96,71176,1,0,0:0:0:0:
224,96,71257,1,8,0:0:0:0:
256,64,71419,1,8,0:0:0:0:
256,64,71501,1,0,0:0:0:0:
256,64,71582,1,0,0:0:0:0:
256,64,71663,1,8,0:0:0:0:
256,64,71744,1,0,0:0:0:0:
256,64,71825,1,0,0:0:0:0:
256,64,71906,1,8,0:0:0:0:
288,64,72068,1,8,0:0:0:0:
288,64,72149,1,0,0:0:0:0:
288,64,72230,1,0,0:0:0:0:
288,64,72311,1,8,0:0:0:0:
288,64,72392,1,0,0:0:0:0:
288,64,72474,1,0,0:0:0:0:
288,64,72555,1,8,0:0:0:0:
320,96,72717,1,8,0:0:0:0:
320,96,72798,1,0,0:0:0:0:
320,96,72879,1,0,0:0:0:0:
320,96,72960,1,8,0:0:0:0:
320,96,73041,1,0,0:0:0:0:
320,96,73122,1,8,0:0:0:0:
320,96,73203,1,0,0:0:0:0:
352,96,73284,1,12,0:0:0:0:
352,96,73365,1,0,0:0:0:0:
352,96,73447,1,0,0:0:0:0:
352,96,73528,1,0,0:0:0:0:
352,96,73609,1,8,0:0:0:0:
352,96,73690,1,0,0:0:0:0:
352,96,73771,1,0,0:0:0:0:
352,96,73852,1,8,0:0:0:0:
256,64,74014,1,8,0:0:0:0:
256,64,74096,1,0,0:0:0:0:
256,64,74177,1,0,0:0:0:0:
256,64,74258,1,8,0:0:0:0:
256,64,74339,1,0,0:0:0:0:
256,64,74420,1,0,0:0:0:0:
256,64,74501,1,8,0:0:0:0:
288,64,74663,1,8,0:0:0:0:
288,64,74744,1,0,0:0:0:0:
288,64,74825,1,0,0:0:0:0:
288,64,74906,1,8,0:0:0:0:
288,64,74987,1,0,0:0:0:0:
288,64,75069,1,0,0:0:0:0:
288,64,75150,1,8,0:0:0:0:
224,128,75230,1,8,0:0:0:0:
224,128,75311,1,0,0:0:0:0:
320,96,75393,1,0,0:0:0:0:
320,96,75474,1,0,0:0:0:0:
320,96,75555,1,8,0:0:0:0:
320,96,75636,1,0,0:0:0:0:
320,96,75717,1,8,0:0:0:0:
320,96,75798,1,0,0:0:0:0:
352,96,75879,1,12,0:0:0:0:
352,96,75960,1,0,0:0:0:0:
352,96,76042,1,0,0:0:0:0:
352,96,76123,1,0,0:0:0:0:
352,96,76204,1,8,0:0:0:0:
352,96,76285,1,0,0:0:0:0:
352,96,76366,1,0,0:0:0:0:
352,96,76447,1,8,0:0:0:0:
256,64,76609,1,8,0:0:0:0:
256,64,76691,1,0,0:0:0:0:
256,64,76772,1,0,0:0:0:0:
256,64,76853,1,8,0:0:0:0:
256,64,76934,1,0,0:0:0:0:
256,64,77015,1,0,0:0:0:0:
256,64,77096,1,8,0:0:0:0:
288,64,77258,1,8,0:0:0:0:
288,64,77339,1,0,0:0:0:0:
288,64,77420,1,0,0:0:0:0:
288,64,77501,1,8,0:0:0:0:
288,64,77582,1,0,0:0:0:0:
288,64,77664,1,0,0:0:0:0:
288,64,77745,1,8,0:0:0:0:
320,96,77907,1,8,0:0:0:0:
320,96,77988,1,0,0:0:0:0:
320,96,78069,1,0,0:0:0:0:
320,96,78150,1,8,0:0:0:0:
320,96,78231,1,0,0:0:0:0:
320,96,78311,1,0,0:0:0:0:
320,96,78393,1,0,0:0:0:0:
352,96,78474,1,8,0:0:0:0:
256,128,78555,1,0,0:0:0:0:
256,128,78636,1,0,0:0:0:0:
256,128,78717,1,0,0:0:0:0:
224,128,78798,1,0,0:0:0:0:
288,96,78879,1,0,0:0:0:0:
288,96,78960,1,8,0:0:0:0:
288,96,79041,1,0,0:0:0:0:
64,128,79122,1,0,0:0:0:0:
320,96,79203,1,0,0:0:0:0:
320,96,79284,1,0,0:0:0:0:
320,96,79365,1,0,0:0:0:0:
320,96,79447,1,8,0:0:0:0:
320,128,79528,1,0,0:0:0:0:
320,128,79609,1,8,0:0:0:0:
320,128,79690,1,0,0:0:0:0:
320,160,79771,1,8,0:0:0:0:
320,160,79852,1,0,0:0:0:0:
320,160,79933,1,0,0:0:0:0:
320,160,80014,1,8,0:0:0:0:
320,160,80095,1,0,0:0:0:0:
320,160,80176,1,0,0:0:0:0:
320,160,80257,1,8,0:0:0:0:
320,160,80338,1,0,0:0:0:0:
352,128,80419,1,8,0:0:0:0:
352,128,80501,1,0,0:0:0:0:
352,128,80582,1,0,0:0:0:0:
352,128,80663,1,8,0:0:0:0:
352,128,80744,1,0,0:0:0:0:
352,128,80825,1,0,0:0:0:0:
352,128,80906,1,8,0:0:0:0:
352,128,80987,1,0,0:0:0:0:
384,160,81068,1,12,0:0:0:0:
384,160,81149,1,0,0:0:0:0:
384,160,81230,1,0,0:0:0:0:
384,160,81311,1,0,0:0:0:0:
384,160,81392,1,8,0:0:0:0:
384,160,81474,1,0,0:0:0:0:
384,160,81555,1,0,0:0:0:0:
384,160,81636,1,8,0:0:0:0:
256,64,81798,1,8,0:0:0:0:
256,64,81880,1,0,0:0:0:0:
256,64,81961,1,0,0:0:0:0:
256,64,82042,1,8,0:0:0:0:
256,64,82123,1,0,0:0:0:0:
256,64,82204,1,0,0:0:0:0:
256,64,82285,1,8,0:0:0:0:
288,64,82447,1,8,0:0:0:0:
288,64,82528,1,0,0:0:0:0:
288,64,82609,1,0,0:0:0:0:
288,64,82690,1,8,0:0:0:0:
288,64,82771,1,0,0:0:0:0:
288,64,82853,1,0,0:0:0:0:
288,64,82934,1,8,0:0:0:0:
320,96,83096,1,8,0:0:0:0:
320,96,83177,1,0,0:0:0:0:
320,96,83258,1,0,0:0:0:0:
320,96,83339,1,8,0:0:0:0:
320,96,83420,1,0,0:0:0:0:
320,96,83501,1,8,0:0:0:0:
320,96,83582,1,0,0:0:0:0:
352,96,83663,1,12,0:0:0:0:
352,96,83744,1,0,0:0:0:0:
352,96,83826,1,0,0:0:0:0:
352,96,83907,1,0,0:0:0:0:
352,96,83988,1,8,0:0:0:0:
352,96,84069,1,0,0:0:0:0:
352,96,84150,1,0,0:0:0:0:
352,96,84231,1,8,0:0:0:0:
320,96,84311,1,0,0:0:0:0:
320,96,84392,1,8,0:0:0:0:
320,96,84474,1,8,0:0:0:0:
320,96,84555,1,0,0:0:0:0:
320,96,84636,1,8,0:0:0:0:
320,96,84717,1,0,0:0:0:0:
320,96,84798,1,0,0:0:0:0:
320,96,84879,1,8,0:0:0:0:
448,160,84960,1,12,0:0:0:0:
224,128,85041,1,0,0:0:0:0:
224,128,85122,1,0,0:0:0:0:
224,128,85203,1,0,0:0:0:0:
320,96,85284,1,8,0:0:0:0:
320,96,85365,1,0,0:0:0:0:
320,96,85447,1,0,0:0:0:0:
352,96,85528,1,8,0:0:0:0:
416,128,85568,1,8,0:0:0:0:
416,128,85609,1,8,0:0:0:0:
384,96,85690,1,0,0:0:0:0:
384,128,85771,1,0,0:0:0:0:
384,128,85852,1,0,0:0:0:0:
384,128,85933,1,8,0:0:0:0:
384,128,86014,1,0,0:0:0:0:
384,128,86095,1,8,0:0:0:0:
384,128,86176,1,0,0:0:0:0:
320,96,86257,1,12,0:0:0:0:
320,96,86338,1,0,0:0:0:0:
320,96,86419,1,0,0:0:0:0:
320,96,86501,1,0,0:0:0:0:
320,96,86582,1,8,0:0:0:0:
320,96,86663,1,0,0:0:0:0:
320,96,86744,1,0,0:0:0:0:
320,96,86825,1,8,0:0:0:0:
256,64,86987,1,8,0:0:0:0:
256,64,87069,1,0,0:0:0:0:
256,64,87150,1,0,0:0:0:0:
256,64,87231,1,8,0:0:0:0:
256,64,87312,1,0,0:0:0:0:
256,64,87393,1,0,0:0:0:0:
256,64,87474,1,8,0:0:0:0:
288,64,87636,1,8,0:0:0:0:
288,64,87717,1,0,0:0:0:0:
288,64,87798,1,0,0:0:0:0:
288,64,87879,1,8,0:0:0:0:
288,64,87960,1,0,0:0:0:0:
288,64,88042,1,0,0:0:0:0:
288,64,88123,1,8,0:0:0:0:
320,96,88285,1,8,0:0:0:0:
320,96,88366,1,0,0:0:0:0:
320,96,88447,1,0,0:0:0:0:
320,96,88528,1,8,0:0:0:0:
320,96,88609,1,0,0:0:0:0:
320,96,88690,1,8,0:0:0:0:
320,96,88771,1,0,0:0:0:0:
352,96,88852,1,12,0:0:0:0:
352,96,88933,1,0,0:0:0:0:
352,96,89015,1,0,0:0:0:0:
224,64,89095,1,8,0:0:0:0:
224,96,89176,1,0,0:0:0:0:
224,96,89257,1,8,0:0:0:0:
256,96,89338,1,8,0:0:0:0:
256,96,89419,1,0,0:0:0:0:
384,64,89501,1,8,0:0:0:0:
352,64,89582,1,0,0:0:0:0:
384,64,89663,1,8,0:0:0:0:
384,64,89744,1,8,0:0:0:0:
384,64,89825,1,0,0:0:0:0:
384,64,89906,1,8,0:0:0:0:
384,64,89987,1,8,0:0:0:0:
384,96,90068,1,0,0:0:0:0:
384,96,90149,1,12,0:0:0:0:
480,96,90311,1,0,0:0:0:0:
512,96,90392,1,0,0:0:0:0:
512,96,90474,1,0,0:0:0:0:
512,96,90636,1,12,0:0:0:0:
352,96,90798,1,0,0:0:0:0:
352,96,90879,1,0,0:0:0:0:
352,96,90960,1,0,0:0:0:0:
352,96,91122,1,12,0:0:0:0:
96,160,91203,1,8,0:0:0:0:
352,96,91284,1,0,0:0:0:0:
384,160,91325,1,0,0:0:0:0:
384,160,91365,1,0,0:0:0:0:
384,160,91406,1,0,0:0:0:0:
352,96,91447,1,12,0:0:0:0:
192,96,91528,1,0,0:0:0:0:
192,96,91609,1,0,0:0:0:0:
192,96,91690,1,0,0:0:0:0:
192,96,91771,1,8,0:0:0:0:
224,96,91852,1,0,0:0:0:0:
224,96,91933,1,0,0:0:0:0:
224,96,92014,1,8,0:0:0:0:
256,64,92176,1,8,0:0:0:0:
256,64,92258,1,0,0:0:0:0:
256,64,92339,1,0,0:0:0:0:
256,64,92420,1,8,0:0:0:0:
256,64,92501,1,0,0:0:0:0:
256,64,92582,1,0,0:0:0:0:
256,64,92663,1,8,0:0:0:0:
288,64,92825,1,8,0:0:0:0:
288,64,92906,1,0,0:0:0:0:
288,64,92987,1,0,0:0:0:0:
288,64,93068,1,8,0:0:0:0:
288,64,93149,1,0,0:0:0:0:
288,64,93231,1,0,0:0:0:0:
288,64,93312,1,8,0:0:0:0:
320,96,93474,1,8,0:0:0:0:
320,96,93555,1,0,0:0:0:0:
320,96,93636,1,0,0:0:0:0:
320,96,93717,1,8,0:0:0:0:
320,96,93798,1,0,0:0:0:0:
320,96,93879,1,8,0:0:0:0:
320,96,93960,1,0,0:0:0:0:
352,96,94041,1,12,0:0:0:0:
352,96,94122,1,0,0:0:0:0:
352,96,94204,1,0,0:0:0:0:
352,96,94285,1,0,0:0:0:0:
352,96,94366,1,8,0:0:0:0:
352,96,94447,1,0,0:0:0:0:
352,96,94528,1,0,0:0:0:0:
352,96,94609,1,8,0:0:0:0:
256,64,94771,1,8,0:0:0:0:
256,64,94853,1,0,0:0:0:0:
256,64,94934,1,0,0:0:0:0:
256,64,95015,1,8,0:0:0:0:
256,64,95096,1,0,0:0:0:0:
256,64,95177,1,0,0:0:0:0:
256,64,95258,1,8,0:0:0:0:
288,64,95420,1,8,0:0:0:0:
288,64,95501,1,0,0:0:0:0:
288,64,95582,1,0,0:0:0:0:
288,64,95663,1,8,0:0:0:0:
288,64,95744,1,0,0:0:0:0:
288,64,95826,1,0,0:0:0:0:
288,64,95907,1,8,0:0:0:0:
224,128,95987,1,8,0:0:0:0:
224,128,96068,1,0,0:0:0:0:
320,96,96150,1,0,0:0:0:0:
320,96,96231,1,0,0:0:0:0:
320,96,96312,1,8,0:0:0:0:
320,96,96393,1,0,0:0:0:0:
320,96,96474,1,8,0:0:0:0:
320,96,96555,1,0,0:0:0:0:
352,96,96636,1,12,0:0:0:0:
352,96,96717,1,0,0:0:0:0:
352,96,96799,1,0,0:0:0:0:
352,96,96880,1,0,0:0:0:0:
352,96,96961,1,8,0:0:0:0:
352,96,97042,1,0,0:0:0:0:
352,96,97123,1,0,0:0:0:0:
352,96,97204,1,8,0:0:0:0:
256,64,97366,1,8,0:0:0:0:
256,64,97448,1,0,0:0:0:0:
256,64,97529,1,0,0:0:0:0:
256,64,97610,1,8,0:0:0:0:
256,64,97691,1,0,0:0:0:0:
256,64,97772,1,0,0:0:0:0:
256,64,97853,1,8,0:0:0:0:
288,64,98015,1,8,0:0:0:0:
288,64,98096,1,0,0:0:0:0:
288,64,98177,1,0,0:0:0:0:
288,64,98258,1,8,0:0:0:0:
288,64,98339,1,0,0:0:0:0:
288,64,98421,1,0,0:0:0:0:
288,64,98502,1,8,0:0:0:0:
320,96,98664,1,8,0:0:0:0:
320,96,98745,1,0,0:0:0:0:
320,96,98826,1,0,0:0:0:0:
320,96,98907,1,8,0:0:0:0:
320,96,98988,1,0,0:0:0:0:
320,96,99068,1,0,0:0:0:0:
320,96,99150,1,8,0:0:0:0:
352,96,99230,1,12,0:0:0:0:
352,96,99338,1,0,0:0:0:0:
352,96,99447,1,8,0:0:0:0:
352,96,99555,1,0,0:0:0:0:
352,96,99663,1,8,0:0:0:0:
352,96,99771,1,0,0:0:0:0:
352,96,99879,1,12,0:0:0:0:
352,96,99987,1,0,0:0:0:0:
352,96,100095,1,8,0:0:0:0:
352,96,100203,1,0,0:0:0:0:
384,96,100311,1,8,0:0:0:0:
384,128,100419,1,0,0:0:0:0:
384,128,100528,1,12,0:0:0:0:
320,128,100636,1,0,0:0:0:0:
320,128,100744,1,8,0:0:0:0:
320,128,100852,1,0,0:0:0:0:
320,128,100960,1,8,0:0:0:0:
320,128,101068,1,0,0:0:0:0:
320,64,101176,1,12,0:0:0:0:
384,96,101257,1,0,0:0:0:0:
384,96,101338,1,8,0:0:0:0:
384,96,101419,1,0,0:0:0:0:
384,96,101501,1,12,0:0:0:0:
384,96,101582,1,0,0:0:0:0:
384,96,101663,1,8,0:0:0:0:
384,128,101744,1,0,0:0:0:0:
384,160,101825,1,12,0:0:0:0:
384,160,101906,1,0,0:0:0:0:
384,160,101987,1,0,0:0:0:0:
384,160,102068,1,0,0:0:0:0:
384,160,102149,1,8,0:0:0:0:
384,160,102231,1,0,0:0:0:0:
384,160,102312,1,0,0:0:0:0:
384,160,102393,1,8,0:0:0:0:
256,64,102555,1,8,0:0:0:0:
256,64,102637,1,0,0:0:0:0:
256,64,102718,1,0,0:0:0:0:
256,64,102799,1,12,0:0:0:0:
256,64,102880,1,0,0:0:0:0:
256,64,102961,1,0,0:0:0:0:
256,64,103042,1,8,0:0:0:0:
256,192,103122,1,12,0:0:0:0:
288,64,103285,1,0,0:0:0:0:
288,64,103366,1,0,0:0:0:0:
288,64,103447,1,8,0:0:0:0:
288,64,103528,1,0,0:0:0:0:
288,64,103610,1,0,0:0:0:0:
288,64,103691,1,8,0:0:0:0:
320,96,103853,1,8,0:0:0:0:
320,96,103934,1,0,0:0:0:0:
320,96,104015,1,0,0:0:0:0:
320,96,104096,1,8,0:0:0:0:
320,96,104177,1,0,0:0:0:0:
320,96,104258,1,8,0:0:0:0:
320,96,104339,1,0,0:0:0:0:
352,96,104420,1,12,0:0:0:0:
352,96,104501,1,0,0:0:0:0:
352,96,104583,1,0,0:0:0:0:
352,96,104664,1,0,0:0:0:0:
352,96,104745,1,8,0:0:0:0:
352,96,104826,1,0,0:0:0:0:
352,96,104907,1,0,0:0:0:0:
352,96,104988,1,8,0:0:0:0:
320,96,105068,1,0,0:0:0:0:
320,96,105149,1,8,0:0:0:0:
320,96,105231,1,8,0:0:0:0:
320,96,105312,1,0,0:0:0:0:
320,96,105393,1,12,0:0:0:0:
320,96,105474,1,0,0:0:0:0:
320,96,105555,1,0,0:0:0:0:
320,96,105636,1,8,0:0:0:0:
448,160,105717,1,12,0:0:0:0:
224,128,105798,1,0,0:0:0:0:
224,128,105879,1,0,0:0:0:0:
224,128,105960,1,0,0:0:0:0:
320,96,106041,1,8,0:0:0:0:
320,96,106122,1,0,0:0:0:0:
320,96,106204,1,0,0:0:0:0:
352,96,106285,1,8,0:0:0:0:
416,128,106325,1,8,0:0:0:0:
416,128,106366,1,8,0:0:0:0:
384,96,106447,1,0,0:0:0:0:
384,128,106528,1,0,0:0:0:0:
384,128,106609,1,0,0:0:0:0:
384,128,106690,1,8,0:0:0:0:
384,128,106771,1,0,0:0:0:0:
384,128,106852,1,8,0:0:0:0:
384,128,106933,1,0,0:0:0:0:
320,96,107014,1,12,0:0:0:0:
320,96,107095,1,0,0:0:0:0:
320,96,107176,1,0,0:0:0:0:
320,96,107258,1,0,0:0:0:0:
320,96,107339,1,8,0:0:0:0:
320,96,107420,1,0,0:0:0:0:
320,96,107501,1,0,0:0:0:0:
320,96,107582,1,8,0:0:0:0:
256,64,107744,1,8,0:0:0:0:
256,64,107826,1,0,0:0:0:0:
256,64,107907,1,0,0:0:0:0:
256,64,107988,1,8,0:0:0:0:
256,64,108069,1,0,0:0:0:0:
256,64,108150,1,0,0:0:0:0:
256,64,108231,1,8,0:0:0:0:
160,160,108311,1,12,0:0:0:0:
288,64,108474,1,0,0:0:0:0:
288,64,108555,1,0,0:0:0:0:
288,64,108636,1,8,0:0:0:0:
288,64,108717,1,0,0:0:0:0:
288,64,108799,1,0,0:0:0:0:
288,64,108880,1,8,0:0:0:0:
320,96,109042,1,8,0:0:0:0:
320,96,109123,1,0,0:0:0:0:
320,96,109204,1,0,0:0:0:0:
320,96,109285,1,8,0:0:0:0:
320,96,109366,1,0,0:0:0:0:
320,96,109447,1,0,0:0:0:0:
320,96,109528,1,8,0:0:0:0:
352,96,109609,1,12,0:0:0:0:
352,96,109690,1,0,0:0:0:0:
160,160,109771,1,0,0:0:0:0:
192,160,109852,1,0,0:0:0:0:
224,96,109933,1,8,0:0:0:0:
384,96,110014,1,0,0:0:0:0:
256,96,110095,1,0,0:0:0:0:
256,96,110176,1,8,0:0:0:0:
384,64,110258,1,12,0:0:0:0:
352,64,110339,1,0,0:0:0:0:
384,64,110420,1,0,0:0:0:0:
384,64,110501,1,0,0:0:0:0:
384,64,110582,1,8,0:0:0:0:
384,64,110663,1,0,0:0:0:0:
384,64,110744,1,0,0:0:0:0:
384,96,110825,1,8,0:0:0:0:
384,96,110906,1,12,0:0:0:0:
128,160,111068,1,0,0:0:0:0:
256,128,111149,1,0,0:0:0:0:
256,128,111230,1,12,0:0:0:0:
448,128,111392,1,0,0:0:0:0:
448,128,111474,1,0,0:0:0:0:
384,96,111555,1,12,0:0:0:0:
416,96,111636,1,0,0:0:0:0:
416,96,111676,1,0,0:0:0:0:
416,96,111717,1,0,0:0:0:0:
416,96,111757,1,0,0:0:0:0:
384,96,111798,1,12,0:0:0:0:
416,96,111879,1,0,0:0:0:0:
416,96,111919,1,0,0:0:0:0:
416,96,111960,1,0,0:0:0:0:
416,96,112001,1,0,0:0:0:0:
384,96,112041,1,12,0:0:0:0:
288,64,112122,1,0,0:0:0:0:
416,96,112163,1,0,0:0:0:0:
384,96,112203,1,12,0:0:0:0:
