osu file format v14

[General]
AudioFilename: audio.mp3
AudioLeadIn: 0
PreviewTime: 60303
Countdown: 0
SampleSet: Soft
StackLeniency: 0.5
Mode: 0
LetterboxInBreaks: 0
WidescreenStoryboard: 1

[Editor]
Bookmarks: 23459,94369,142437,220846
DistanceSpacing: 1.2
BeatDivisor: 4
GridSize: 4
TimelineZoom: 2

[Metadata]
Title:Tenka Muteki Meteor Ranger!
TitleUnicode:天下無敵☆メテオレンジャー!
Artist:Ryusei Tai
ArtistUnicode:流星隊
Creator:F D Flourite
Version:Tetora Advanced!
Source:Ensemble Stars
Tags:Morisawa Chiaki Takamine Midori Nagumo Tetora Sengoku Shinobu Shinkai Kanata
BeatmapID:1253495
BeatmapSetID:583375

[Difficulty]
HPDrainRate:4
CircleSize:3.5
OverallDifficulty:5
ApproachRate:6.5
SliderMultiplier:1.28
SliderTickRate:1

[Events]
//Background and Video events
0,0,"BG_Tetora.jpg",0,0
//Break Periods
//Storyboard Layer 0 (Background)
//Storyboard Layer 1 (Fail)
//Storyboard Layer 2 (Pass)
//Storyboard Layer 3 (Foreground)
//Storyboard Sound Samples

[TimingPoints]
382,341.005967604433,4,2,1,30,1,0
1405,-100,4,2,2,40,0,0
1746,-100,4,2,1,55,0,0
12658,-100,4,2,1,75,0,0
23570,-100,4,2,1,60,0,0
34823,-100,4,2,1,75,0,0
60388,341.005967604433,4,2,1,80,1,1
87659,341.005967604433,4,2,1,60,1,0

[Colours]
Combo1 : 231,143,231
Combo2 : 255,9,9
Combo3 : 45,139,255
Combo4 : 74,203,37
Combo5 : 255,192,0
Combo6 : 46,46,46
Combo7 : 146,226,162
Combo8 : 232,169,157

[HitObjects]
80,177,382,86,0,L|161:181,1,64,0|0,3:0|3:0,0:0:0:0:
200,128,723,2,0,P|221:184|181:247,1,128,0|0,3:0|0:0,0:0:0:0:
108,370,1405,1,8,0:0:0:0:
260,345,1746,6,0,L|343:339,1,64,4|0,0:0|0:0,0:0:0:0:
384,293,2087,2,0,P|455:298|488:347,2,128,2|2|2,0:0|0:0|0:0,0:0:0:0:
313,264,2939,2,0,P|285:203|316:152,1,128,2|2,0:0|0:0,0:0:0:0:
389,149,3451,1,2,0:0:0:0:
478,25,3792,2,0,L|347:31,1,128,2|2,0:0|0:0,0:0:0:0:
212,95,4474,6,0,P|153:101|96:38,1,128,4|2,0:0|0:0,0:0:0:0:
16,185,5156,2,0,L|7:340,1,128,2|2,0:0|0:0,0:0:0:0:
72,354,5667,2,0,P|139:366|190:313,1,128,2|2,0:0|0:0,0:0:0:0:
117,289,6179,2,0,L|261:296,1,128,2|2,0:0|0:0,0:0:0:0:
390,344,6861,1,2,0:0:0:0:
458,206,7202,86,0,P|421:160|343:157,1,128,4|2,0:0|0:0,0:0:0:0:
280,168,7713,2,0,P|219:184|163:156,1,128,2|2,0:0|0:0,0:0:0:0:
65,39,8395,1,2,0:0:0:0:
54,115,8566,2,0,L|39:264,1,128,4|2,0:0|0:0,0:0:0:0:
161,337,9248,2,0,L|304:325,1,128,2|2,0:0|0:0,0:0:0:0:
376,200,9930,6,0,P|394:120|356:79,1,128,4|2,0:0|0:0,0:0:0:0:
219,55,10612,2,0,L|212:202,1,128,4|2,0:0|0:0,0:0:0:0:
254,247,11123,2,0,P|198:258|139:205,1,128,6|2,0:0|0:0,0:0:0:0:
119,144,11635,2,0,P|64:127|22:239,1,192,6|0,0:0|0:0,0:0:0:0:
48,296,12317,1,8,0:0:0:0:
197,329,12658,6,0,L|276:326,1,64,4|0,0:0|0:0,0:0:0:0:
326,286,12999,2,0,L|397:292,1,64,10|0,0:0|0:0,0:0:0:0:
445,344,13340,2,0,P|466:282|421:222,1,128,2|8,0:0|0:0,0:0:0:0:
374,186,13851,86,0,P|350:140|383:68,1,128,2|2,0:0|0:0,0:0:0:0:
426,131,14363,2,0,L|500:129,1,64,10|0,0:0|0:0,0:0:0:0:
474,53,14704,2,0,B|400:29|400:29|345:29,1,128,2|10,0:0|0:0,0:0:0:0:
206,84,15386,6,0,P|139:113|83:79,1,128,2|10,0:0|0:0,0:0:0:0:
39,37,15897,1,0,0:0:0:0:
39,37,16068,2,0,L|30:171,1,128,2|10,0:0|0:0,0:0:0:0:
73,227,16579,6,0,B|120:250|120:250|214:233,1,128,2|2,0:0|0:0,0:0:0:0:
270,226,17091,2,0,P|335:235|352:246,1,64,10|0,0:0|0:0,0:0:0:0:
391,283,17432,2,0,P|372:195|410:163,1,128,2|10,0:0|0:0,0:0:0:0:
467,39,18114,86,0,P|392:57|336:29,1,128,2|10,0:0|0:0,0:0:0:0:
270,33,18625,2,0,P|210:13|150:32,1,128,2|2,0:0|0:0,0:0:0:0:
75,52,19137,1,8,0:0:0:0:
75,52,19307,6,0,B|59:125|59:125|76:192,1,128,2|2,0:0|0:0,0:0:0:0:
98,248,19819,2,0,B|149:261|149:261|222:245,1,128,10|2,0:0|0:0,0:0:0:0:
302,258,20330,1,0,0:0:0:0:
302,258,20501,2,0,L|379:261,1,64,10|0,0:0|0:0,0:0:0:0:
442,251,20842,6,0,L|434:187,1,64,6|0,0:0|0:0,0:0:0:0:
505,157,21183,2,0,L|515:73,1,64,6|0,0:0|0:0,0:0:0:0:
435,88,21524,2,0,L|427:24,2,64,6|0|2,0:0|0:0|0:0,0:0:0:0:
358,92,22035,86,0,B|294:87|294:87|211:115,1,128,6|2,0:0|0:0,0:0:0:0:
165,142,22547,2,0,P|132:221|226:250,1,192,6|0,0:0|0:0,0:0:0:0:
274,212,23229,1,8,0:0:0:0:
413,289,23570,53,4,0:0:0:0:
413,289,23740,1,4,0:0:0:0:
166,105,24422,2,0,B|104:92|104:92|29:127,1,128,4|4,0:0|0:0,0:0:0:0:
315,334,25616,22,0,L|202:337,2,96,8|8|8,0:0|0:0|0:0,0:0:0:0:
380,293,26298,37,4,0:0:0:0:
380,293,26468,1,4,0:0:0:0:
280,177,26809,2,0,P|283:128|301:91,1,64,8|2,0:3|0:0,0:0:0:0:
353,73,27150,1,0,0:0:0:0:
429,100,27321,1,4,0:0:0:0:
429,100,27491,1,4,0:0:0:0:
52,175,28344,6,0,P|42:262|50:290,2,96,8|8|0,0:0|0:0|3:0,0:0:0:0:
123,202,29026,70,0,B|178:214|178:214|273:204,1,128,4|8,0:0|0:0,0:0:0:0:
297,147,29538,2,0,P|326:210|288:271,1,128,0|0,0:0|0:0,0:0:0:0:
243,307,30049,2,0,P|238:352|239:370,1,64,8|0,0:0|0:0,0:0:0:0:
315,359,30390,86,0,P|394:346|443:370,1,128,0|8,0:0|0:0,0:0:0:0:
497,318,30902,2,0,P|515:266|481:188,1,128,0|0,0:0|0:0,0:0:0:0:
427,158,31413,2,0,L|441:89,1,64,8|0,0:0|0:0,0:0:0:0:
216,36,32095,86,0,B|199:118|199:118|128:131,2,128,8|8|8,0:0|0:3|0:0,0:0:0:0:
64,46,33118,102,0,P|30:120|52:184,1,128,4|4,0:0|0:0,0:0:0:0:
92,218,33630,1,4,0:0:0:0:
244,188,33971,2,0,B|307:173|307:173|375:190,1,128,4|4,0:0|0:0,0:0:0:0:
506,372,34823,22,0,L|495:291,1,64,4|0,0:0|0:0,0:0:0:0:
425,279,35164,2,0,P|384:278|360:281,1,64,0|0,0:0|0:0,0:0:0:0:
288,306,35505,1,8,0:0:0:0:
216,333,35676,54,0,P|160:338|119:268,1,128
113,209,36187,1,8,0:0:0:0:
113,209,36358,2,0,P|113:144|154:89,1,128,0|0,0:0|0:0,0:0:0:0:
222,75,36869,2,0,L|304:78,1,64,0|0,1:0|0:0,0:0:0:0:
367,73,37210,101,0,0:0:0:0:
367,73,37381,2,0,L|428:39,2,64,0|8|0,0:0|0:0|0:0,0:0:0:0:
333,141,37892,2,0,P|320:215|360:271,1,128,0|8,0:0|0:0,0:0:0:0:
421,289,38404,1,0,0:0:0:0:
421,289,38574,38,0,L|511:278,1,64,2|0,0:0|0:0,0:0:0:0:
494,359,38915,2,0,L|430:366,1,64,10|0,0:0|0:0,0:0:0:0:
353,365,39256,2,0,L|289:358,1,64,2|0,0:0|0:0,0:0:0:0:
219,326,39597,2,0,P|210:282|226:237,1,64,10|0,0:0|0:0,0:0:0:0:
269,210,39938,38,0,P|205:233|140:205,1,128,4|8,0:0|0:0,0:0:0:0:
147,60,40620,2,0,P|211:37|276:65,1,128,2|8,0:0|0:0,0:0:0:0:
330,97,41132,1,0,0:0:0:0:
394,138,41302,6,0,B|411:214|411:214|379:285,1,128,0|8,0:0|0:0,0:0:0:0:
334,312,41814,2,0,B|288:332|288:332|212:315,1,128,0|0,0:0|0:0,0:0:0:0:
139,292,42325,2,0,P|137:244|147:209,1,64,10|0,0:0|0:0,0:0:0:0:
179,162,42666,70,0,P|132:151|97:164,1,64
43,176,43007,2,0,P|40:144|51:114,1,64,8|0,0:0|0:0,0:0:0:0:
12,47,43348,2,0,P|59:36|94:49,1,64,0|0,0:0|0:0,0:0:0:0:
140,0,43689,2,0,P|151:47|138:82,1,64,8|0,0:0|0:0,0:0:0:0:
222,98,44030,101,0,0:0:0:0:
222,98,44201,2,0,L|298:93,2,64,0|8|0,0:0|0:0|0:0,0:0:0:0:
179,162,44712,2,0,P|229:215|289:202,1,128,8|8,0:3|0:0,0:0:0:0:
432,204,45394,86,0,P|474:237|421:280,1,128,4|8,0:0|0:0,0:0:0:0:
356,281,45906,2,0,B|305:244|305:244|245:295,1,128,4|0,0:0|0:0,0:0:0:0:
209,347,46417,2,0,L|137:344,1,64,12|0,0:0|0:0,0:0:0:0:
68,341,46758,85,4,0:0:0:0:
80,188,47099,2,0,L|91:44,1,128,8|8,0:0|0:3,0:0:0:0:
165,76,47611,2,0,P|229:79|276:24,1,128,8|0,0:3|0:0,0:0:0:0:
344,61,48122,38,0,B|431:55|431:55|493:73,1,128,2|2,0:0|0:0,0:0:0:0:
476,143,48634,2,0,B|492:216|451:200|471:280,1,128,2|0,0:0|0:0,0:0:0:0:
485,343,49145,2,0,L|413:338,1,64,4|0,0:0|0:0,0:0:0:0:
356,297,49486,54,0,B|285:284|301:324|202:304,1,128,4|8,0:0|0:3,0:0:0:0:
153,301,49998,2,0,L|81:309,1,64,0|0,0:0|0:0,0:0:0:0:
23,268,50339,2,0,P|0:207|37:141,1,128,2|0,0:0|0:0,0:0:0:0:
99,141,50850,38,0,L|176:134,2,64,8|0|2,0:3|0:0|0:0,0:0:0:0:
53,78,51362,2,0,B|103:46|103:46|177:40,1,128,4|8,0:0|0:3,0:0:0:0:
234,83,51873,2,0,P|250:138|245:164,1,64,8|0,0:0|0:0,0:0:0:0:
230,218,52214,38,0,P|251:278|332:275,1,128,4|8,0:0|0:3,0:0:0:0:
458,321,52896,1,0,0:0:0:0:
458,321,53067,2,0,B|470:235|470:235|444:173,1,128,8|0,0:3|0:0,0:0:0:0:
393,150,53578,102,0,P|365:82|397:39,1,128,2|2,0:0|0:0,0:0:0:0:
463,10,54090,2,0,L|313:18,1,128,2|0,0:0|0:0,0:0:0:0:
258,21,54601,1,2,0:0:0:0:
123,95,54942,85,4,0:0:0:0:
54,232,55283,2,0,P|39:295|35:379,2,128,8|0|8,0:0|0:0|0:0,0:0:0:0:
190,302,56306,5,10,0:0:0:0:
333,247,56647,1,10,0:0:0:0:
278,104,56988,1,10,0:0:0:0:
135,159,57329,1,10,0:0:0:0:
19,57,57671,6,0,P|95:30|150:45,1,128,14|8,0:0|0:0,0:0:0:0:
209,71,58182,1,8,0:3:0:0:
278,104,58353,2,0,L|293:178,2,64,8|8|8,0:0|0:0|0:3,0:0:0:0:
325,43,58864,102,0,B|384:60|384:60|470:49,1,128,8|8,0:0|0:0,0:0:0:0:
467,128,59376,1,8,0:0:0:0:
483,204,59546,1,8,0:0:0:0:
124,327,60388,102,0,P|85:267|102:214,1,128,4|8,0:0|0:0,0:0:0:0:
146,156,60899,2,0,B|195:150|195:150|214:155|214:155|279:148,1,128
341,183,61411,1,8,0:0:0:0:
403,138,61581,6,0,P|414:206|355:260,1,128,0|0,0:0|0:0,0:0:0:0:
313,288,62093,1,8,0:0:0:0:
239,265,62263,2,0,B|179:251|179:251|108:281,1,128,0|0,0:0|0:0,0:0:0:0:
45,302,62775,1,8,0:0:0:0:
10,152,63116,6,0,B|70:166|70:166|141:136,1,128,0|8,0:0|0:0,0:0:0:0:
200,108,63627,2,0,P|255:103|308:159,1,128,0|0,0:0|0:0,0:0:0:0:
234,179,64139,1,8,0:0:0:0:
180,233,64309,86,0,P|164:294|199:366,1,128
261,334,64821,1,8,0:0:0:0:
335,316,64991,2,0,L|481:325,1,128,0|0,0:0|0:0,0:0:0:0:
512,266,65503,1,8,0:0:0:0:
415,146,65844,38,0,L|408:65,1,64,4|0,0:0|0:0,0:0:0:0:
339,50,66185,2,0,P|275:43|199:37,1,128,8|8,0:0|0:3,0:0:0:0:
143,72,66696,1,0,0:3:0:0:
83,121,66867,1,8,0:0:0:0:
208,209,67208,102,0,L|290:217,1,64,4|0,0:0|0:0,0:0:0:0:
341,248,67549,2,0,P|416:251|449:184,1,128,8|8,0:0|0:3,0:0:0:0:
417,142,68060,1,0,0:0:0:0:
439,68,68231,1,8,0:0:0:0:
286,46,68572,86,0,P|276:97|279:122,1,64,4|0,0:0|0:0,0:0:0:0:
199,108,68913,2,0,P|215:157|230:177,1,64,8|8,0:0|0:3,0:0:0:0:
155,205,69254,2,0,P|194:239|217:249,2,64,8|8|8,0:0|0:0|0:0,0:0:0:0:
79,192,69765,6,0,P|47:259|89:311,1,128,4|0,0:0|0:0,0:0:0:0:
139,335,70277,1,8,0:0:0:0:
215,326,70447,2,0,P|299:318|360:315,1,128,8|8,0:0|0:3,0:0:0:0:
418,326,70959,1,8,0:0:0:0:
495,193,71300,6,0,B|480:128|480:128|408:96,1,128,4|8,0:0|0:0,0:0:0:0:
348,120,71811,2,0,P|280:132|216:92,1,128,0|0,0:0|0:0,0:0:0:0:
168,60,72323,1,8,0:0:0:0:
104,104,72493,86,0,P|80:164|116:224,1,128
172,256,73005,1,8,0:0:0:0:
244,228,73175,2,0,B|312:240|284:200|384:220,1,128,0|0,0:0|0:0,0:0:0:0:
440,244,73687,1,8,0:0:0:0:
424,92,74028,6,0,P|372:68|300:104,1,128,0|8,0:0|0:0,0:0:0:0:
236,116,74539,2,0,P|180:108|92:96,1,128,0|0,0:0|0:0,0:0:0:0:
36,80,75051,1,8,0:0:0:0:
20,156,75221,6,0,P|8:224|68:272,1,128,0|0,0:0|0:0,0:0:0:0:
116,244,75733,1,8,0:0:0:0:
188,268,75903,2,0,B|252:280|252:280|328:264,1,128,0|0,0:0|0:0,0:0:0:0:
388,252,76415,2,0,P|396:204|396:176,1,64,8|0,0:0|0:0,0:0:0:0:
388,112,76756,21,2,0:0:0:0:
244,160,77097,1,4,0:0:0:0:
228,84,77267,2,0,P|224:40|228:8,1,64,0|2,0:0|0:0,0:0:0:0:
96,104,77779,1,4,0:0:0:0:
68,176,77949,38,0,P|64:228|68:260,2,64,0|2|0,0:0|0:0|0:0,0:0:0:0:
144,164,78461,2,0,P|148:204|144:244,1,64,4|0,0:0|0:0,0:0:0:0:
116,300,78802,1,4,0:0:0:0:
264,260,79143,1,4,0:0:0:0:
412,304,79484,102,0,P|444:248|416:188,1,128,4|8,0:0|0:0,0:0:0:0:
368,140,79995,1,0,0:0:0:0:
312,88,80166,2,0,P|312:52|324:12,1,64,8|8,0:3|0:3,0:0:0:0:
396,20,80507,1,8,0:0:0:0:
472,24,80677,1,4,0:0:0:0:
124,252,82382,22,0,P|76:248|48:252,2,64,8|8|8,0:3|0:3|0:3,0:0:0:0:
268,292,83064,2,0,P|320:292|348:288,2,64,2|2|2,0:0|0:0|0:0,0:0:0:0:
212,148,83746,5,8,0:3:0:0:
212,72,83917,2,0,P|223:27|250:-3,1,64,8|8,0:0|0:0,0:0:0:0:
289,65,84258,2,0,P|321:32|359:19,1,64,8|8,0:0|0:0,0:0:0:0:
360,100,84599,2,0,P|402:98|433:109,1,64,12|0,0:0|1:0,0:0:0:0:
387,175,84940,1,4,1:0:0:0:
256,192,85110,12,4,87659,0:0:0:0:
