osu file format v14

[General]
AudioFilename: audio.mp3
AudioLeadIn: 0
PreviewTime: 60303
Countdown: 0
SampleSet: Soft
StackLeniency: 0.5
Mode: 0
LetterboxInBreaks: 0
WidescreenStoryboard: 1

[Editor]
Bookmarks: 23457,94367,142435,220844
DistanceSpacing: 1.2
BeatDivisor: 4
GridSize: 4
TimelineZoom: 2

[Metadata]
Title:Tenka Muteki Meteor Ranger!
TitleUnicode:天下無敵☆メテオレンジャー!
Artist:Ryusei Tai
ArtistUnicode:流星隊
Creator:F D Flourite
Version:Kanata Insane!
Source:Ensemble Stars
Tags:Morisawa Chiaki Takamine Midori Nagumo Tetora Sengoku Shinobu Shinkai Kanata
BeatmapID:1253494
BeatmapSetID:583375

[Difficulty]
HPDrainRate:6
CircleSize:4
OverallDifficulty:7.5
ApproachRate:9
SliderMultiplier:1.7
SliderTickRate:1

[Events]
//Background and Video events
0,0,"BG_Kanata.jpg",0,0
//Break Periods
//Storyboard Layer 0 (Background)
//Storyboard Layer 1 (Fail)
//Storyboard Layer 2 (Pass)
//Storyboard Layer 3 (Foreground)
//Storyboard Sound Samples

[TimingPoints]
382,341.005967604433,4,2,1,30,1,0
1403,-66.6666666666667,4,2,2,30,0,0
1744,-111.111111111111,4,2,1,45,0,0
12317,-111.111111111111,4,2,2,50,0,0
12572,-111.111111111111,4,2,1,5,0,0
12656,-100,4,2,1,65,0,0
22547,-80,4,2,1,55,0,0
22888,-100,4,2,1,55,0,0
23570,-133.333333333333,4,2,1,55,0,0
29026,-100,4,2,1,65,0,0
46758,-133.333333333333,4,2,1,55,0,0
49486,-100,4,2,1,55,0,0
49827,-133.333333333333,4,2,1,55,0,0
51362,-100,4,2,1,55,0,0
52214,-133.333333333333,4,2,1,55,0,0
54857,-133.333333333333,4,2,1,5,0,0
54942,-100,4,2,1,75,0,0
57671,-100,4,2,1,80,0,0
60388,341.005967604433,4,2,1,80,1,1
66099,-100,4,2,1,5,0,1
66185,-100,4,2,1,80,0,1
76756,-133.333333333333,4,2,1,80,0,1
77012,-133.333333333333,4,2,1,5,0,1
77097,-66.6666666666667,4,2,1,80,0,1
77353,-66.6666666666667,4,2,1,5,0,1
77438,-133.333333333333,4,2,1,80,0,1
77694,-133.333333333333,4,2,1,5,0,1
77779,-66.6666666666667,4,2,1,80,0,1
78035,-66.6666666666667,4,2,1,5,0,1
78120,-133.333333333333,4,2,1,80,0,1
78376,-133.333333333333,4,2,1,5,0,1
78461,-66.6666666666667,4,2,1,80,0,1
78717,-66.6666666666667,4,2,1,5,0,1
78802,-66.6666666666667,4,2,1,80,0,1
79058,-66.6666666666667,4,2,1,5,0,1
79143,-66.6666666666667,4,2,1,80,0,1
79399,-66.6666666666667,4,2,1,5,0,1
79484,-100,4,2,1,80,0,1
82212,-100,4,2,1,80,0,1
85025,-100,4,2,1,30,0,1
85963,-100,4,2,1,5,0,1
86304,-100,4,2,1,60,0,1
87327,-200,4,2,1,40,0,1
87497,-200,4,2,1,5,0,1
87659,341.005967604433,4,2,1,70,1,0

[Colours]
Combo1 : 231,143,231
Combo2 : 255,9,9
Combo3 : 45,139,255
Combo4 : 74,203,37
Combo5 : 255,192,0
Combo6 : 46,46,46
Combo7 : 146,226,162
Combo8 : 232,169,157

[HitObjects]
317,267,382,86,0,L|412:261,1,85,0|0,3:0|3:0,0:0:0:0:
279,341,723,2,0,P|232:271|298:187,1,170,0|0,3:0|0:0,0:0:0:0:
347,169,1149,2,0,L|403:166,2,42.5,0|0|0,0:0|0:0|0:0,0:0:0:0:
234,183,1405,6,0,P|168:173|130:109,1,127.500004863739,8|0,0:0|0:0,0:0:0:0:
207,26,1746,6,0,L|214:120,1,76.4999976654053,4|0,0:0|0:0,0:0:0:0:
139,203,2087,2,0,L|133:126,1,76.4999976654053,2|0,0:0|0:0,0:0:0:0:
296,80,2428,1,2,0:0:0:0:
372,116,2598,1,0,0:0:0:0:
432,56,2769,1,2,0:0:0:0:
372,196,2939,86,0,P|364:244|388:280,1,76.4999976654053,2|0,0:0|0:0,0:0:0:0:
444,320,3280,1,2,0:0:0:0:
288,357,3451,2,0,L|376:349,1,76.4999976654053,2|0,0:0|0:0,0:0:0:0:
214,285,3792,2,0,L|176:365,1,76.4999976654053,2|0,0:0|0:0,0:0:0:0:
313,256,4133,2,0,L|262:183,1,76.4999976654053,2|0,0:0|0:0,0:0:0:0:
0,205,4474,6,0,P|50:250|142:224,1,152.999995330811,4|2,0:0|0:0,0:0:0:0:
164,158,4985,1,0,0:0:0:0:
62,19,5156,1,2,0:0:0:0:
112,88,5326,1,0,0:0:0:0:
197,79,5497,1,2,0:0:0:0:
241,298,5667,6,0,L|230:203,1,76.4999976654053,2|0,0:0|0:0,0:0:0:0:
306,177,6008,1,2,0:0:0:0:
297,13,6179,2,0,L|287:96,1,76.4999976654053,2|0,0:0|0:0,0:0:0:0:
435,164,6520,2,0,L|368:113,1,76.4999976654053,2|0,0:0|0:0,0:0:0:0:
235,207,6861,2,0,L|311:174,1,76.4999976654053,2|0,0:0|0:0,0:0:0:0:
389,342,7202,86,0,L|301:342,1,76.4999976654053,4|0,0:0|0:0,0:0:0:0:
241,298,7543,1,2,0:0:0:0:
435,164,7713,2,0,L|427:84,1,76.4999976654053,2|0,0:0|0:0,0:0:0:0:
351,152,8054,2,0,L|344:68,1,76.4999976654053,2|0,0:0|0:0,0:0:0:0:
484,28,8395,1,2,0:0:0:0:
264,104,8566,5,4,0:0:0:0:
380,240,8736,2,0,L|387:316,2,76.4999976654053,0|2|0,0:0|0:0|0:0,0:0:0:0:
276,292,9248,2,0,L|199:284,1,76.4999976654053,2|0,0:0|0:0,0:0:0:0:
435,164,9589,2,0,L|511:171,1,76.4999976654053,2|0,0:0|0:0,0:0:0:0:
312,160,9930,5,4,0:0:0:0:
440,48,10100,1,0,0:0:0:0:
464,260,10271,2,0,L|471:336,1,76.4999976654053,2|0,0:0|0:0,0:0:0:0:
408,152,10612,1,4,0:0:0:0:
268,260,10782,1,0,0:0:0:0:
296,56,10953,1,2,0:0:0:0:
332,328,11123,86,0,P|256:356|180:296,1,152.999995330811,6|2,0:0|0:0,0:0:0:0:
92,76,11635,2,0,L|80:168,1,76.4999976654053,6|0,0:0|0:0,0:0:0:0:
264,180,11976,1,2,0:0:0:0:
289,177,12061,1,0,0:0:0:0:
314,174,12146,2,0,L|382:166,1,38.2499988327027,0|0,0:0|0:0,0:0:0:0:
436,108,12317,6,0,P|456:168|428:236,1,114.749996498108,8|0,0:0|0:0,0:0:0:0:
384,284,12658,5,4,0:0:0:0:
264,180,12828,1,0,0:0:0:0:
132,256,12999,2,0,L|125:340,1,85,10|0,0:0|0:0,0:0:0:0:
264,180,13340,2,0,L|348:171,1,85,2|0,0:0|0:0,0:0:0:0:
436,108,13681,1,8,0:0:0:0:
384,284,13851,1,2,0:0:0:0:
492,235,14022,85,0,0:0:0:0:
348,170,14192,1,2,0:0:0:0:
482,357,14363,1,10,0:0:0:0:
281,329,14533,1,0,0:0:0:0:
348,170,14704,1,2,0:0:0:0:
384,284,14874,1,0,0:0:0:0:
316,60,15045,2,0,L|435:60,1,85,10|0,0:0|0:0,0:0:0:0:
168,224,15386,6,0,L|184:112,1,85,2|0,0:0|0:0,0:0:0:0:
32,256,15727,2,0,L|48:156,1,85,10|0,0:0|0:0,0:0:0:0:
124,52,16068,1,2,0:0:0:0:
264,156,16238,1,0,0:0:0:0:
152,244,16409,1,10,0:0:0:0:
288,136,16579,6,0,L|384:140,1,85,2|0,0:0|0:0,0:0:0:0:
472,84,16920,1,2,0:0:0:0:
340,248,17091,2,0,L|436:252,1,85,10|0,0:0|0:0,0:0:0:0:
373,140,17432,1,2,0:0:0:0:
512,248,17602,1,0,0:0:0:0:
340,248,17773,1,10,0:0:0:0:
492,165,17943,1,0,0:0:0:0:
242,174,18114,86,0,P|230:133|257:76,1,85,2|0,0:0|0:0,0:0:0:0:
406,32,18455,1,10,0:0:0:0:
424,251,18625,2,0,L|417:163,1,85,2|0,0:0|0:0,0:0:0:0:
500,61,18966,1,2,0:0:0:0:
327,136,19137,1,8,0:0:0:0:
446,263,19307,6,0,L|437:360,1,85,2|0,0:0|0:0,0:0:0:0:
330,379,19648,1,2,0:0:0:0:
164,282,19819,2,0,L|267:288,1,85,10|0,0:0|0:0,0:0:0:0:
357,183,20160,2,0,L|254:189,1,85,2|0,0:0|0:0,0:0:0:0:
164,84,20501,2,0,L|267:90,1,85,10|0,0:0|0:0,0:0:0:0:
434,73,20842,5,6,0:0:0:0:
377,277,21012,1,0,0:0:0:0:
197,168,21183,85,6,0:0:0:0:
383,166,21353,1,0,0:0:0:0:
260,312,21524,6,0,L|265:358,3,42.5,6|0|0|0,0:0|0:0|0:0|0:0,0:0:0:0:
190,210,21865,2,0,L|200:145,1,42.5,2|0,0:0|0:0,0:0:0:0:
80,273,22035,2,0,P|26:216|55:147,1,127.5,6|0,0:0|0:0,0:0:0:0:
84,110,22376,1,2,0:0:0:0:
316,102,22547,6,0,B|237:133|249:61|156:93,1,159.375,6|0,0:0|0:0,0:0:0:0:
196,167,22888,2,0,L|190:210,3,42.5,0|0|0|0,0:0|0:0|0:0|0:0,0:0:0:0:
163,90,23229,1,8,0:0:0:0:
399,60,23570,21,4,0:0:0:0:
399,60,23740,1,4,0:0:0:0:
413,193,24422,1,4,0:0:0:0:
413,193,24763,1,4,0:0:0:0:
337,265,25104,54,0,P|304:267|270:273,2,63.7500024318696,0|2|0,0:0|0:0|0:0,0:0:0:0:
418,299,25531,1,0,0:0:0:0:
418,299,25616,2,0,P|469:336|497:366,2,95.6250036478044,8|8|8,0:0|0:0|0:0,0:0:0:0:
475,116,26298,85,4,0:0:0:0:
475,116,26468,1,4,0:0:0:0:
310,175,26809,2,0,P|306:195|304:217,2,31.8750012159348,8|0|2,0:3|0:0|0:0,0:0:0:0:
284,97,27150,1,0,0:0:0:0:
390,201,27321,1,4,0:0:0:0:
390,201,27491,1,4,0:0:0:0:
184,231,28344,38,0,P|126:241|85:250,2,95.6250036478044,8|8|0,0:0|0:0|3:0,0:0:0:0:
296,320,29026,86,0,P|356:282|321:184,1,170,4|8,0:0|0:0,0:0:0:0:
226,106,29538,2,0,P|166:144|201:242,1,170,0|0,0:3|0:0,0:0:0:0:
180,343,30049,2,0,P|135:341|88:344,1,85,8|0,0:0|0:0,0:0:0:0:
46,179,30390,86,0,P|101:240|183:230,1,170,8|8,0:0|0:0,0:0:0:0:
226,106,30902,1,0,0:0:0:0:
330,153,31072,2,0,P|357:151|386:150,3,42.5,8|0|0|0,0:0|0:0|0:0|0:0,0:0:0:0:
338,238,31413,2,0,P|365:236|394:235,3,42.5,8|0|0|0,0:0|0:0|0:0|0:0,0:0:0:0:
134,157,32095,86,0,P|126:104|146:55,1,85,8|0,0:0|0:0,0:0:0:0:
231,21,32436,1,8,0:3:0:0:
372,150,32607,1,8,0:3:0:0:
466,94,32777,2,0,P|475:63|478:38,2,42.5,8|0|8,0:0|0:0|0:3,0:0:0:0:
257,238,33118,102,0,P|234:316|292:359,1,127.5,4|0,0:0|0:0,0:0:0:0:
325,384,33459,1,4,0:0:0:0:
491,334,33630,1,4,0:0:0:0:
441,95,33971,2,0,B|364:63|364:63|271:123,1,170,4|4,0:0|0:0,0:0:0:0:
44,235,34823,22,0,P|87:237|134:238,1,85,4|0,0:0|0:0,0:0:0:0:
218,172,35164,1,0,0:0:0:0:
281,312,35335,1,0,0:0:0:0:
112,327,35505,1,8,0:0:0:0:
260,299,35676,1,0,0:0:0:0:
115,149,35846,53,0,0:0:0:0:
229,184,36017,2,0,L|320:176,1,85,0|8,0:0|0:0,0:0:0:0:
311,17,36358,2,0,P|211:5|174:55,1,170,0|0,0:0|0:0,0:0:0:0:
145,247,36869,1,0,1:0:0:0:
234,156,37040,1,0,0:0:0:0:
397,317,37210,102,0,P|412:251|419:229,1,85
469,136,37551,1,8,0:0:0:0:
309,250,37722,1,0,0:0:0:0:
476,357,37892,2,0,P|398:356|300:369,1,170,0|8,0:0|0:0,0:0:0:0:
195,307,38404,1,0,0:0:0:0:
343,134,38574,5,2,0:0:0:0:
393,313,38745,1,0,0:0:0:0:
359,140,38915,5,10,0:0:0:0:
376,306,39086,1,0,0:0:0:0:
373,148,39256,5,2,0:0:0:0:
362,298,39427,1,0,0:0:0:0:
477,206,39597,85,10,0:0:0:0:
263,244,39768,1,0,0:0:0:0:
297,28,39938,70,0,P|412:40|491:55,1,170,4|8,0:0|0:0,0:0:0:0:
195,282,40620,2,0,P|142:218|180:139,1,170,2|8,0:0|0:0,0:0:0:0:
281,129,41132,1,0,0:0:0:0:
456,220,41302,6,0,P|360:224|280:232,1,170,0|8,0:0|0:0,0:0:0:0:
344,324,41814,1,0,0:0:0:0:
281,129,41984,1,2,0:0:0:0:
440,128,42155,1,0,0:0:0:0:
268,116,42325,37,10,0:0:0:0:
452,144,42496,1,0,0:0:0:0:
248,264,42666,22,0,P|240:324|240:360,1,85
424,324,43007,2,0,P|432:264|432:228,1,85,8|0,0:0|0:0,0:0:0:0:
264,232,43348,102,0,P|256:292|256:328,1,85
440,292,43689,2,0,P|448:232|448:196,1,85,8|0,0:0|0:0,0:0:0:0:
344,96,44030,5,0,0:0:0:0:
264,232,44201,1,0,0:0:0:0:
448,208,44371,1,8,0:0:0:0:
264,232,44542,1,0,0:0:0:0:
352,72,44712,2,0,L|360:160,1,85,0|0,0:3|0:0,0:0:0:0:
256,316,45053,2,0,L|264:228,1,85,8|0,0:0|0:0,0:0:0:0:
440,292,45394,101,4,0:0:0:0:
270,130,45565,1,0,0:0:0:0:
435,95,45735,1,8,0:0:0:0:
264,232,45906,2,0,B|172:208|196:280|92:248,1,170,4|0,0:0|0:0,0:0:0:0:
112,112,46417,2,0,P|128:148|132:172,3,42.5,12|0|0|0,0:0|0:0|0:0|0:0,0:0:0:0:
24,152,46758,54,0,P|16:76|50:36,1,127.500004863739,4|8,0:0|0:0,0:0:0:0:
252,32,47440,1,8,0:3:0:0:
336,80,47611,2,0,L|480:72,1,127.500004863739,8|0,0:3|0:0,0:0:0:0:
392,196,48122,38,0,P|384:240|384:268,1,63.7500024318696,2|0,0:0|0:0,0:0:0:0:
472,160,48463,1,2,0:0:0:0:
448,304,48634,2,0,P|376:304|300:312,1,127.500004863739,2|0,0:0|0:0,0:0:0:0:
212,228,49145,2,0,P|156:256|144:288,1,95.6250036478044,4|0,0:0|0:0,0:0:0:0:
216,300,49486,6,0,B|224:276|224:276|220:248|220:248|228:228|228:228|224:208|224:208|232:184|232:184|228:160|228:160|232:128,1,170,4|8,0:0|0:3,0:0:0:0:
324,108,49998,38,0,P|352:112|400:112,1,63.7500024318696
284,32,50339,2,0,P|220:24|152:56,1,127.500004863739,2|0,0:0|0:0,0:0:0:0:
100,152,50850,38,0,P|104:200|104:228,1,63.7500024318696,8|0,0:3|0:0,0:0:0:0:
104,236,51106,1,0,0:0:0:0:
100,256,51191,1,2,0:0:0:0:
248,328,51362,102,0,P|296:300|376:320,1,127.5,4|0,0:0|0:0,0:0:0:0:
428,352,51703,1,8,0:3:0:0:
500,276,51873,2,0,P|504:216|488:184,1,85,8|0,0:0|0:0,0:0:0:0:
340,160,52214,54,0,L|344:120,3,31.8750012159348,4|0|8|0,0:0|0:0|0:3|0:0,0:0:0:0:
368,84,52555,2,0,L|232:100,1,127.500004863739,8|0,0:3|0:0,0:0:0:0:
144,96,53067,2,0,P|160:156|176:236,1,127.500004863739,8|0,0:3|0:0,0:0:0:0:
104,284,53578,102,0,L|36:280,1,63.7500024318696,2|0,0:0|0:0,0:0:0:0:
184,336,53919,1,2,0:0:0:0:
184,336,54090,2,0,P|248:328|312:324,1,127.500004863739,2|0,0:0|0:0,0:0:0:0:
404,348,54601,2,0,P|428:288|400:244,1,95.6250036478044,2|0,0:0|0:0,0:0:0:0:
372,204,54942,102,0,L|388:108,1,85,4|0,0:0|0:0,0:0:0:0:
168,36,55283,2,0,L|154:119,1,85,8|0,0:0|0:0,0:0:0:0:
296,188,55624,2,0,L|230:133,1,85
100,222,55965,2,0,L|179:192,1,85,8|0,0:0|0:0,0:0:0:0:
340,309,56306,21,10,0:0:0:0:
340,309,56477,1,0,0:0:0:0:
144,298,56647,5,10,0:0:0:0:
144,298,56818,1,0,0:0:0:0:
155,102,56988,5,10,0:0:0:0:
155,102,57159,1,0,0:0:0:0:
351,113,57329,21,10,0:0:0:0:
351,113,57500,1,0,0:0:0:0:
480,316,57671,5,14,0:0:0:0:
312,344,57841,1,8,0:3:0:0:
312,344,57926,1,8,0:3:0:0:
312,344,58012,1,8,0:0:0:0:
416,196,58182,1,8,0:3:0:0:
268,76,58353,5,8,0:0:0:0:
392,288,58523,1,8,0:0:0:0:
396,104,58694,1,8,0:3:0:0:
220,240,58864,2,0,P|132:240|96:184,1,127.5,8|0,0:0|0:0,0:0:0:0:
84,144,59205,1,8,0:0:0:0:
268,76,59376,1,8,0:0:0:0:
268,76,59546,1,8,0:0:0:0:
373,192,59717,6,0,L|421:196,3,42.5,2|0|0|0,0:0|0:0|0:0|0:0,0:0:0:0:
320,268,60058,2,0,P|316:308|316:324,3,42.5,2|0|0|0,0:0|0:0|0:0|0:0,0:0:0:0:
412,344,60388,6,0,L|496:333,1,85,4|0,0:0|0:0,0:0:0:0:
415,195,60729,1,8,0:0:0:0:
248,220,60899,2,0,P|236:272|232:312,1,85,0|0,0:0|0:0,0:0:0:0:
368,100,61240,2,0,P|316:96|276:96,1,85,0|8,0:0|0:0,0:0:0:0:
168,168,61581,1,0,0:0:0:0:
364,340,61752,86,0,P|358:297|348:256,1,85
280,168,62093,1,8,0:0:0:0:
440,252,62263,1,0,0:0:0:0:
232,303,62434,1,0,0:0:0:0:
280,168,62604,1,0,0:0:0:0:
424,48,62775,2,0,P|444:108|452:148,1,85,8|0,0:0|0:0,0:0:0:0:
361,276,63116,6,0,P|369:200|381:164,1,85,0|0,0:0|0:0,0:0:0:0:
492,252,63457,1,8,0:0:0:0:
368,368,63627,2,0,L|272:372,1,85,0|0,0:0|0:0,0:0:0:0:
212,244,63968,2,0,L|116:240,1,85,0|8,0:0|0:0,0:0:0:0:
276,56,64309,6,0,P|332:120|304:208,1,170
228,264,64821,1,8,0:0:0:0:
96,148,64991,1,0,0:0:0:0:
200,168,65162,1,0,0:0:0:0:
160,332,65332,1,0,0:0:0:0:
56,352,65503,1,8,0:0:0:0:
128,236,65673,1,0,0:0:0:0:
268,344,65844,6,0,P|324:356|392:304,1,127.5,4|0,0:0|0:0,0:0:0:0:
408,248,66185,2,0,P|428:196|468:172,1,85,8|0,0:0|0:0,0:0:0:0:
296,208,66526,2,0,P|292:152|318:113,1,85,8|0,0:3|0:3,0:0:0:0:
177,219,66867,2,0,P|150:170|157:124,1,85,8|0,0:0|0:0,0:0:0:0:
356,28,67208,102,0,L|264:36,1,85,4|0,0:0|0:0,0:0:0:0:
177,219,67549,2,0,L|269:211,1,85,8|0,0:0|0:0,0:0:0:0:
424,116,67890,2,0,L|332:124,1,85,8|0,0:3|0:0,0:0:0:0:
245,307,68231,2,0,L|337:299,1,85,8|0,0:0|0:0,0:0:0:0:
216,132,68572,101,4,0:0:0:0:
368,212,68742,1,0,0:0:0:0:
304,40,68913,1,8,0:0:0:0:
304,40,69083,1,8,0:3:0:0:
256,256,69254,1,8,0:0:0:0:
408,84,69424,1,8,0:0:0:0:
184,32,69595,1,8,0:0:0:0:
381,218,69765,6,0,P|436:159|408:84,1,170,4|0,0:0|0:0,0:0:0:0:
272,132,70277,1,8,0:0:0:0:
488,252,70447,2,0,P|372:260|312:272,1,170,8|8,0:0|0:3,0:0:0:0:
164,304,70959,1,8,0:0:0:0:
133,311,71044,1,0,0:0:0:0:
101,307,71129,1,0,0:0:0:0:
74,292,71214,1,0,0:0:0:0:
54,268,71300,86,0,L|44:176,1,85,4|0,0:0|0:0,0:0:0:0:
116,96,71641,1,8,0:0:0:0:
268,168,71811,2,0,P|312:164|368:164,1,85,0|0,0:0|0:0,0:0:0:0:
360,296,72152,2,0,P|316:300|260:300,1,85,0|8,0:0|0:0,0:0:0:0:
448,192,72493,6,0,P|460:244|452:284,1,85,0|0,0:0|0:0,0:0:0:0:
380,376,72834,1,0,0:0:0:0:
275,300,73005,1,8,0:0:0:0:
356,152,73175,1,0,0:0:0:0:
292,312,73346,1,0,0:0:0:0:
455,274,73516,1,0,0:0:0:0:
260,212,73687,2,0,L|152:208,1,85,8|0,0:0|0:0,0:0:0:0:
84,272,74028,5,0,0:0:0:0:
56,76,74198,1,0,0:0:0:0:
168,120,74369,1,8,0:0:0:0:
0,208,74539,1,0,0:0:0:0:
175,208,74710,1,0,0:0:0:0:
72,56,74880,1,0,0:0:0:0:
248,80,75051,1,8,0:0:0:0:
172,304,75221,86,0,P|284:296|352:296,1,170
268,176,75733,1,8,0:0:0:0:
444,328,75903,2,0,P|476:288|432:176,1,170,0|0,0:0|0:0,0:0:0:0:
352,88,76415,2,0,P|352:52|360:32,1,42.5,8|0,0:0|0:0,0:0:0:0:
309,174,76585,2,0,P|288:177|267:175,1,42.5,0|0,0:0|0:0,0:0:0:0:
184,28,76756,54,0,B|200:76|200:76|184:128,1,95.6250036478044,2|0,0:0|0:0,0:0:0:0:
92,176,77097,54,0,B|62:264|62:264|92:360,1,191.250007295609,4|0,0:0|0:0,0:0:0:0:
184,328,77438,70,0,P|240:320|292:332,1,95.6250036478044,2|0,0:0|0:0,0:0:0:0:
384,356,77779,38,0,P|452:340|432:232,1,191.250007295609,4|0,0:0|0:0,0:0:0:0:
384,156,78120,86,0,P|404:124|404:156,1,95.6250036478044,2|0,0:0|0:0,0:0:0:0:
288,156,78461,38,0,B|260:160|228:152|208:116|208:116|188:152|156:164|117:155,1,191.250007295609,4|0,0:0|0:0,0:0:0:0:
92,240,78802,6,0,P|96:308|208:308,1,191.250007295609,4|0,0:0|0:0,0:0:0:0:
311,317,79143,2,0,P|399:325|420:240,1,191.250007295609,4|0,0:0|0:0,0:0:0:0:
376,136,79484,70,0,L|388:36,1,85,4|0,0:0|0:0,0:0:0:0:
208,24,79825,1,8,0:0:0:0:
304,216,79995,1,0,0:0:0:0:
386,51,80166,1,8,0:3:0:0:
188,156,80336,1,8,0:3:0:0:
388,156,80507,1,8,0:0:0:0:
88,72,80677,1,4,0:0:0:0:
88,72,82212,101,8,0:3:0:0:
80,244,82382,1,0,0:3:0:0:
232,160,82553,1,2,0:0:0:0:
88,72,82723,1,2,0:0:0:0:
260,280,82894,69,8,0:3:0:0:
308,108,83064,1,0,0:0:0:0:
135,156,83235,1,2,0:0:0:0:
260,280,83405,1,2,0:0:0:0:
404,64,83576,5,4,0:0:0:0:
428,248,83746,1,0,0:0:0:0:
256,168,83917,5,8,0:0:0:0:
232,352,84087,1,0,0:0:0:0:
72,116,84258,5,8,0:0:0:0:
88,280,84428,1,0,0:0:0:0:
256,60,84599,6,0,L|256:20,8,21.25,12|0|0|0|12|0|0|0|4,0:0|0:0|0:0|0:0|0:0|0:0|0:0|0:0|1:0,0:0:0:0:
256,192,85025,12,0,85963,0:0:0:0:
128,100,86304,5,8,0:3:0:0:
236,132,86474,1,8,0:3:0:0:
340,88,86645,2,0,P|412:76|472:120,1,127.5,8|0,0:0|0:0,0:0:0:0:
392,216,86986,2,0,P|388:184|392:160,1,42.5,8|0,0:3|0:0,0:0:0:0:
448,288,87156,2,0,P|477:300|496:315,1,42.5,8|0,0:3|0:0,0:0:0:0:
357,300,87327,6,0,P|331:319|308:328,1,42.5,8|0,0:0|0:0,0:0:0:0:
256,220,87659,5,12,0:0:0:0:
