osu file format v14

[General]
AudioFilename: audio.mp3
AudioLeadIn: 0
PreviewTime: 60303
Countdown: 0
SampleSet: Soft
StackLeniency: 0.3
Mode: 0
LetterboxInBreaks: 0
WidescreenStoryboard: 0

[Editor]
Bookmarks: 23459,94369,98545,109454,142437,220846
DistanceSpacing: 1
BeatDivisor: 4
GridSize: 4
TimelineZoom: 3.399998

[Metadata]
Title:Tenka Muteki Meteor Ranger!
TitleUnicode:天下無敵☆メテオレンジャー!
Artist:Ryusei Tai
ArtistUnicode:流星隊
Creator:F D Flourite
Version:Chiaki Ranger!
Source:Ensemble Stars
Tags:Morisawa Chiaki Takamine Midori Nagumo Tetora Sengoku Shinobu Shinkai Kanata
BeatmapID:1234548
BeatmapSetID:583375

[Difficulty]
HPDrainRate:6
CircleSize:4
OverallDifficulty:8.5
ApproachRate:9.3
SliderMultiplier:2
SliderTickRate:1

[Events]
//Background and Video events
0,0,"BG_Chiaki.jpg",0,0
//Break Periods
//Storyboard Layer 0 (Background)
//Storyboard Layer 1 (Fail)
//Storyboard Layer 2 (Pass)
//Storyboard Layer 3 (Foreground)
//Storyboard Sound Samples

[TimingPoints]
382,341.005967604433,4,2,1,30,1,0
1405,-66.6666666666667,4,2,2,45,0,0
1746,-100,4,2,1,55,0,0
12317,-200,4,2,2,50,0,0
12572,-200,4,2,1,5,0,0
12658,-100,4,2,1,60,0,0
23229,-83.3333333333333,4,2,1,60,0,0
23570,-133.333333333333,4,2,1,60,0,0
28344,-83.3333333333333,4,2,1,60,0,0
28685,-133.333333333333,4,2,1,60,0,0
29026,-100,4,2,3,60,0,0
29197,-100,4,2,3,90,0,0
30390,-100,4,2,1,40,0,0
30731,-100,4,2,1,50,0,0
31072,-100,4,2,1,60,0,0
31413,-100,4,2,1,70,0,0
31754,-200,4,2,1,40,0,0
32095,-83.3333333333333,4,2,1,70,0,0
34823,-100,4,2,1,60,0,0
45906,-133.333333333333,4,2,1,60,0,0
46247,-100,4,2,1,60,0,0
47099,-166.666666666667,4,2,1,60,0,0
49486,-83.3333333333333,4,2,1,60,0,0
49742,-166.666666666667,4,2,1,60,0,0
51362,-83.3333333333333,4,2,1,60,0,0
51703,-166.666666666667,4,2,1,60,0,0
52214,-66.6666666666667,4,2,1,60,0,0
52555,-166.666666666667,4,2,1,60,0,0
54942,-100,4,2,1,70,0,0
57671,-100,4,2,1,80,0,0
60388,341.005967604433,4,2,1,70,1,1
60388,-100,4,2,1,70,0,1
67208,-100,4,2,1,70,0,1
68572,-80,4,2,1,70,0,1
69765,-100,4,2,1,70,0,1
76756,-133.333333333333,4,2,1,70,0,1
77012,-133.333333333333,4,2,1,5,0,1
77097,-66.6666666666667,4,2,1,75,0,1
77353,-66.6666666666667,4,2,1,5,0,1
77438,-133.333333333333,4,2,1,75,0,1
77694,-133.333333333333,4,2,1,5,0,1
77779,-66.6666666666667,4,2,1,75,0,1
78035,-66.6666666666667,4,2,1,5,0,1
78120,-133.333333333333,4,2,1,75,0,1
78376,-133.333333333333,4,2,1,5,0,1
78461,-66.6666666666667,4,2,1,75,0,1
78717,-66.6666666666667,4,2,1,5,0,1
78802,-66.6666666666667,4,2,1,75,0,1
79058,-66.6666666666667,4,2,1,5,0,1
79143,-66.6666666666667,4,2,1,75,0,1
79399,-66.6666666666667,4,2,1,5,0,1
79484,-100,4,2,1,75,0,1
80763,-100,4,2,1,5,0,1
82212,-100,4,2,1,75,0,1
83576,-80,4,2,1,75,0,1
84599,-50,4,2,1,75,0,1
85963,-100,4,2,1,5,0,1
86304,-100,4,2,1,75,0,1
87327,-300,4,2,1,50,0,1
87583,-300,4,2,1,5,0,1
87659,341.005967604433,4,2,1,60,1,0

[Colours]
Combo1 : 231,143,231
Combo2 : 255,9,9
Combo3 : 45,139,255
Combo4 : 74,203,37
Combo5 : 255,192,0
Combo6 : 46,46,46
Combo7 : 146,226,162
Combo8 : 232,169,157

[HitObjects]
104,168,382,86,0,L|224:176,1,100,0|0,3:0|3:0,0:0:0:0:
324,264,723,2,0,P|380:260|396:208,1,100,0|0,3:0|0:0,0:0:0:0:
388,193,936,2,0,L|392:157,1,25
306,180,1064,6,0,P|302:136|306:112,1,50
470,104,1234,2,0,P|474:148|470:172,1,50
392,324,1405,6,0,B|344:300|296:328|296:328|252:308|252:308|212:336|180:328,1,225.000008583069,8|0,0:0|0:0,0:0:0:0:
88,280,1746,86,0,B|72:232|72:232|84:184,1,100,4|0,0:0|0:0,0:0:0:0:
228,56,2087,1,2,0:0:0:0:
300,164,2257,1,0,0:0:0:0:
181,329,2428,1,2,0:0:0:0:
297,281,2598,1,0,0:0:0:0:
176,201,2769,1,2,0:0:0:0:
396,187,2939,6,0,L|506:178,1,100,2|0,0:0|0:0,0:0:0:0:
362,82,3280,1,2,0:0:0:0:
297,281,3451,2,0,L|187:290,1,100,2|0,0:0|0:0,0:0:0:0:
37,49,3792,1,2,0:0:0:0:
156,65,3962,1,0,0:0:0:0:
55,163,4133,1,2,0:0:0:0:
174,179,4303,1,0,0:0:0:0:
384,329,4474,6,0,B|398:280|398:280|374:213,1,100,4|0,0:0|0:0,0:0:0:0:
197,289,4815,1,2,0:0:0:0:
174,179,4985,1,0,0:0:0:0:
330,39,5156,2,0,L|319:139,1,100,2|0,0:0|0:0,0:0:0:0:
381,233,5497,1,2,0:0:0:0:
84,251,5668,86,0,L|98:357,1,100,2|0,0:0|0:0,0:0:0:0:
174,179,6009,1,2,0:0:0:0:
381,233,6179,2,0,L|493:229,1,100,2|0,0:0|0:0,0:0:0:0:
280,71,6520,1,2,0:0:0:0:
174,179,6691,1,0,0:0:0:0:
174,67,6861,1,2,0:0:0:0:
280,183,7032,1,0,0:0:0:0:
57,345,7202,6,0,B|42:298|42:298|57:242,1,100,4|0,0:0|0:0,0:0:0:0:
174,67,7543,1,2,0:0:0:0:
208,360,7714,2,0,L|196:252,1,100,2|0,0:0|0:0,0:0:0:0:
344,136,8055,2,0,L|332:235,1,100,2|0,0:0|0:0,0:0:0:0:
456,284,8396,1,2,0:0:0:0:
220,148,8566,6,0,B|172:140|172:140|116:176,1,100,4|0,0:0|0:0,0:0:0:0:
296,320,8907,1,2,0:0:0:0:
428,196,9078,1,0,0:0:0:0:
306,127,9248,2,0,L|318:28,1,100,2|0,0:0|0:0,0:0:0:0:
128,167,9589,2,0,L|136:267,1,100,2|0,0:0|0:0,0:0:0:0:
396,352,9930,85,4,0:0:0:0:
428,196,10101,1,0,0:0:0:0:
252,240,10271,1,2,0:0:0:0:
352,268,10442,1,0,0:0:0:0:
189,81,10612,5,4,0:0:0:0:
136,267,10783,1,0,0:0:0:0:
328,168,10953,1,2,0:0:0:0:
83,30,11124,6,0,B|210:51|210:51|320:24,1,200,6|2,0:0|0:0,0:0:0:0:
396,352,11635,1,6,0:0:0:0:
475,232,11806,1,0,0:0:0:0:
293,180,11976,1,2,0:0:0:0:
257,167,12061,1,0,0:0:0:0:
221,173,12147,1,0,0:0:0:0:
192,196,12232,1,0,0:0:0:0:
177,231,12317,86,0,B|171:264|171:264|172:274|172:274|164:316,1,75,8|0,0:0|0:0,0:0:0:0:
237,350,12658,6,0,P|299:354|342:293,1,100,4|0,0:0|0:0,0:0:0:0:
90,271,12999,2,0,P|28:267|-15:328,1,100,10|0,0:0|0:0,0:0:0:0:
129,379,13340,1,2,0:0:0:0:
270,280,13511,1,0,0:0:0:0:
68,169,13681,1,8,0:0:0:0:
343,196,13852,6,0,B|394:203|394:203|444:184,1,100,2|0,0:0|0:0,0:0:0:0:
227,113,14193,1,2,0:0:0:0:
419,8,14363,2,0,B|368:1|368:1|322:18,1,100,10|0,0:0|0:0,0:0:0:0:
270,280,14704,1,2,0:0:0:0:
379,94,14875,1,0,0:0:0:0:
442,297,15045,1,10,0:0:0:0:
385,115,15216,1,0,0:0:0:0:
179,227,15386,86,0,P|166:291|198:346,1,100,2|0,0:0|0:0,0:0:0:0:
462,162,15727,2,0,P|475:98|443:43,1,100,10|0,0:0|0:0,0:0:0:0:
199,51,16068,1,2,0:0:0:0:
328,199,16239,1,0,0:0:0:0:
400,6,16409,1,10,0:0:0:0:
179,227,16580,1,2,0:0:0:0:
179,227,16665,1,0,0:0:0:0:
179,227,16750,5,0,0:0:0:0:
328,199,16921,1,2,0:0:0:0:
157,363,17091,2,0,L|274:377,1,100,10|0,0:0|0:0,0:0:0:0:
427,187,17432,2,0,L|310:201,1,100,2|0,0:0|0:0,0:0:0:0:
157,21,17773,2,0,L|274:35,1,100,10|0,0:0|0:0,0:0:0:0:
88,267,18114,6,0,B|72:220|72:220|92:150,1,100,2|0,0:0|0:0,0:0:0:0:
218,116,18455,1,10,0:0:0:0:
403,287,18626,2,0,L|286:301,1,100,2|0,0:0|0:0,0:0:0:0:
218,116,18967,2,0,L|335:130,1,100,2|8,0:0|0:0,0:0:0:0:
107,47,19308,1,2,0:0:0:0:
107,47,19393,1,0,0:0:0:0:
107,47,19478,85,0,0:0:0:0:
317,127,19649,1,2,0:0:0:0:
85,171,19819,2,0,B|72:220|72:220|88:267,1,100,10|0,0:0|0:0,0:0:0:0:
253,374,20160,2,0,B|266:325|266:325|250:278,1,100,2|0,0:0|0:0,0:0:0:0:
420,164,20501,2,0,B|433:213|433:213|417:260,1,100,10|0,0:0|0:0,0:0:0:0:
163,62,20842,5,6,0:0:0:0:
253,374,21013,1,0,0:0:0:0:
363,68,21183,1,6,0:0:0:0:
94,250,21354,1,0,0:0:0:0:
418,260,21524,6,0,L|474:255,1,50,6|0,0:0|0:0,0:0:0:0:
274,328,21695,2,0,L|250:378,1,50
287,169,21865,2,0,L|255:123,1,50,2|0,0:0|0:0,0:0:0:0:
94,250,22036,86,0,L|193:241,1,100,6|0,0:0|0:0,0:0:0:0:
402,158,22377,1,2,0:0:0:0:
115,110,22547,2,0,P|50:107|14:188,1,150,6|0,0:0|0:0,0:0:0:0:
10,265,22888,1,0,0:0:0:0:
10,265,22974,1,0,0:0:0:0:
10,265,23059,2,0,L|23:324,1,50
184,349,23229,6,0,B|258:295|258:295|348:348,1,179.999994506836,8|0,0:0|0:0,0:0:0:0:
450,368,23570,37,4,0:0:0:0:
80,166,23741,1,4,0:0:0:0:
396,168,24423,2,0,L|472:164,1,75.0000028610231,4|0,0:0|0:0,0:0:0:0:
142,55,24764,1,4,0:0:0:0:
89,246,25105,70,0,L|97:322,1,75.0000028610231,0|2,0:0|0:0,0:0:0:0:
311,337,25446,1,0,0:0:0:0:
316,320,25531,1,0,0:0:0:0:
320,304,25616,5,8,0:0:0:0:
344,208,25872,1,8,0:0:0:0:
368,112,26128,1,8,0:0:0:0:
80,166,26298,53,4,0:0:0:0:
476,223,26469,1,4,0:0:0:0:
235,36,26810,1,8,0:3:0:0:
229,53,26895,1,0,0:0:0:0:
223,69,26980,2,0,B|230:146,1,75.0000028610231,2|0,0:0|0:0,0:0:0:0:
66,256,27321,22,0,L|0:248,1,37.5000014305115,4|0,0:0|0:0,0:0:0:0:
440,138,27492,1,4,0:0:0:0:
313,332,27748,1,2,0:0:0:0:
284,330,27833,1,0,0:0:0:0:
256,328,27918,1,0,0:0:0:0:
228,327,28003,1,0,0:0:0:0:
200,325,28089,1,0,0:0:0:0:
173,324,28174,6,0,L|132:323,2,25.0000009536744
205,231,28344,6,0,B|222:213|222:213|94:239|94:239|129:256,1,179.999994506836,8|8,0:0|0:0,0:0:0:0:
213,133,28685,86,0,L|155:145,1,37.5000014305115,0|0,3:0|0:0,0:0:0:0:
38,301,28856,2,0,L|87:324,1,37.5000014305115,0|0,3:0|0:0,0:0:0:0:
51,73,29026,102,0,P|32:147|65:182,1,100,4|0,0:0|0:0,0:0:0:0:
41,162,29282,1,0,0:0:0:0:
41,162,29367,1,0,0:0:0:0:
266,69,29538,2,0,P|213:49|189:53,1,50
133,38,29708,1,0,0:0:0:0:
205,231,29879,2,0,P|229:224|250:211,1,50
374,159,30049,1,0,0:0:0:0:
423,151,30135,1,0,0:0:0:0:
463,179,30220,1,0,0:0:0:0:
470,228,30305,1,0,0:0:0:0:
448,273,30390,86,0,L|395:282,1,50,8|0,0:0|0:0,0:0:0:0:
232,319,30561,2,0,L|285:328,1,50
365,364,30731,1,8,0:0:0:0:
374,159,30902,2,0,L|363:96,1,50
265,51,31072,1,8,0:0:0:0:
237,69,31158,1,0,0:0:0:0:
205,77,31243,1,0,0:0:0:0:
172,73,31328,1,0,0:0:0:0:
98,35,31413,85,8,0:0:0:0:
65,29,31499,1,0,0:0:0:0:
34,41,31584,1,0,0:0:0:0:
14,67,31669,1,0,0:0:0:0:
85,117,31754,86,0,L|82:177,1,50,0|8,0:0|0:3,0:0:0:0:
131,222,31982,2,0,L|155:215,1,16.6666666666667,8|8,0:3|0:3,0:0:0:0:
100,240,32095,22,0,P|82:309|216:320,1,239.999992675781,8|8,0:0|0:3,0:0:0:0:
300,208,32607,1,8,0:3:0:0:
172,73,32777,2,0,L|234:77,1,59.9999981689454,8|0,0:0|0:0,0:0:0:0:
435,119,32948,2,0,L|373:123,1,59.9999981689454,8|0,0:3|0:0,0:0:0:0:
210,215,33118,70,0,B|190:271|190:271|218:345,1,119.999996337891,4|0,0:0|0:0,0:0:0:0:
440,254,33459,2,0,L|381:260,1,59.9999981689454,4|0,0:0|0:0,0:0:0:0:
231,76,33630,1,4,0:0:0:0:
104,370,33971,6,0,B|173:374|212:327|212:327|253:379|344:365,1,239.999992675781,4|4,0:0|0:0,0:0:0:0:
76,60,34824,38,0,B|60:108|60:108|88:172,1,100,4|0,0:0|0:0,0:0:0:0:
163,234,35165,1,0,0:0:0:0:
163,234,35335,1,0,0:0:0:0:
336,164,35506,2,0,L|440:168,1,100,8|0,0:0|0:0,0:0:0:0:
485,58,35847,69,0,0:0:0:0:
322,145,36017,2,0,L|218:149,1,100,0|8,0:0|0:0,0:0:0:0:
306,366,36358,2,0,P|392:329|367:226,1,200
222,148,36870,2,0,L|207:254,1,100,0|0,1:0|0:0,0:0:0:0:
68,60,37211,86,0,B|117:71|117:71|170:52,1,100
108,248,37552,2,0,B|59:237|59:237|6:256,1,100,8|0,0:0|0:0,0:0:0:0:
222,276,37893,2,0,P|271:244|240:117,1,200,0|8,0:0|0:0,0:0:0:0:
163,54,38404,1,0,0:0:0:0:
108,248,38575,5,2,0:0:0:0:
320,230,38745,1,0,0:0:0:0:
112,218,38916,5,10,0:0:0:0:
321,261,39086,1,0,0:0:0:0:
117,180,39257,5,2,0:0:0:0:
320,290,39427,1,0,0:0:0:0:
247,121,39598,2,0,B|234:69|234:69|250:17,1,100,10|0,0:0|0:0,0:0:0:0:
408,319,39939,38,0,P|346:378|233:327,1,200,4|8,0:0|0:0,0:0:0:0:
371,51,40621,1,2,0:0:0:0:
371,51,40791,2,0,L|383:159,1,100,0|8,0:0|0:0,0:0:0:0:
320,290,41132,1,0,0:0:0:0:
40,213,41303,6,0,B|146:173|132:254|236:211,1,200,0|8,0:0|0:0,0:0:0:0:
188,101,41814,1,0,0:0:0:0:
92,317,41985,53,2,0:0:0:0:
320,290,42155,1,0,0:0:0:0:
92,317,42326,85,10,0:0:0:0:
320,290,42496,1,0,0:0:0:0:
110,151,42667,38,0,B|97:101|97:101|108:51,1,100
297,46,43008,2,0,B|347:33|347:33|397:44,1,100,8|0,0:0|0:0,0:0:0:0:
402,233,43349,2,0,B|415:283|415:283|404:333,1,100
215,338,43690,2,0,B|165:351|165:351|115:340,1,100,8|0,0:0|0:0,0:0:0:0:
256,192,44031,85,0,0:0:0:0:
404,330,44201,1,0,0:0:0:0:
215,338,44372,1,8,0:0:0:0:
365,195,44542,1,0,0:0:0:0:
365,195,44627,1,0,0:0:0:0:
365,195,44713,2,0,P|443:180|452:106,1,150,8|0,0:3|0:0,0:0:0:0:
394,43,45054,2,0,L|292:47,1,100,8|0,0:0|0:0,0:0:0:0:
89,213,45395,5,4,0:0:0:0:
370,342,45565,1,0,0:0:0:0:
180,58,45736,1,8,0:0:0:0:
457,119,45906,86,0,B|470:158|451:191|451:191|475:229|450:282,1,150.000005722046,4|0,0:0|0:0,0:0:0:0:
192,164,46418,1,12,0:0:0:0:
240,152,46503,1,0,0:0:0:0:
285,174,46588,1,0,0:0:0:0:
307,218,46673,1,0,0:0:0:0:
226,237,46759,6,0,B|156:262|156:262|85:219,1,150,4|0,0:0|0:0,0:0:0:0:
33,168,47100,70,0,P|33:115|91:99,1,119.999996337891,8|8,0:0|0:3,0:0:0:0:
239,152,47611,1,8,0:3:0:0:
299,149,47782,2,0,B|240:152,1,59.9999981689454,8|0,0:0|0:0,0:0:0:0:
80,312,48123,37,2,0:0:0:0:
320,285,48293,1,0,0:0:0:0:
177,91,48464,1,2,0:0:0:0:
348,292,48634,2,0,P|417:297|451:235,1,119.999996337891,2|0,0:0|0:0,0:0:0:0:
373,64,49146,2,0,L|376:108,1,29.9999990844727,4|0,0:0|0:0,0:0:0:0:
278,116,49316,2,0,L|295:154,1,29.9999990844727
202,208,49487,6,0,B|154:187|113:191|113:191|75:214|52:264,1,179.999994506836,4|0,0:0|0:0,0:0:0:0:
48,272,49785,38,0,L|55:259,1,14.9999995422363,0|8,0:0|0:3,0:0:0:0:
170,354,49998,1,0,0:0:0:0:
285,259,50169,1,0,0:0:0:0:
414,336,50339,1,2,0:0:0:0:
473,327,50510,2,0,L|396:338,1,59.9999981689454,0|0,0:3|0:0,0:0:0:0:
410,153,50851,37,8,0:3:0:0:
285,68,51021,1,0,0:0:0:0:
285,68,51107,1,0,0:0:0:0:
285,68,51192,2,0,L|288:120,1,29.9999990844727,2|0,0:0|0:0,0:0:0:0:
172,180,51362,6,0,P|98:175|178:213,1,239.999992675781,4|8,0:0|0:3,0:0:0:0:
134,206,51760,86,0,L|158:206,1,19.9999993896485,8|8,0:3|0:3,0:0:0:0:
255,200,51874,2,0,L|262:279,1,59.9999981689454,8|0,0:0|0:0,0:0:0:0:
424,352,52215,6,0,B|452:312|432:268|432:268|440:240|440:240|424:200,1,150.000005722046,4|8,0:0|0:3,0:0:0:0:
428,210,52442,2,0,L|436:160,1,50.0000019073487,8|8,0:3|0:3,0:0:0:0:
364,32,52556,38,0,L|344:160,1,119.999996337891,8|0,0:3|0:0,0:0:0:0:
267,318,53067,2,0,L|259:259,1,59.9999981689454,8|8,0:3|0:0,0:0:0:0:
428,210,53408,1,0,0:0:0:0:
220,132,53579,102,0,L|144:128,1,59.9999981689454,2|0,0:0|0:0,0:0:0:0:
32,260,53920,1,2,0:0:0:0:
32,260,54005,1,0,0:0:0:0:
32,260,54090,2,0,P|96:268|140:216,1,119.999996337891,2|0,0:0|0:0,0:0:0:0:
18,90,54602,1,2,0:0:0:0:
53,55,54687,1,0,0:0:0:0:
101,43,54772,1,0,0:0:0:0:
148,58,54858,1,0,0:0:0:0:
220,132,54943,102,0,B|270:135|270:135|326:112,1,100,4|0,0:0|0:0,0:0:0:0:
364,266,55284,1,8,0:0:0:0:
364,266,55454,1,0,0:0:0:0:
466,150,55625,1,0,0:0:0:0:
466,150,55795,1,0,0:0:0:0:
316,116,55966,1,8,0:0:0:0:
316,116,56136,1,0,0:0:0:0:
475,277,56307,5,10,0:0:0:0:
271,321,56477,1,0,0:0:0:0:
455,185,56648,5,10,0:0:0:0:
218,187,56818,1,0,0:0:0:0:
469,93,56989,5,10,0:0:0:0:
211,32,57159,1,0,0:0:0:0:
475,277,57330,5,10,0:0:0:0:
171,342,57500,2,0,L|108:334,1,50
342,63,57671,5,14,0:0:0:0:
391,335,57841,1,8,0:3:0:0:
391,335,57927,1,8,0:3:0:0:
391,335,58012,1,8,0:0:0:0:
455,185,58182,1,8,0:3:0:0:
121,335,58353,5,8,0:0:0:0:
469,93,58523,1,8,0:0:0:0:
43,93,58694,1,8,0:3:0:0:
391,335,58864,1,8,0:0:0:0:
391,335,59205,5,8,0:0:0:0:
256,0,59376,1,8,0:0:0:0:
121,335,59546,1,8,0:0:0:0:
256,192,59717,1,2,0:0:0:0:
274,182,59802,1,0,0:0:0:0:
295,176,59887,1,0,0:0:0:0:
316,175,59973,1,0,0:0:0:0:
337,179,60058,1,2,0:0:0:0:
357,187,60143,1,0,0:0:0:0:
374,200,60228,1,0,0:0:0:0:
388,216,60314,1,0,0:0:0:0:
428,281,60388,6,0,L|532:271,1,100,4|0,0:0|0:0,0:0:0:0:
312,268,60729,1,8,0:0:0:0:
121,335,60899,2,0,B|105:287|105:287|125:227,1,100
175,90,61240,1,0,0:0:0:0:
22,187,61411,1,8,0:0:0:0:
212,292,61581,2,0,L|268:289,1,50
348,237,61752,6,0,P|410:249|443:287,1,100
251,184,62093,1,8,0:0:0:0:
361,329,62263,2,0,L|367:381,1,50
261,289,62434,1,0,0:0:0:0:
338,126,62604,1,0,0:0:0:0:
435,273,62775,2,0,L|492:286,1,50,8|0,0:0|0:0,0:0:0:0:
429,170,62945,2,0,L|481:155,1,50
241,84,63116,85,0,0:0:0:0:
261,289,63286,1,0,0:0:0:0:
429,170,63457,1,8,0:0:0:0:
200,193,63627,2,0,B|152:203|152:203|100:176,1,100
22,260,63968,1,0,0:0:0:0:
192,94,64139,2,0,L|246:82,1,50,8|0,0:0|0:0,0:0:0:0:
346,207,64309,2,0,L|292:219,1,50
183,376,64480,6,0,B|170:325|170:325|188:265,1,100
429,170,64821,5,8,0:0:0:0:
339,332,64991,1,0,0:0:0:0:
240,83,65162,85,0,0:0:0:0:
471,88,65333,1,0,0:0:0:0:
183,376,65503,5,8,0:0:0:0:
126,172,65674,2,0,L|110:112,1,50
206,219,65844,22,0,P|287:206|315:163,1,100,4|0,0:0|0:0,0:0:0:0:
353,105,66100,1,0,0:0:0:0:
386,112,66185,2,0,B|431:93|431:93|488:113,1,100,8|0,0:0|0:0,0:0:0:0:
435,182,66441,1,0,0:0:0:0:
436,208,66526,2,0,L|436:257,1,50,8|0,0:3|0:0,0:0:0:0:
479,109,66697,1,0,0:3:0:0:
256,39,66867,1,8,0:0:0:0:
76,182,67038,2,0,L|76:232,1,50
213,351,67208,102,0,P|266:322|236:235,1,150,4|0,0:0|0:0,0:0:0:0:
175,184,67549,1,8,0:0:0:0:
44,318,67720,2,0,P|79:323|111:319,1,50
301,248,67890,2,0,P|266:243|234:247,1,50,8|0,0:3|0:0,0:0:0:0:
167,271,68061,1,0,0:0:0:0:
434,317,68231,2,0,P|457:270|443:202,1,100,8|0,0:0|0:0,0:0:0:0:
299,98,68487,1,0,0:0:0:0:
332,121,68572,102,0,P|398:121|447:65,1,125,4|0,0:0|0:0,0:0:0:0:
123,46,68913,1,8,0:0:0:0:
286,383,69084,1,8,0:3:0:0:
352,15,69254,1,8,0:0:0:0:
83,274,69425,1,8,0:0:0:0:
453,223,69595,2,8,L|520:214,1,62.5,8|0,0:0|0:0,0:0:0:0:
213,274,69766,6,0,B|164:274|135:256|135:256|83:274|83:274|122:204,1,200,4|0,0:0|0:0,0:0:0:0:
352,15,70277,2,0,L|404:4,1,50,8|0,0:0|0:0,0:0:0:0:
147,51,70448,2,0,L|114:43,4,25,8|0|0|0|0,0:0|0:0|0:0|0:0|0:0,0:0:0:0:
453,223,70789,1,8,0:3:0:0:
254,333,70959,1,8,0:0:0:0:
207,349,71044,1,0,0:0:0:0:
160,335,71130,1,0,0:0:0:0:
130,296,71215,1,0,0:0:0:0:
114,218,71300,86,0,L|125:117,1,100,4|0,0:0|0:0,0:0:0:0:
209,262,71641,1,8,0:0:0:0:
85,38,71812,2,0,B|135:26|135:26|196:58,1,100
21,193,72153,1,0,0:0:0:0:
234,138,72323,1,8,0:0:0:0:
101,293,72494,2,0,L|93:352,1,50
209,262,72664,6,0,P|259:258|310:301,1,100
128,165,73005,1,8,0:0:0:0:
233,384,73176,2,0,L|239:334,1,50
354,185,73346,2,0,L|360:234,1,50
357,360,73517,1,0,0:0:0:0:
427,143,73687,1,8,0:0:0:0:
392,107,73772,1,0,0:0:0:0:
344,98,73858,1,0,0:0:0:0:
298,117,73943,1,0,0:0:0:0:
227,166,74028,6,0,B|181:185|181:185|116:171,1,100
43,29,74369,1,8,0:0:0:0:
1,256,74540,1,0,0:0:0:0:
181,94,74710,2,0,L|234:73,2,50
271,239,75051,2,0,P|265:274|264:305,1,50,8|0,0:0|0:0,0:0:0:0:
158,350,75222,2,0,P|164:315|165:284,1,50
351,344,75392,86,0,P|418:340|460:289,1,100
227,166,75733,1,8,0:0:0:0:
474,162,75904,1,0,0:0:0:0:
474,162,75989,1,0,0:0:0:0:
474,162,76074,2,0,P|399:140|354:149,1,100
312,235,76330,1,0,0:0:0:0:
312,235,76415,2,0,P|345:252|385:255,1,50,8|0,0:0|0:0,0:0:0:0:
355,29,76586,2,0,P|331:35|309:48,1,50
164,300,76756,54,0,B|147:328|119:331|119:331|102:311|107:278,1,112.500004291535,2|0,0:0|0:0,0:0:0:0:
348,300,77097,54,0,B|380:357|437:362|437:362|471:322|460:256,1,225.000008583069,4|0,0:0|0:0,0:0:0:0:
367,92,77438,70,0,P|377:52|352:83,1,112.500004291535,2|0,0:0|0:0,0:0:0:0:
160,84,77779,38,0,P|98:36|142:110,1,225.000008583069,4|0,0:0|0:0,0:0:0:0:
337,192,78120,86,0,B|422:181|422:181|387:173,1,112.500004291535,2|0,0:0|0:0,0:0:0:0:
175,192,78461,38,0,B|13:212|13:212|79:228,1,225.000008583069,4|0,0:0|0:0,0:0:0:0:
151,319,78802,6,0,B|199:355|256:319|256:319|320:362|377:304,1,225.000008583069,4|0,0:0|0:0,0:0:0:0:
361,65,79143,2,0,B|313:29|256:65|256:65|192:22|135:80,1,225.000008583069,4|0,0:0|0:0,0:0:0:0:
357,192,79484,70,0,L|458:192,1,100,4|0,0:0|0:0,0:0:0:0:
155,192,79825,2,0,L|54:192,1,100,8|0,0:0|0:0,0:0:0:0:
151,319,80081,1,0,0:0:0:0:
151,319,80166,2,0,L|199:303,1,50,8|0,0:3|0:0,0:0:0:0:
199,81,80337,2,0,L|151:64,1,50,8|0,0:3|0:0,0:0:0:0:
313,81,80507,2,0,L|360:64,1,50,8|0,0:0|0:0,0:0:0:0:
313,303,80678,2,0,L|360:319,1,50,4|0,0:0|0:0,0:0:0:0:
65,93,82212,101,8,0:3:0:0:
338,156,82383,2,0,L|399:150,1,50,8|0,0:3|0:0,0:0:0:0:
470,142,82553,1,8,0:3:0:0:
270,237,82724,2,0,L|209:231,1,50,8|0,0:3|0:0,0:0:0:0:
235,59,82894,2,0,L|284:63,1,50,8|0,0:3|0:0,0:0:0:0:
338,156,83065,69,2,0:0:0:0:
147,361,83235,1,2,0:0:0:0:
65,93,83406,1,2,0:0:0:0:
368,259,83576,70,0,P|387:336|341:369,1,125,4|0,0:0|0:0,0:0:0:0:
147,361,83832,1,0,0:0:0:0:
160,320,83917,38,0,L|179:255,1,62.5,8|0,0:0|0:0,0:0:0:0:
47,167,84088,6,0,L|114:164,1,62.5,8|0,0:0|0:0,0:0:0:0:
158,11,84258,6,0,L|180:74,1,62.5,8|0,0:0|0:0,0:0:0:0:
340,69,84429,6,0,L|286:110,1,62.5,8|0,0:0|0:0,0:0:0:0:
343,254,84599,6,0,L|280:211,8,50,12|0|0|0|12|0|0|0|4,0:0|0:0|0:0|0:0|0:0|0:0|0:0|0:0|1:0,0:0:0:0:
256,192,85025,12,0,85963,0:0:0:0:
68,113,86304,6,0,L|170:104,1,100,8|8,0:3|0:3,0:0:0:0:
444,271,86645,2,0,L|342:280,1,100,8|0,0:0|0:0,0:0:0:0:
240,289,86901,1,0,0:0:0:0:
240,289,86986,2,0,L|230:351,1,50,8|0,0:3|0:0,0:0:0:0:
272,95,87157,2,0,L|282:33,1,50,8|0,0:3|0:0,0:0:0:0:
286,187,87327,6,0,L|227:192,1,50,8|0,0:0|0:0,0:0:0:0:
236,191,87659,5,12,0:0:0:0:
