osu file format v14

[General]
AudioFilename: audio.mp3
AudioLeadIn: 0
PreviewTime: 42017
Countdown: 0
SampleSet: Normal
StackLeniency: 0.7
Mode: 1
LetterboxInBreaks: 0
WidescreenStoryboard: 1

[Editor]
Bookmarks: 18017,26017,96017,98000
DistanceSpacing: 1.2
BeatDivisor: 4
GridSize: 32
TimelineZoom: 4.499998

[Metadata]
Title:Love Hurts
TitleUnicode:Love Hurts
Artist:Ryuno
ArtistUnicode:Ryuno
Creator:Lazarento
Version:taco
Source:Stepmania
Tags:Dramacore Label Sampler #49 lonely dance mix
BeatmapID:2332947
BeatmapSetID:1014659

[Difficulty]
HPDrainRate:6
CircleSize:4
OverallDifficulty:7.5
ApproachRate:5
SliderMultiplier:1.4
SliderTickRate:1

[Events]
//Background and Video events
0,0,"LoveFist-Artwork.jpg",0,0
//Break Periods
2,2342,8004
2,82092,112317
//Storyboard Layer 0 (Background)
//Storyboard Layer 1 (Fail)
//Storyboard Layer 2 (Pass)
//Storyboard Layer 3 (Foreground)
//Storyboard Layer 4 (Overlay)
//Storyboard Sound Samples

[TimingPoints]
17,250,4,1,0,100,1,0
25517,-100,4,1,0,100,0,0
25642,-90.9090909090909,4,1,0,100,0,0
25767,-82.6446280991736,4,1,0,100,0,0
25892,-75.7575757575758,4,1,0,100,0,0
26017,-100,4,1,0,100,0,0
33517,-86.9565217391304,4,1,0,100,0,0
33767,-66.6666666666667,4,1,0,100,0,0
33892,-80,4,1,0,100,0,0
34017,-100,4,1,0,100,0,0
34267,-107.52688172043,4,1,0,100,0,0
34392,-121.951219512195,4,1,0,100,0,0
34517,-133.333333333333,4,1,0,100,0,0
35767,-121.951219512195,4,1,0,100,0,0
35892,-107.52688172043,4,1,0,100,0,0
36017,-100,4,1,0,100,0,0
36267,-107.52688172043,4,1,0,100,0,0
36392,-121.951219512195,4,1,0,100,0,0
36517,-133.333333333333,4,1,0,100,0,0
37767,-121.951219512195,4,1,0,100,0,0
37892,-107.52688172043,4,1,0,100,0,0
38017,-100,4,1,0,100,0,0
38267,-107.52688172043,4,1,0,100,0,0
38392,-121.951219512195,4,1,0,100,0,0
38517,-133.333333333333,4,1,0,100,0,0
40017,-129.87012987013,4,1,0,100,0,0
40142,-128.205128205128,4,1,0,100,0,0
40267,-126.582278481013,4,1,0,100,0,0
40392,-125,4,1,0,100,0,0
40517,-121.951219512195,4,1,0,100,0,0
40642,-120.481927710843,4,1,0,100,0,0
40767,-119.047619047619,4,1,0,100,0,0
40892,-117.647058823529,4,1,0,100,0,0
41017,-114.942528735632,4,1,0,100,0,0
41142,-113.636363636364,4,1,0,100,0,0
41267,-112.359550561798,4,1,0,100,0,0
41392,-111.111111111111,4,1,0,100,0,0
41517,-108.695652173913,4,1,0,100,0,0
41579,-107.52688172043,4,1,0,100,0,0
41642,-106.382978723404,4,1,0,100,0,0
41704,-105.263157894737,4,1,0,100,0,0
41767,-104.166666666667,4,1,0,100,0,0
41829,-103.092783505155,4,1,0,100,0,0
41892,-102.040816326531,4,1,0,100,0,0
41954,-101.010101010101,4,1,0,100,0,0
42017,-100,4,1,0,100,0,0
57767,-108.695652173913,4,1,0,100,0,0
57892,-120.481927710843,4,1,0,100,0,0
58017,-133.333333333333,4,1,0,100,0,0
58267,-136.986301369863,4,1,0,100,0,0
58392,-140.845070422535,4,1,0,100,0,0
58517,-144.927536231884,4,1,0,100,0,0
58767,-151.515151515152,4,1,0,100,0,0
58892,-156.25,4,1,0,100,0,0
59017,-161.290322580645,4,1,0,100,0,0
59267,-169.491525423729,4,1,0,100,0,0
59517,-178.571428571429,4,1,0,100,0,0
59767,-188.679245283019,4,1,0,100,0,0
60017,-200,4,1,0,100,0,0
60267,-212.765957446809,4,1,0,100,0,0
60767,-227.272727272727,4,1,0,100,0,0
60892,-238.095238095238,4,1,0,100,0,0
61017,-250,4,1,0,100,0,0
61142,-263.157894736842,4,1,0,100,0,0
61392,-285.714285714286,4,1,0,100,0,0
61517,-303.030303030303,4,1,0,100,0,0
61642,-322.58064516129,4,1,0,100,0,0
61767,-344.827586206897,4,1,0,100,0,0
62017,-312.5,4,1,0,100,0,0
62267,-285.714285714286,4,1,0,100,0,0
62392,-270.27027027027,4,1,0,100,0,0
62517,-256.410256410256,4,1,0,100,0,0
62767,-238.095238095238,4,1,0,100,0,0
62892,-227.272727272727,4,1,0,100,0,0
63017,-217.391304347826,4,1,0,100,0,0
63267,-204.081632653061,4,1,0,100,0,0
63517,-192.307692307692,4,1,0,100,0,0
63767,-181.818181818182,4,1,0,100,0,0
64017,-181.818181818182,4,1,0,100,0,0
64079,-175.438596491228,4,1,0,100,0,0
64142,-169.491525423729,4,1,0,100,0,0
64267,-161.290322580645,4,1,0,100,0,0
64392,-153.846153846154,4,1,0,100,0,0
64517,-147.058823529412,4,1,0,100,0,0
64642,-140.845070422535,4,1,0,100,0,0
64767,-135.135135135135,4,1,0,100,0,0
64892,-129.87012987013,4,1,0,100,0,0
65017,-125,4,1,0,100,0,0
65079,-121.951219512195,4,1,0,100,0,0
65142,-119.047619047619,4,1,0,100,0,0
65204,-116.279069767442,4,1,0,100,0,0
65267,-113.636363636364,4,1,0,100,0,0
65329,-111.111111111111,4,1,0,100,0,0
65392,-108.695652173913,4,1,0,100,0,0
65454,-106.382978723404,4,1,0,100,0,0
65517,-104.166666666667,4,1,0,100,0,0
65579,-102.040816326531,4,1,0,100,0,0
65642,-100,4,1,0,100,0,0
65704,-98.0392156862745,4,1,0,100,0,0
65767,-96.1538461538461,4,1,0,100,0,0
65829,-94.3396226415094,4,1,0,100,0,0
65892,-92.5925925925926,4,1,0,100,0,0
66017,-90.9090909090909,4,1,0,100,0,0
73517,-80,4,1,0,100,0,0
73642,-74.0740740740741,4,1,0,100,0,0
73767,-66.6666666666667,4,1,0,100,0,0
73892,-58.8235294117647,4,1,0,100,0,0
74017,-90.9090909090909,4,1,0,100,0,0
81517,-66.6666666666667,4,1,0,100,0,0
81767,-80,4,1,0,100,0,0
81892,-100,4,1,0,100,0,0
82017,-153.846153846154,4,1,0,100,0,0
84017,-181.818181818182,4,1,0,100,0,0
85017,-200,4,1,0,100,0,0
86017,-222.222222222222,4,1,0,100,0,0
87017,-250,4,1,0,100,0,0
88017,-270.27027027027,4,1,0,100,0,0
89017,-294.117647058824,4,1,0,100,0,0
90017,-322.58064516129,4,1,0,100,0,0
91017,-357.142857142857,4,1,0,100,0,0
92017,-400,4,1,0,100,0,0
93267,-434.782608695652,4,1,0,100,0,0
94017,-476.190476190476,4,1,0,100,0,0
95017,-526.315789473684,4,1,0,100,0,0
96017,-588.235294117647,4,1,0,100,0,0
97017,-666.666666666667,4,1,0,100,0,0
98017,-666.666666666667,4,1,0,100,0,1
113517,-98.0392156862745,4,1,0,100,0,0
113579,-97.0873786407767,4,1,0,100,0,0
113642,-96.1538461538461,4,1,0,100,0,0
113704,-95.2380952380952,4,1,0,100,0,0
113767,-94.3396226415094,4,1,0,100,0,0
113829,-93.4579439252336,4,1,0,100,0,0
113892,-92.5925925925926,4,1,0,100,0,0
113954,-91.743119266055,4,1,0,100,0,0
114017,-90.9090909090909,4,1,0,100,0,0
121517,-71.4285714285714,4,1,0,100,0,0
121642,-52.6315789473684,4,1,0,100,0,0
121767,-40,4,1,0,100,0,0
121892,-31.25,4,1,0,100,0,0
122017,-90.9090909090909,4,1,0,100,0,0

[HitObjects]
256,192,2017,5,0,0:0:0:0:
256,192,2142,1,0,0:0:0:0:
256,192,9204,5,0,0:0:0:0:
256,192,9267,1,8,0:0:0:0:
256,192,9329,1,0,0:0:0:0:
256,192,9392,1,8,0:0:0:0:
256,192,9433,1,8,0:0:0:0:
256,192,9475,1,8,0:0:0:0:
256,192,9517,1,0,0:0:0:0:
256,192,9642,1,8,0:0:0:0:
256,192,9683,1,8,0:0:0:0:
256,192,9725,1,8,0:0:0:0:
256,192,9767,1,8,0:0:0:0:
256,192,9892,1,0,0:0:0:0:
256,192,9954,1,0,0:0:0:0:
256,192,10017,1,0,0:0:0:0:
256,192,10142,1,0,0:0:0:0:
256,192,10267,1,0,0:0:0:0:
256,192,12017,1,0,0:0:0:0:
256,192,12142,1,0,0:0:0:0:
256,192,12267,1,0,0:0:0:0:
256,192,13767,1,0,0:0:0:0:
256,192,14017,1,0,0:0:0:0:
256,192,14142,1,0,0:0:0:0:
256,192,14267,1,0,0:0:0:0:
256,192,16017,1,0,0:0:0:0:
256,192,16142,1,0,0:0:0:0:
256,192,16267,1,0,0:0:0:0:
256,192,17017,1,8,0:0:0:0:
256,192,17267,1,8,0:0:0:0:
256,192,17517,1,8,0:0:0:0:
256,192,17767,1,8,0:0:0:0:
256,192,18017,1,0,0:0:0:0:
256,192,18079,1,0,0:0:0:0:
256,192,18142,1,8,0:0:0:0:
256,192,18204,1,0,0:0:0:0:
256,192,18267,1,0,0:0:0:0:
256,192,18329,1,0,0:0:0:0:
256,192,18392,1,8,0:0:0:0:
256,192,18454,1,0,0:0:0:0:
256,192,18517,1,8,0:0:0:0:
256,192,18579,1,8,0:0:0:0:
256,192,18642,1,0,0:0:0:0:
256,192,18704,1,8,0:0:0:0:
256,192,18767,1,0,0:0:0:0:
256,192,18829,1,0,0:0:0:0:
256,192,18892,1,8,0:0:0:0:
256,192,18954,1,0,0:0:0:0:
256,192,19017,1,8,0:0:0:0:
256,192,19079,1,8,0:0:0:0:
256,192,19142,1,0,0:0:0:0:
256,192,19204,1,0,0:0:0:0:
256,192,19267,1,8,0:0:0:0:
256,192,19329,1,0,0:0:0:0:
256,192,19392,1,0,0:0:0:0:
256,192,19454,1,0,0:0:0:0:
256,192,19517,1,8,0:0:0:0:
256,192,19579,1,8,0:0:0:0:
256,192,19642,1,0,0:0:0:0:
256,192,19704,1,8,0:0:0:0:
256,192,19767,1,8,0:0:0:0:
256,192,19892,1,0,0:0:0:0:
256,192,20017,1,0,0:0:0:0:
256,192,20079,1,0,0:0:0:0:
256,192,20142,1,8,0:0:0:0:
256,192,20204,1,0,0:0:0:0:
256,192,20267,1,0,0:0:0:0:
256,192,20329,1,0,0:0:0:0:
256,192,20392,1,8,0:0:0:0:
256,192,20454,1,8,0:0:0:0:
256,192,20517,1,8,0:0:0:0:
256,192,20579,1,8,0:0:0:0:
256,192,20642,1,0,0:0:0:0:
256,192,20704,1,0,0:0:0:0:
256,192,20767,1,8,0:0:0:0:
256,192,20829,1,0,0:0:0:0:
256,192,20892,1,0,0:0:0:0:
256,192,20954,1,0,0:0:0:0:
256,192,21017,1,8,0:0:0:0:
256,192,21079,1,8,0:0:0:0:
256,192,21142,1,0,0:0:0:0:
256,192,21204,1,0,0:0:0:0:
256,192,21267,1,8,0:0:0:0:
256,192,21329,1,8,0:0:0:0:
256,192,21392,1,8,0:0:0:0:
256,192,21454,1,0,0:0:0:0:
256,192,21517,1,8,0:0:0:0:
256,192,21579,1,8,0:0:0:0:
256,192,21642,1,0,0:0:0:0:
256,192,21704,1,8,0:0:0:0:
256,192,21767,1,8,0:0:0:0:
256,192,21829,1,0,0:0:0:0:
256,192,21892,1,8,0:0:0:0:
256,192,22017,1,0,0:0:0:0:
256,192,22142,1,0,0:0:0:0:
256,192,22267,1,0,0:0:0:0:
256,192,22329,1,8,0:0:0:0:
256,192,22392,1,8,0:0:0:0:
256,192,22454,1,8,0:0:0:0:
256,192,22517,1,0,0:0:0:0:
256,192,22579,1,0,0:0:0:0:
256,192,22642,1,8,0:0:0:0:
256,192,22704,1,8,0:0:0:0:
256,192,22767,1,0,0:0:0:0:
256,192,22829,1,0,0:0:0:0:
256,192,22892,1,8,0:0:0:0:
256,192,22954,1,8,0:0:0:0:
256,192,23017,1,0,0:0:0:0:
256,192,23079,1,0,0:0:0:0:
256,192,23142,1,0,0:0:0:0:
256,192,23204,1,8,0:0:0:0:
256,192,23267,1,8,0:0:0:0:
256,192,23329,1,8,0:0:0:0:
256,192,23392,1,8,0:0:0:0:
256,192,23454,1,0,0:0:0:0:
256,192,23517,1,0,0:0:0:0:
256,192,23579,1,8,0:0:0:0:
256,192,23642,1,0,0:0:0:0:
256,192,23704,1,8,0:0:0:0:
256,192,23767,1,8,0:0:0:0:
256,192,23829,1,8,0:0:0:0:
256,192,23892,1,0,0:0:0:0:
256,192,23954,1,8,0:0:0:0:
256,192,24017,1,0,0:0:0:0:
256,192,24142,1,0,0:0:0:0:
256,192,24267,1,8,0:0:0:0:
256,192,24329,1,0,0:0:0:0:
256,192,24392,1,0,0:0:0:0:
256,192,24454,1,0,0:0:0:0:
256,192,24517,1,8,0:0:0:0:
256,192,24579,1,8,0:0:0:0:
256,192,24642,1,0,0:0:0:0:
256,192,24704,1,0,0:0:0:0:
256,192,24767,1,8,0:0:0:0:
256,192,24829,1,0,0:0:0:0:
256,192,24892,1,0,0:0:0:0:
256,192,24954,1,8,0:0:0:0:
256,192,25017,1,0,0:0:0:0:
256,192,25079,1,0,0:0:0:0:
256,192,25142,1,0,0:0:0:0:
256,192,25204,1,8,0:0:0:0:
256,192,25267,1,8,0:0:0:0:
256,192,25329,1,8,0:0:0:0:
256,192,25392,1,0,0:0:0:0:
256,192,25517,1,4,0:0:0:0:
256,192,25642,1,12,0:0:0:0:
256,192,25767,1,12,0:0:0:0:
256,192,25892,1,12,0:0:0:0:
256,192,26017,1,8,0:0:0:0:
256,192,26079,1,0,0:0:0:0:
256,192,26142,1,8,0:0:0:0:
256,192,26204,1,8,0:0:0:0:
256,192,26267,1,0,0:0:0:0:
256,192,26329,1,8,0:0:0:0:
256,192,26392,1,0,0:0:0:0:
256,192,26454,1,0,0:0:0:0:
256,192,26517,1,8,0:0:0:0:
256,192,26579,1,8,0:0:0:0:
256,192,26642,1,8,0:0:0:0:
256,192,26704,1,0,0:0:0:0:
256,192,26767,1,8,0:0:0:0:
256,192,26829,1,0,0:0:0:0:
256,192,26892,1,0,0:0:0:0:
256,192,26954,1,0,0:0:0:0:
256,192,27017,1,8,0:0:0:0:
256,192,27079,1,0,0:0:0:0:
256,192,27142,1,0,0:0:0:0:
256,192,27204,1,8,0:0:0:0:
256,192,27267,1,0,0:0:0:0:
256,192,27329,1,0,0:0:0:0:
256,192,27392,1,8,0:0:0:0:
256,192,27454,1,0,0:0:0:0:
256,192,27517,1,8,0:0:0:0:
256,192,27579,1,8,0:0:0:0:
256,192,27642,1,8,0:0:0:0:
256,192,27704,1,8,0:0:0:0:
256,192,27767,1,0,0:0:0:0:
256,192,27892,1,8,0:0:0:0:
256,192,28017,1,0,0:0:0:0:
256,192,28079,1,8,0:0:0:0:
256,192,28142,1,8,0:0:0:0:
256,192,28204,1,0,0:0:0:0:
256,192,28267,1,8,0:0:0:0:
256,192,28329,1,0,0:0:0:0:
256,192,28392,1,8,0:0:0:0:
256,192,28454,1,8,0:0:0:0:
256,192,28517,1,0,0:0:0:0:
256,192,28579,1,8,0:0:0:0:
256,192,28642,1,0,0:0:0:0:
256,192,28704,1,0,0:0:0:0:
256,192,28767,1,8,0:0:0:0:
256,192,28829,1,0,0:0:0:0:
256,192,28892,1,8,0:0:0:0:
256,192,28954,1,8,0:0:0:0:
256,192,29017,1,8,0:0:0:0:
256,192,29079,1,0,0:0:0:0:
256,192,29142,1,0,0:0:0:0:
256,192,29204,1,0,0:0:0:0:
256,192,29267,1,8,0:0:0:0:
256,192,29329,1,0,0:0:0:0:
256,192,29392,1,0,0:0:0:0:
256,192,29454,1,8,0:0:0:0:
256,192,29517,1,0,0:0:0:0:
256,192,29579,1,8,0:0:0:0:
256,192,29642,1,8,0:0:0:0:
256,192,29704,1,0,0:0:0:0:
256,192,29767,1,8,0:0:0:0:
256,192,29829,1,8,0:0:0:0:
256,192,29892,1,0,0:0:0:0:
256,192,30017,1,0,0:0:0:0:
256,192,30142,1,0,0:0:0:0:
256,192,30267,1,8,0:0:0:0:
256,192,30329,1,8,0:0:0:0:
256,192,30392,1,0,0:0:0:0:
256,192,30454,1,8,0:0:0:0:
256,192,30517,1,8,0:0:0:0:
256,192,30579,1,8,0:0:0:0:
256,192,30642,1,0,0:0:0:0:
256,192,30704,1,8,0:0:0:0:
256,192,30767,1,0,0:0:0:0:
256,192,30829,1,8,0:0:0:0:
256,192,30892,1,0,0:0:0:0:
256,192,30954,1,0,0:0:0:0:
256,192,31017,1,8,0:0:0:0:
256,192,31079,1,0,0:0:0:0:
256,192,31142,1,0,0:0:0:0:
256,192,31204,1,8,0:0:0:0:
256,192,31267,1,8,0:0:0:0:
256,192,31329,1,0,0:0:0:0:
256,192,31392,1,0,0:0:0:0:
256,192,31454,1,0,0:0:0:0:
256,192,31517,1,8,0:0:0:0:
256,192,31579,1,0,0:0:0:0:
256,192,31642,1,0,0:0:0:0:
256,192,31704,1,8,0:0:0:0:
256,192,31767,1,0,0:0:0:0:
256,192,31829,1,8,0:0:0:0:
256,192,31892,1,8,0:0:0:0:
256,192,31954,1,8,0:0:0:0:
256,192,32017,1,0,0:0:0:0:
256,192,32142,1,0,0:0:0:0:
256,192,32267,1,8,0:0:0:0:
256,192,32329,1,0,0:0:0:0:
256,192,32392,1,0,0:0:0:0:
256,192,32454,1,8,0:0:0:0:
256,192,32517,1,8,0:0:0:0:
256,192,32579,1,0,0:0:0:0:
256,192,32642,1,8,0:0:0:0:
256,192,32704,1,0,0:0:0:0:
256,192,32767,1,8,0:0:0:0:
256,192,32829,1,8,0:0:0:0:
256,192,32892,1,0,0:0:0:0:
256,192,32954,1,8,0:0:0:0:
256,192,33017,1,0,0:0:0:0:
256,192,33079,1,0,0:0:0:0:
256,192,33142,1,8,0:0:0:0:
256,192,33204,1,8,0:0:0:0:
256,192,33267,1,0,0:0:0:0:
256,192,33329,1,0,0:0:0:0:
256,192,33392,1,8,0:0:0:0:
256,192,33517,1,4,0:0:0:0:
256,192,33767,1,12,0:0:0:0:
256,192,33892,1,12,0:0:0:0:
256,192,34017,1,0,0:0:0:0:
256,192,34267,1,0,0:0:0:0:
256,192,34392,1,0,0:0:0:0:
256,192,34517,1,0,0:0:0:0:
256,192,34767,1,0,0:0:0:0:
256,192,34892,1,0,0:0:0:0:
256,192,35142,1,0,0:0:0:0:
256,192,35267,1,0,0:0:0:0:
256,192,35392,1,0,0:0:0:0:
256,192,35517,1,0,0:0:0:0:
256,192,35767,1,0,0:0:0:0:
256,192,35892,1,0,0:0:0:0:
256,192,36017,1,4,0:0:0:0:
256,192,36267,1,0,0:0:0:0:
256,192,36392,1,0,0:0:0:0:
256,192,36517,1,0,0:0:0:0:
256,192,36767,1,0,0:0:0:0:
256,192,36892,1,0,0:0:0:0:
256,192,37142,1,0,0:0:0:0:
256,192,37267,1,0,0:0:0:0:
256,192,37392,1,0,0:0:0:0:
256,192,37517,1,0,0:0:0:0:
256,192,37767,1,0,0:0:0:0:
256,192,37892,1,0,0:0:0:0:
256,192,38017,1,4,0:0:0:0:
256,192,38267,1,0,0:0:0:0:
256,192,38392,1,0,0:0:0:0:
256,192,38517,1,0,0:0:0:0:
256,192,38767,1,0,0:0:0:0:
256,192,38892,1,0,0:0:0:0:
256,192,39142,1,0,0:0:0:0:
256,192,39267,1,0,0:0:0:0:
256,192,39392,1,0,0:0:0:0:
256,192,39517,1,0,0:0:0:0:
256,192,39767,1,0,0:0:0:0:
256,192,39892,1,0,0:0:0:0:
256,192,40017,1,8,0:0:0:0:
256,192,40142,1,0,0:0:0:0:
256,192,40267,1,0,0:0:0:0:
256,192,40392,1,0,0:0:0:0:
256,192,40517,1,8,0:0:0:0:
256,192,40642,1,8,0:0:0:0:
256,192,40767,1,8,0:0:0:0:
256,192,40892,1,8,0:0:0:0:
256,192,41017,1,0,0:0:0:0:
256,192,41142,1,8,0:0:0:0:
256,192,41267,1,8,0:0:0:0:
256,192,41392,1,8,0:0:0:0:
256,192,41517,1,0,0:0:0:0:
256,192,41579,1,8,0:0:0:0:
256,192,41642,1,0,0:0:0:0:
256,192,41704,1,0,0:0:0:0:
256,192,41767,1,8,0:0:0:0:
256,192,41829,1,8,0:0:0:0:
256,192,41892,1,0,0:0:0:0:
256,192,41954,1,8,0:0:0:0:
256,192,42017,1,0,0:0:0:0:
256,192,42142,1,0,0:0:0:0:
256,192,42267,1,8,0:0:0:0:
256,192,42329,1,0,0:0:0:0:
256,192,42392,1,0,0:0:0:0:
256,192,42517,1,8,0:0:0:0:
256,192,42579,1,0,0:0:0:0:
256,192,42642,1,0,0:0:0:0:
256,192,42767,1,0,0:0:0:0:
256,192,42892,1,8,0:0:0:0:
256,192,43017,1,0,0:0:0:0:
256,192,43142,1,8,0:0:0:0:
256,192,43267,1,8,0:0:0:0:
256,192,43329,1,8,0:0:0:0:
256,192,43392,1,0,0:0:0:0:
256,192,43517,1,8,0:0:0:0:
256,192,43579,1,8,0:0:0:0:
256,192,43642,1,0,0:0:0:0:
256,192,43767,1,0,0:0:0:0:
256,192,43892,1,8,0:0:0:0:
256,192,44017,1,0,0:0:0:0:
256,192,44142,1,8,0:0:0:0:
256,192,44267,1,8,0:0:0:0:
256,192,44329,1,0,0:0:0:0:
256,192,44392,1,8,0:0:0:0:
256,192,44517,1,0,0:0:0:0:
256,192,44579,1,8,0:0:0:0:
256,192,44642,1,0,0:0:0:0:
256,192,44767,1,8,0:0:0:0:
256,192,44892,1,8,0:0:0:0:
256,192,45017,1,0,0:0:0:0:
256,192,45142,1,8,0:0:0:0:
256,192,45267,1,8,0:0:0:0:
256,192,45329,1,0,0:0:0:0:
256,192,45392,1,0,0:0:0:0:
256,192,45517,1,8,0:0:0:0:
256,192,45579,1,8,0:0:0:0:
256,192,45642,1,0,0:0:0:0:
256,192,45767,1,0,0:0:0:0:
256,192,45892,1,8,0:0:0:0:
256,192,46017,1,0,0:0:0:0:
256,192,46142,1,8,0:0:0:0:
256,192,46267,1,0,0:0:0:0:
256,192,46329,1,8,0:0:0:0:
256,192,46392,1,0,0:0:0:0:
256,192,46517,1,0,0:0:0:0:
256,192,46579,1,8,0:0:0:0:
256,192,46642,1,0,0:0:0:0:
256,192,46767,1,8,0:0:0:0:
256,192,46892,1,8,0:0:0:0:
256,192,47017,1,0,0:0:0:0:
256,192,47142,1,8,0:0:0:0:
256,192,47267,1,8,0:0:0:0:
256,192,47329,1,0,0:0:0:0:
256,192,47392,1,0,0:0:0:0:
256,192,47517,1,8,0:0:0:0:
256,192,47579,1,8,0:0:0:0:
256,192,47642,1,0,0:0:0:0:
256,192,47767,1,0,0:0:0:0:
256,192,47892,1,8,0:0:0:0:
256,192,48017,1,0,0:0:0:0:
256,192,48142,1,8,0:0:0:0:
256,192,48267,1,0,0:0:0:0:
256,192,48329,1,8,0:0:0:0:
256,192,48392,1,8,0:0:0:0:
256,192,48517,1,0,0:0:0:0:
256,192,48579,1,8,0:0:0:0:
256,192,48642,1,8,0:0:0:0:
256,192,48767,1,8,0:0:0:0:
256,192,48892,1,0,0:0:0:0:
256,192,49017,1,0,0:0:0:0:
256,192,49142,1,8,0:0:0:0:
256,192,49267,1,0,0:0:0:0:
256,192,49329,1,0,0:0:0:0:
256,192,49392,1,0,0:0:0:0:
256,192,49517,1,0,0:0:0:0:
256,192,49579,1,0,0:0:0:0:
256,192,49642,1,0,0:0:0:0:
256,192,49767,1,0,0:0:0:0:
256,192,49892,1,0,0:0:0:0:
256,192,50017,1,0,0:0:0:0:
256,192,50142,1,8,0:0:0:0:
256,192,50267,1,8,0:0:0:0:
256,192,50329,1,0,0:0:0:0:
256,192,50392,1,0,0:0:0:0:
256,192,50517,1,0,0:0:0:0:
256,192,50579,1,8,0:0:0:0:
256,192,50642,1,8,0:0:0:0:
256,192,50767,1,8,0:0:0:0:
256,192,50892,1,0,0:0:0:0:
256,192,51017,1,0,0:0:0:0:
256,192,51142,1,8,0:0:0:0:
256,192,51267,1,0,0:0:0:0:
256,192,51329,1,0,0:0:0:0:
256,192,51392,1,8,0:0:0:0:
256,192,51517,1,8,0:0:0:0:
256,192,51579,1,8,0:0:0:0:
256,192,51642,1,0,0:0:0:0:
256,192,51767,1,0,0:0:0:0:
256,192,51892,1,8,0:0:0:0:
256,192,52017,1,0,0:0:0:0:
256,192,52142,1,8,0:0:0:0:
256,192,52267,1,8,0:0:0:0:
256,192,52329,1,8,0:0:0:0:
256,192,52392,1,8,0:0:0:0:
256,192,52517,1,0,0:0:0:0:
256,192,52579,1,0,0:0:0:0:
256,192,52642,1,0,0:0:0:0:
256,192,52767,1,8,0:0:0:0:
256,192,52892,1,0,0:0:0:0:
256,192,53017,1,0,0:0:0:0:
256,192,53142,1,8,0:0:0:0:
256,192,53267,1,0,0:0:0:0:
256,192,53329,1,8,0:0:0:0:
256,192,53392,1,0,0:0:0:0:
256,192,53517,1,8,0:0:0:0:
256,192,53579,1,0,0:0:0:0:
256,192,53642,1,8,0:0:0:0:
256,192,53767,1,0,0:0:0:0:
256,192,53892,1,0,0:0:0:0:
256,192,54017,1,8,0:0:0:0:
256,192,54079,1,8,0:0:0:0:
256,192,54142,1,0,0:0:0:0:
256,192,54267,1,0,0:0:0:0:
256,192,54329,1,8,0:0:0:0:
256,192,54392,1,8,0:0:0:0:
256,192,54517,1,8,0:0:0:0:
256,192,54642,1,0,0:0:0:0:
256,192,54767,1,0,0:0:0:0:
256,192,54892,1,8,0:0:0:0:
256,192,55017,1,0,0:0:0:0:
256,192,55142,1,8,0:0:0:0:
256,192,55267,1,8,0:0:0:0:
256,192,55329,1,0,0:0:0:0:
256,192,55392,1,0,0:0:0:0:
256,192,55517,1,0,0:0:0:0:
256,192,55579,1,0,0:0:0:0:
256,192,55642,1,8,0:0:0:0:
256,192,55767,1,8,0:0:0:0:
256,192,55892,1,8,0:0:0:0:
256,192,56017,1,0,0:0:0:0:
256,192,56142,1,8,0:0:0:0:
256,192,56267,1,0,0:0:0:0:
256,192,56329,1,0,0:0:0:0:
256,192,56392,1,0,0:0:0:0:
256,192,56517,1,0,0:0:0:0:
256,192,56579,1,0,0:0:0:0:
256,192,56642,1,0,0:0:0:0:
256,192,56767,1,8,0:0:0:0:
256,192,56892,1,8,0:0:0:0:
256,192,57017,1,0,0:0:0:0:
256,192,57142,1,0,0:0:0:0:
256,192,57267,1,8,0:0:0:0:
256,192,57329,1,8,0:0:0:0:
256,192,57392,1,8,0:0:0:0:
256,192,57517,1,8,0:0:0:0:
256,192,57579,1,8,0:0:0:0:
256,192,57642,1,8,0:0:0:0:
256,192,57767,1,8,0:0:0:0:
256,192,57892,1,8,0:0:0:0:
256,192,58017,1,0,0:0:0:0:
256,192,58267,1,0,0:0:0:0:
256,192,58392,1,0,0:0:0:0:
256,192,58517,1,0,0:0:0:0:
256,192,58767,1,0,0:0:0:0:
256,192,58892,1,0,0:0:0:0:
256,192,59017,1,0,0:0:0:0:
256,192,59267,1,0,0:0:0:0:
256,192,59517,1,0,0:0:0:0:
256,192,59767,1,0,0:0:0:0:
256,192,60017,1,0,0:0:0:0:
256,192,60267,1,0,0:0:0:0:
256,192,60767,1,0,0:0:0:0:
256,192,60892,1,0,0:0:0:0:
256,192,61017,1,0,0:0:0:0:
256,192,61142,1,0,0:0:0:0:
256,192,61392,1,0,0:0:0:0:
256,192,61517,1,0,0:0:0:0:
256,192,61642,1,0,0:0:0:0:
256,192,61767,1,0,0:0:0:0:
256,192,62017,1,0,0:0:0:0:
256,192,62267,1,0,0:0:0:0:
256,192,62392,1,0,0:0:0:0:
256,192,62517,1,0,0:0:0:0:
256,192,62767,1,0,0:0:0:0:
256,192,62892,1,0,0:0:0:0:
256,192,63017,1,0,0:0:0:0:
256,192,63267,1,0,0:0:0:0:
256,192,63517,1,0,0:0:0:0:
256,192,63767,1,0,0:0:0:0:
256,192,64017,1,0,0:0:0:0:
256,192,64079,1,0,0:0:0:0:
256,192,64142,1,0,0:0:0:0:
256,192,64267,1,0,0:0:0:0:
256,192,64392,1,0,0:0:0:0:
256,192,64517,1,0,0:0:0:0:
256,192,64642,1,0,0:0:0:0:
256,192,64767,1,0,0:0:0:0:
256,192,64892,1,0,0:0:0:0:
256,192,65017,1,8,0:0:0:0:
256,192,65079,1,8,0:0:0:0:
256,192,65142,1,0,0:0:0:0:
256,192,65204,1,0,0:0:0:0:
256,192,65267,1,8,0:0:0:0:
256,192,65329,1,0,0:0:0:0:
256,192,65392,1,0,0:0:0:0:
256,192,65454,1,0,0:0:0:0:
256,192,65517,1,8,0:0:0:0:
256,192,65579,1,0,0:0:0:0:
256,192,65642,1,8,0:0:0:0:
256,192,65704,1,0,0:0:0:0:
256,192,65767,1,8,0:0:0:0:
256,192,65829,1,8,0:0:0:0:
256,192,65892,1,0,0:0:0:0:
256,192,66017,1,0,0:0:0:0:
256,192,66079,1,0,0:0:0:0:
256,192,66142,1,8,0:0:0:0:
256,192,66204,1,0,0:0:0:0:
256,192,66267,1,0,0:0:0:0:
256,192,66329,1,0,0:0:0:0:
256,192,66392,1,8,0:0:0:0:
256,192,66454,1,0,0:0:0:0:
256,192,66517,1,0,0:0:0:0:
256,192,66579,1,8,0:0:0:0:
256,192,66642,1,8,0:0:0:0:
256,192,66704,1,0,0:0:0:0:
256,192,66767,1,0,0:0:0:0:
256,192,66829,1,0,0:0:0:0:
256,192,66892,1,8,0:0:0:0:
256,192,66954,1,8,0:0:0:0:
256,192,67017,1,8,0:0:0:0:
256,192,67079,1,0,0:0:0:0:
256,192,67142,1,8,0:0:0:0:
256,192,67204,1,8,0:0:0:0:
256,192,67267,1,0,0:0:0:0:
256,192,67329,1,0,0:0:0:0:
256,192,67392,1,8,0:0:0:0:
256,192,67454,1,0,0:0:0:0:
256,192,67517,1,0,0:0:0:0:
256,192,67579,1,8,0:0:0:0:
256,192,67642,1,0,0:0:0:0:
256,192,67704,1,0,0:0:0:0:
256,192,67767,1,8,0:0:0:0:
256,192,67829,1,0,0:0:0:0:
256,192,67892,1,8,0:0:0:0:
256,192,67954,1,8,0:0:0:0:
256,192,68017,1,0,0:0:0:0:
256,192,68079,1,0,0:0:0:0:
256,192,68142,1,8,0:0:0:0:
256,192,68204,1,0,0:0:0:0:
256,192,68267,1,8,0:0:0:0:
256,192,68329,1,8,0:0:0:0:
256,192,68392,1,0,0:0:0:0:
256,192,68454,1,8,0:0:0:0:
256,192,68517,1,8,0:0:0:0:
256,192,68579,1,8,0:0:0:0:
256,192,68642,1,0,0:0:0:0:
256,192,68704,1,8,0:0:0:0:
256,192,68767,1,0,0:0:0:0:
256,192,68829,1,0,0:0:0:0:
256,192,68892,1,8,0:0:0:0:
256,192,68954,1,0,0:0:0:0:
256,192,69017,1,0,0:0:0:0:
256,192,69079,1,8,0:0:0:0:
256,192,69142,1,0,0:0:0:0:
256,192,69204,1,8,0:0:0:0:
256,192,69267,1,0,0:0:0:0:
256,192,69329,1,8,0:0:0:0:
256,192,69392,1,8,0:0:0:0:
256,192,69454,1,0,0:0:0:0:
256,192,69517,1,8,0:0:0:0:
256,192,69579,1,8,0:0:0:0:
256,192,69642,1,8,0:0:0:0:
256,192,69704,1,0,0:0:0:0:
256,192,69767,1,0,0:0:0:0:
256,192,69829,1,0,0:0:0:0:
256,192,69892,1,8,0:0:0:0:
256,192,69954,1,8,0:0:0:0:
256,192,70017,1,0,0:0:0:0:
256,192,70142,1,0,0:0:0:0:
256,192,70267,1,0,0:0:0:0:
256,192,70329,1,8,0:0:0:0:
256,192,70392,1,8,0:0:0:0:
256,192,70454,1,8,0:0:0:0:
256,192,70517,1,0,0:0:0:0:
256,192,70579,1,8,0:0:0:0:
256,192,70642,1,0,0:0:0:0:
256,192,70704,1,8,0:0:0:0:
256,192,70767,1,0,0:0:0:0:
256,192,70829,1,0,0:0:0:0:
256,192,70892,1,8,0:0:0:0:
256,192,70954,1,0,0:0:0:0:
256,192,71017,1,8,0:0:0:0:
256,192,71079,1,8,0:0:0:0:
256,192,71142,1,0,0:0:0:0:
256,192,71204,1,8,0:0:0:0:
256,192,71267,1,8,0:0:0:0:
256,192,71329,1,0,0:0:0:0:
256,192,71392,1,0,0:0:0:0:
256,192,71454,1,0,0:0:0:0:
256,192,71517,1,8,0:0:0:0:
256,192,71579,1,8,0:0:0:0:
256,192,71642,1,0,0:0:0:0:
256,192,71704,1,0,0:0:0:0:
256,192,71767,1,8,0:0:0:0:
256,192,71829,1,0,0:0:0:0:
256,192,71892,1,8,0:0:0:0:
256,192,71954,1,0,0:0:0:0:
256,192,72017,1,8,0:0:0:0:
256,192,72079,1,0,0:0:0:0:
256,192,72142,1,0,0:0:0:0:
256,192,72204,1,8,0:0:0:0:
256,192,72267,1,0,0:0:0:0:
256,192,72329,1,0,0:0:0:0:
256,192,72392,1,8,0:0:0:0:
256,192,72454,1,8,0:0:0:0:
256,192,72517,1,0,0:0:0:0:
256,192,72579,1,8,0:0:0:0:
256,192,72642,1,8,0:0:0:0:
256,192,72704,1,0,0:0:0:0:
256,192,72767,1,8,0:0:0:0:
256,192,72829,1,0,0:0:0:0:
256,192,72892,1,0,0:0:0:0:
256,192,72954,1,0,0:0:0:0:
256,192,73017,1,8,0:0:0:0:
256,192,73079,1,8,0:0:0:0:
256,192,73142,1,8,0:0:0:0:
256,192,73204,1,0,0:0:0:0:
256,192,73267,1,0,0:0:0:0:
256,192,73329,1,0,0:0:0:0:
256,192,73392,1,8,0:0:0:0:
256,192,73517,1,12,0:0:0:0:
256,192,73642,1,12,0:0:0:0:
256,192,73767,1,12,0:0:0:0:
256,192,73892,1,12,0:0:0:0:
256,192,74017,1,0,0:0:0:0:
256,192,74079,1,8,0:0:0:0:
256,192,74142,1,0,0:0:0:0:
256,192,74204,1,0,0:0:0:0:
256,192,74267,1,8,0:0:0:0:
256,192,74329,1,8,0:0:0:0:
256,192,74392,1,0,0:0:0:0:
256,192,74454,1,0,0:0:0:0:
256,192,74517,1,8,0:0:0:0:
256,192,74579,1,0,0:0:0:0:
256,192,74642,1,8,0:0:0:0:
256,192,74704,1,8,0:0:0:0:
256,192,74767,1,0,0:0:0:0:
256,192,74829,1,8,0:0:0:0:
256,192,74892,1,8,0:0:0:0:
256,192,74954,1,0,0:0:0:0:
256,192,75017,1,8,0:0:0:0:
256,192,75079,1,0,0:0:0:0:
256,192,75142,1,0,0:0:0:0:
256,192,75204,1,0,0:0:0:0:
256,192,75267,1,8,0:0:0:0:
256,192,75329,1,8,0:0:0:0:
256,192,75392,1,0,0:0:0:0:
256,192,75454,1,0,0:0:0:0:
256,192,75517,1,8,0:0:0:0:
256,192,75579,1,0,0:0:0:0:
256,192,75642,1,8,0:0:0:0:
256,192,75704,1,8,0:0:0:0:
256,192,75767,1,0,0:0:0:0:
256,192,75829,1,0,0:0:0:0:
256,192,75892,1,8,0:0:0:0:
256,192,75954,1,0,0:0:0:0:
256,192,76017,1,0,0:0:0:0:
256,192,76079,1,8,0:0:0:0:
256,192,76142,1,8,0:0:0:0:
256,192,76204,1,8,0:0:0:0:
256,192,76267,1,0,0:0:0:0:
256,192,76329,1,0,0:0:0:0:
256,192,76392,1,8,0:0:0:0:
256,192,76454,1,0,0:0:0:0:
256,192,76517,1,8,0:0:0:0:
256,192,76579,1,0,0:0:0:0:
256,192,76642,1,0,0:0:0:0:
256,192,76704,1,8,0:0:0:0:
256,192,76767,1,0,0:0:0:0:
256,192,76829,1,0,0:0:0:0:
256,192,76892,1,8,0:0:0:0:
256,192,76954,1,0,0:0:0:0:
256,192,77017,1,8,0:0:0:0:
256,192,77079,1,8,0:0:0:0:
256,192,77142,1,8,0:0:0:0:
256,192,77204,1,0,0:0:0:0:
256,192,77267,1,0,0:0:0:0:
256,192,77329,1,0,0:0:0:0:
256,192,77392,1,8,0:0:0:0:
256,192,77454,1,0,0:0:0:0:
256,192,77517,1,8,0:0:0:0:
256,192,77579,1,0,0:0:0:0:
256,192,77642,1,0,0:0:0:0:
256,192,77704,1,8,0:0:0:0:
256,192,77767,1,0,0:0:0:0:
256,192,77829,1,0,0:0:0:0:
256,192,77892,1,8,0:0:0:0:
256,192,77954,1,8,0:0:0:0:
256,192,78017,1,0,0:0:0:0:
256,192,78142,1,0,0:0:0:0:
256,192,78267,1,8,0:0:0:0:
256,192,78329,1,0,0:0:0:0:
256,192,78392,1,8,0:0:0:0:
256,192,78454,1,8,0:0:0:0:
256,192,78517,1,0,0:0:0:0:
256,192,78579,1,0,0:0:0:0:
256,192,78642,1,8,0:0:0:0:
256,192,78704,1,0,0:0:0:0:
256,192,78767,1,0,0:0:0:0:
256,192,78829,1,8,0:0:0:0:
256,192,78892,1,8,0:0:0:0:
256,192,78954,1,8,0:0:0:0:
256,192,79017,1,0,0:0:0:0:
256,192,79079,1,8,0:0:0:0:
256,192,79142,1,0,0:0:0:0:
256,192,79204,1,0,0:0:0:0:
256,192,79267,1,8,0:0:0:0:
256,192,79329,1,8,0:0:0:0:
256,192,79392,1,0,0:0:0:0:
256,192,79454,1,0,0:0:0:0:
256,192,79517,1,8,0:0:0:0:
256,192,79579,1,0,0:0:0:0:
256,192,79642,1,0,0:0:0:0:
256,192,79704,1,8,0:0:0:0:
256,192,79767,1,8,0:0:0:0:
256,192,79829,1,0,0:0:0:0:
256,192,79892,1,8,0:0:0:0:
256,192,79954,1,0,0:0:0:0:
256,192,80017,1,0,0:0:0:0:
256,192,80079,1,8,0:0:0:0:
256,192,80142,1,0,0:0:0:0:
256,192,80204,1,0,0:0:0:0:
256,192,80267,1,8,0:0:0:0:
256,192,80329,1,0,0:0:0:0:
256,192,80392,1,0,0:0:0:0:
256,192,80454,1,0,0:0:0:0:
256,192,80517,1,8,0:0:0:0:
256,192,80579,1,8,0:0:0:0:
256,192,80642,1,0,0:0:0:0:
256,192,80704,1,0,0:0:0:0:
256,192,80767,1,8,0:0:0:0:
256,192,80829,1,8,0:0:0:0:
256,192,80892,1,8,0:0:0:0:
256,192,80954,1,0,0:0:0:0:
256,192,81017,1,0,0:0:0:0:
256,192,81079,1,0,0:0:0:0:
256,192,81142,1,8,0:0:0:0:
256,192,81204,1,0,0:0:0:0:
256,192,81267,1,8,0:0:0:0:
256,192,81329,1,8,0:0:0:0:
256,192,81392,1,0,0:0:0:0:
256,192,81517,1,4,0:0:0:0:
256,192,81767,1,12,0:0:0:0:
256,192,81892,1,12,0:0:0:0:
256,192,113517,5,8,0:0:0:0:
256,192,113579,1,0,0:0:0:0:
256,192,113642,1,0,0:0:0:0:
256,192,113704,1,0,0:0:0:0:
256,192,113767,1,8,0:0:0:0:
256,192,113829,1,8,0:0:0:0:
256,192,113892,1,8,0:0:0:0:
256,192,113954,1,8,0:0:0:0:
256,192,114017,1,0,0:0:0:0:
256,192,114079,1,0,0:0:0:0:
256,192,114142,1,8,0:0:0:0:
256,192,114204,1,0,0:0:0:0:
256,192,114267,1,8,0:0:0:0:
256,192,114329,1,8,0:0:0:0:
256,192,114392,1,0,0:0:0:0:
256,192,114454,1,8,0:0:0:0:
256,192,114517,1,0,0:0:0:0:
256,192,114579,1,8,0:0:0:0:
256,192,114642,1,8,0:0:0:0:
256,192,114704,1,0,0:0:0:0:
256,192,114767,1,8,0:0:0:0:
256,192,114829,1,0,0:0:0:0:
256,192,114892,1,0,0:0:0:0:
256,192,114954,1,8,0:0:0:0:
256,192,115017,1,8,0:0:0:0:
256,192,115079,1,0,0:0:0:0:
256,192,115142,1,8,0:0:0:0:
256,192,115204,1,8,0:0:0:0:
256,192,115267,1,0,0:0:0:0:
256,192,115329,1,8,0:0:0:0:
256,192,115392,1,0,0:0:0:0:
256,192,115454,1,8,0:0:0:0:
256,192,115517,1,0,0:0:0:0:
256,192,115579,1,0,0:0:0:0:
256,192,115642,1,8,0:0:0:0:
256,192,115704,1,0,0:0:0:0:
256,192,115767,1,0,0:0:0:0:
256,192,115829,1,8,0:0:0:0:
256,192,115892,1,8,0:0:0:0:
256,192,115954,1,0,0:0:0:0:
256,192,116017,1,8,0:0:0:0:
256,192,116079,1,8,0:0:0:0:
256,192,116142,1,0,0:0:0:0:
256,192,116204,1,0,0:0:0:0:
256,192,116267,1,8,0:0:0:0:
256,192,116329,1,0,0:0:0:0:
256,192,116392,1,8,0:0:0:0:
256,192,116454,1,8,0:0:0:0:
256,192,116517,1,0,0:0:0:0:
256,192,116579,1,0,0:0:0:0:
256,192,116642,1,8,0:0:0:0:
256,192,116704,1,0,0:0:0:0:
256,192,116767,1,8,0:0:0:0:
256,192,116829,1,0,0:0:0:0:
256,192,116892,1,0,0:0:0:0:
256,192,116954,1,8,0:0:0:0:
256,192,117017,1,8,0:0:0:0:
256,192,117079,1,0,0:0:0:0:
256,192,117142,1,8,0:0:0:0:
256,192,117204,1,0,0:0:0:0:
256,192,117267,1,8,0:0:0:0:
256,192,117329,1,8,0:0:0:0:
256,192,117392,1,0,0:0:0:0:
256,192,117454,1,8,0:0:0:0:
256,192,117517,1,0,0:0:0:0:
256,192,117579,1,0,0:0:0:0:
256,192,117642,1,8,0:0:0:0:
256,192,117704,1,0,0:0:0:0:
256,192,117767,1,8,0:0:0:0:
256,192,117829,1,8,0:0:0:0:
256,192,117892,1,8,0:0:0:0:
256,192,117954,1,0,0:0:0:0:
256,192,118017,1,8,0:0:0:0:
256,192,118079,1,8,0:0:0:0:
256,192,118142,1,8,0:0:0:0:
256,192,118204,1,0,0:0:0:0:
256,192,118267,1,8,0:0:0:0:
256,192,118329,1,0,0:0:0:0:
256,192,118392,1,0,0:0:0:0:
256,192,118454,1,0,0:0:0:0:
256,192,118517,1,8,0:0:0:0:
256,192,118579,1,8,0:0:0:0:
256,192,118642,1,8,0:0:0:0:
256,192,118704,1,0,0:0:0:0:
256,192,118767,1,0,0:0:0:0:
256,192,118829,1,8,0:0:0:0:
256,192,118892,1,8,0:0:0:0:
256,192,118954,1,0,0:0:0:0:
256,192,119017,1,0,0:0:0:0:
256,192,119079,1,0,0:0:0:0:
256,192,119142,1,8,0:0:0:0:
256,192,119204,1,0,0:0:0:0:
256,192,119267,1,8,0:0:0:0:
256,192,119329,1,8,0:0:0:0:
256,192,119392,1,0,0:0:0:0:
256,192,119454,1,0,0:0:0:0:
256,192,119517,1,8,0:0:0:0:
256,192,119579,1,8,0:0:0:0:
256,192,119642,1,8,0:0:0:0:
256,192,119704,1,0,0:0:0:0:
256,192,119767,1,0,0:0:0:0:
256,192,119829,1,8,0:0:0:0:
256,192,119892,1,0,0:0:0:0:
256,192,119954,1,0,0:0:0:0:
256,192,120017,1,8,0:0:0:0:
256,192,120079,1,0,0:0:0:0:
256,192,120142,1,8,0:0:0:0:
256,192,120204,1,0,0:0:0:0:
256,192,120267,1,8,0:0:0:0:
256,192,120329,1,0,0:0:0:0:
256,192,120392,1,8,0:0:0:0:
256,192,120454,1,8,0:0:0:0:
256,192,120517,1,0,0:0:0:0:
256,192,120579,1,8,0:0:0:0:
256,192,120642,1,8,0:0:0:0:
256,192,120704,1,0,0:0:0:0:
256,192,120767,1,0,0:0:0:0:
256,192,120829,1,0,0:0:0:0:
256,192,120892,1,8,0:0:0:0:
256,192,120954,1,8,0:0:0:0:
256,192,121017,1,0,0:0:0:0:
256,192,121079,1,0,0:0:0:0:
256,192,121142,1,8,0:0:0:0:
256,192,121204,1,8,0:0:0:0:
256,192,121267,1,8,0:0:0:0:
256,192,121329,1,0,0:0:0:0:
256,192,121392,1,0,0:0:0:0:
256,192,121517,1,12,0:0:0:0:
256,192,121642,1,12,0:0:0:0:
256,192,121767,1,12,0:0:0:0:
256,192,121892,1,12,0:0:0:0:
256,192,122017,1,0,0:0:0:0:
256,192,122079,1,8,0:0:0:0:
256,192,122142,1,8,0:0:0:0:
256,192,122204,1,8,0:0:0:0:
256,192,122267,1,0,0:0:0:0:
256,192,122329,1,0,0:0:0:0:
256,192,122392,1,8,0:0:0:0:
256,192,122454,1,0,0:0:0:0:
256,192,122517,1,8,0:0:0:0:
256,192,122579,1,0,0:0:0:0:
256,192,122642,1,0,0:0:0:0:
256,192,122704,1,0,0:0:0:0:
256,192,122767,1,8,0:0:0:0:
256,192,122829,1,8,0:0:0:0:
256,192,122892,1,0,0:0:0:0:
256,192,122954,1,8,0:0:0:0:
256,192,123017,1,0,0:0:0:0:
256,192,123079,1,0,0:0:0:0:
256,192,123142,1,8,0:0:0:0:
256,192,123204,1,0,0:0:0:0:
256,192,123267,1,8,0:0:0:0:
256,192,123329,1,8,0:0:0:0:
256,192,123392,1,0,0:0:0:0:
256,192,123454,1,8,0:0:0:0:
256,192,123517,1,0,0:0:0:0:
256,192,123579,1,0,0:0:0:0:
256,192,123642,1,0,0:0:0:0:
256,192,123704,1,8,0:0:0:0:
256,192,123767,1,8,0:0:0:0:
256,192,123829,1,0,0:0:0:0:
256,192,123892,1,0,0:0:0:0:
256,192,123954,1,0,0:0:0:0:
256,192,124017,1,8,0:0:0:0:
256,192,124079,1,0,0:0:0:0:
256,192,124142,1,0,0:0:0:0:
256,192,124204,1,8,0:0:0:0:
256,192,124267,1,0,0:0:0:0:
256,192,124329,1,0,0:0:0:0:
256,192,124392,1,8,0:0:0:0:
256,192,124454,1,0,0:0:0:0:
256,192,124517,1,8,0:0:0:0:
256,192,124579,1,0,0:0:0:0:
256,192,124642,1,8,0:0:0:0:
256,192,124704,1,8,0:0:0:0:
256,192,124767,1,8,0:0:0:0:
256,192,124829,1,0,0:0:0:0:
256,192,124892,1,0,0:0:0:0:
256,192,124954,1,0,0:0:0:0:
256,192,125017,1,8,0:0:0:0:
256,192,125079,1,0,0:0:0:0:
256,192,125142,1,8,0:0:0:0:
256,192,125204,1,8,0:0:0:0:
256,192,125267,1,0,0:0:0:0:
256,192,125329,1,0,0:0:0:0:
256,192,125392,1,8,0:0:0:0:
256,192,125454,1,0,0:0:0:0:
256,192,125517,1,8,0:0:0:0:
256,192,125579,1,8,0:0:0:0:
256,192,125642,1,0,0:0:0:0:
256,192,125704,1,8,0:0:0:0:
256,192,125767,1,0,0:0:0:0:
256,192,125829,1,8,0:0:0:0:
256,192,125892,1,8,0:0:0:0:
256,192,125954,1,8,0:0:0:0:
256,192,126017,1,0,0:0:0:0:
256,192,126079,1,8,0:0:0:0:
256,192,126142,1,8,0:0:0:0:
256,192,126204,1,0,0:0:0:0:
256,192,126267,1,8,0:0:0:0:
256,192,126329,1,8,0:0:0:0:
256,192,126392,1,0,0:0:0:0:
256,192,126454,1,0,0:0:0:0:
256,192,126517,1,8,0:0:0:0:
256,192,126579,1,8,0:0:0:0:
256,192,126642,1,8,0:0:0:0:
256,192,126704,1,0,0:0:0:0:
256,192,126767,1,8,0:0:0:0:
256,192,126829,1,8,0:0:0:0:
256,192,126892,1,8,0:0:0:0:
256,192,126954,1,0,0:0:0:0:
256,192,127017,1,8,0:0:0:0:
256,192,127079,1,0,0:0:0:0:
256,192,127142,1,8,0:0:0:0:
256,192,127204,1,0,0:0:0:0:
256,192,127267,1,0,0:0:0:0:
256,192,127329,1,8,0:0:0:0:
256,192,127392,1,0,0:0:0:0:
256,192,127454,1,8,0:0:0:0:
256,192,127517,1,8,0:0:0:0:
256,192,127579,1,8,0:0:0:0:
256,192,127642,1,0,0:0:0:0:
256,192,127704,1,0,0:0:0:0:
256,192,127767,1,8,0:0:0:0:
256,192,127829,1,0,0:0:0:0:
256,192,127892,1,8,0:0:0:0:
256,192,127954,1,8,0:0:0:0:
256,192,128017,1,0,0:0:0:0:
256,192,128079,1,0,0:0:0:0:
256,192,128142,1,0,0:0:0:0:
256,192,128204,1,8,0:0:0:0:
256,192,128267,1,0,0:0:0:0:
256,192,128329,1,0,0:0:0:0:
256,192,128392,1,8,0:0:0:0:
256,192,128454,1,0,0:0:0:0:
256,192,128517,1,8,0:0:0:0:
256,192,128579,1,8,0:0:0:0:
256,192,128642,1,0,0:0:0:0:
256,192,128704,1,8,0:0:0:0:
256,192,128767,1,0,0:0:0:0:
256,192,128829,1,0,0:0:0:0:
256,192,128892,1,0,0:0:0:0:
256,192,128954,1,8,0:0:0:0:
256,192,129017,1,8,0:0:0:0:
256,192,129079,1,8,0:0:0:0:
256,192,129142,1,0,0:0:0:0:
256,192,129204,1,8,0:0:0:0:
256,192,129267,1,0,0:0:0:0:
256,192,129329,1,0,0:0:0:0:
256,192,129392,1,8,0:0:0:0:
256,192,129517,1,4,0:0:0:0:
256,192,129767,1,12,0:0:0:0:
256,192,129892,1,12,0:0:0:0:
