osu file format v14

[General]
AudioFilename: audio.mp3
AudioLeadIn: 0
PreviewTime: 79231
Countdown: 0
SampleSet: Soft
StackLeniency: 0.7
Mode: 3
LetterboxInBreaks: 0
SpecialStyle: 0
WidescreenStoryboard: 1

[Editor]
Bookmarks: 190,14561,40429,51926,63423,79591,103663,126657,149651,161148,172645
DistanceSpacing: 1
BeatDivisor: 4
GridSize: 4
TimelineZoom: 2.2

[Metadata]
Title:Merry Christmas Mr. Lawrence -2012 BlackY's XmasCoreStyle-
TitleUnicode:Merry Christmas Mr. Lawrence -2012 BlackY's XmasCoreStyle-
Artist:Ryuichi Sakamoto
ArtistUnicode:坂本 龍一
Creator:by-ad
Version:Hard
Source:戦場のメリークリスマス
Tags:FAMoss Electronic Instrumental Japanese The Seed and the Sower Movie OST Original Sound Track Holiday Remix
BeatmapID:3321515
BeatmapSetID:1617161

[Difficulty]
HPDrainRate:8
CircleSize:4
OverallDifficulty:8
ApproachRate:5
SliderMultiplier:1.4
SliderTickRate:1

[Events]
//Background and Video events
0,0,"90.jpeg",0,0
//Break Periods
//Storyboard Layer 0 (Background)
//Storyboard Layer 1 (Fail)
//Storyboard Layer 2 (Pass)
//Storyboard Layer 3 (Foreground)
//Storyboard Layer 4 (Overlay)
//Storyboard Sound Samples
Sample,69351,0,"VEC3 Snares 001.wav",70
Sample,69710,0,"VEC3 Snares 001.wav",70
Sample,70070,0,"VEC3 Snares 001.wav",70
Sample,70429,0,"VEC3 Snares 001.wav",70
Sample,70788,0,"VEC3 Snares 001.wav",70
Sample,71148,0,"VEC3 Snares 001.wav",70
Sample,71507,0,"VEC3 Snares 001.wav",70
Sample,71866,0,"VEC3 Snares 001.wav",70
Sample,103393,0,"VEC3 Snares 001.wav",70
Sample,103483,0,"VEC3 Snares 001.wav",70
Sample,103573,0,"VEC3 Snares 001.wav",70
Sample,126297,0,"h03.wav",70
Sample,126387,0,"VEC3 Snares 001.wav",70
Sample,126477,0,"VEC3 Snares 001.wav",70
Sample,126567,0,"VEC3 Snares 001.wav",70
Sample,149381,0,"VEC3 Snares 001.wav",70
Sample,149471,0,"VEC3 Snares 001.wav",70
Sample,149561,0,"VEC3 Snares 001.wav",70
Sample,171567,0,"amenbreak_snare3.wav",70
Sample,172285,0,"h03.wav",70
Sample,172375,0,"VEC3 Snares 001.wav",70
Sample,172465,0,"VEC3 Snares 001.wav",70
Sample,172555,0,"VEC3 Snares 001.wav",70

[TimingPoints]
190,359.281437125748,4,2,1,60,1,0

[HitObjects]
64,192,190,1,0,0:0:0:70:amenbreak_kick1.wav
448,192,190,1,0,0:0:0:0:
64,192,369,1,0,0:0:0:70:amenbreak_kick1.wav
320,192,369,1,0,0:0:0:0:
192,192,549,1,0,0:0:0:70:amenbreak_snare3.wav
448,192,549,1,0,0:0:0:0:
64,192,728,1,0,0:0:0:70:amenbreak_kick1.wav
320,192,728,1,0,0:0:0:0:
192,192,908,1,0,0:0:0:70:amenbreak_kick1.wav
448,192,908,1,0,0:0:0:0:
64,192,1088,1,0,0:0:0:70:amenbreak_snare2.wav
448,192,1088,1,0,0:0:0:0:
320,192,1267,1,0,0:0:0:70:amenbreak_kick1.wav
448,192,1267,1,0,0:0:0:0:
192,192,1447,1,0,0:0:0:70:amenbreak_kick1.wav
320,192,1447,1,0,0:0:0:0:
64,192,1627,1,0,0:0:0:70:amenbreak_kick1.wav
192,192,1627,1,0,0:0:0:0:
320,192,1716,1,0,0:0:0:70:amenbreak_kick1.wav
192,192,1806,1,0,0:0:0:70:amenbreak_snare3.wav
448,192,1806,1,0,0:0:0:0:
64,192,1986,1,0,0:0:0:70:amenbreak_kick1.wav
320,192,1986,1,0,0:0:0:0:
192,192,2166,1,0,0:0:0:70:amenbreak_kick1.wav
320,192,2166,1,0,0:0:0:0:
448,192,2255,1,0,0:0:0:70:amenbreak_kick1.wav
64,192,2345,1,0,0:0:0:70:amenbreak_snare2.wav
192,192,2345,1,0,0:0:0:0:
320,192,2525,1,0,0:0:0:70:amenbreak_kick1.wav
448,192,2525,128,0,3064:0:0:0:0:
64,192,2704,128,0,3064:0:0:0:70:amenbreak_kick1.wav
192,192,2704,1,0,0:0:0:0:
192,192,3064,1,2,0:0:0:0:
320,192,3064,1,4,0:0:0:0:
192,192,3243,1,2,0:0:0:0:
64,192,3423,1,2,0:0:0:0:
448,192,3423,1,8,0:0:0:0:
320,192,3603,1,2,0:0:0:0:
64,192,3782,1,2,0:0:0:0:
448,192,3782,1,0,0:0:0:0:
192,192,3962,1,2,0:0:0:0:
320,192,4142,1,2,0:0:0:0:
448,192,4142,1,8,0:0:0:0:
192,192,4321,1,2,0:0:0:0:
64,192,4501,1,2,0:0:0:0:
448,192,4501,1,0,0:0:0:0:
320,192,4681,1,2,0:0:0:0:
64,192,4860,1,2,0:0:0:0:
448,192,4860,1,8,0:0:0:0:
192,192,5040,1,2,0:0:0:0:
64,192,5219,1,2,0:0:0:0:
448,192,5219,1,0,0:0:0:0:
320,192,5399,1,2,0:0:0:0:
64,192,5579,1,2,0:0:0:0:
192,192,5579,1,8,0:0:0:0:
320,192,5758,1,2,0:0:0:0:
192,192,5938,1,2,0:0:0:0:
448,192,5938,1,0,0:0:0:0:
64,192,6118,1,2,0:0:0:0:
192,192,6297,1,2,0:0:0:0:
320,192,6297,1,8,0:0:0:0:
448,192,6477,1,2,0:0:0:0:
64,192,6657,1,2,0:0:0:0:
192,192,6657,1,0,0:0:0:0:
320,192,6836,1,2,0:0:0:0:
64,192,7016,1,2,0:0:0:0:
448,192,7016,1,8,0:0:0:0:
192,192,7195,1,2,0:0:0:0:
64,192,7375,1,2,0:0:0:0:
320,192,7375,1,0,0:0:0:0:
448,192,7555,1,2,0:0:0:0:
192,192,7734,1,2,0:0:0:0:
320,192,7734,1,8,0:0:0:0:
64,192,7914,1,2,0:0:0:0:
192,192,8094,1,2,0:0:0:0:
448,192,8094,1,0,0:0:0:0:
320,192,8273,1,2,0:0:0:0:
64,192,8453,1,2,0:0:0:0:
448,192,8453,1,8,0:0:0:0:
192,192,8633,1,2,0:0:0:0:
320,192,8722,1,2,0:0:0:0:
64,192,8812,1,4,0:0:0:0:
192,192,8812,1,2,0:0:0:0:
448,192,8812,1,0,0:0:0:0:
192,192,8992,1,2,0:0:0:0:
320,192,8992,1,0,0:0:0:0:
64,192,9172,1,2,0:0:0:0:
448,192,9172,1,8,0:0:0:0:
64,192,9351,1,2,0:0:0:0:
320,192,9351,1,0,0:0:0:0:
192,192,9531,1,2,0:0:0:0:
448,192,9531,1,0,0:0:0:0:
192,192,9710,1,2,0:0:0:0:
320,192,9710,1,0,0:0:0:0:
64,192,9890,1,2,0:0:0:0:
448,192,9890,1,8,0:0:0:0:
192,192,10070,1,2,0:0:0:0:
448,192,10070,1,0,0:0:0:0:
64,192,10249,1,2,0:0:0:0:
192,192,10249,1,4,0:0:0:0:
320,192,10249,1,0,0:0:0:0:
320,192,10429,1,2,0:0:0:0:
448,192,10429,1,0,0:0:0:0:
64,192,10609,1,2,0:0:0:0:
192,192,10609,1,8,0:0:0:0:
64,192,10788,1,2,0:0:0:0:
448,192,10788,1,0,0:0:0:0:
192,192,10968,1,2,0:0:0:0:
320,192,10968,1,0,0:0:0:0:
320,192,11148,1,2,0:0:0:0:
448,192,11148,1,0,0:0:0:0:
64,192,11327,1,2,0:0:0:0:
192,192,11327,1,8,0:0:0:0:
64,192,11507,1,2,0:0:0:0:
448,192,11507,1,0,0:0:0:0:
320,192,11687,1,2,0:0:0:0:
448,192,11687,1,4,0:0:0:0:
64,192,11776,1,2,0:0:0:0:
192,192,11866,1,2,0:0:0:0:
320,192,11956,1,2,0:0:0:0:
448,192,12046,1,10,0:0:0:0:
192,192,12136,1,2,0:0:0:0:
320,192,12225,1,2,0:0:0:0:
448,192,12315,1,2,0:0:0:0:
64,192,12405,1,2,0:0:0:0:
192,192,12405,1,4,0:0:0:0:
320,192,12495,1,2,0:0:0:0:
192,192,12585,1,2,0:0:0:0:
64,192,12675,1,2,0:0:0:0:
448,192,12764,1,10,0:0:0:0:
320,192,12854,1,2,0:0:0:0:
192,192,12944,1,2,0:0:0:0:
64,192,13034,1,2,0:0:0:0:
320,192,13124,1,4,0:0:0:0:
448,192,13124,1,0,0:0:0:70:amenbreak_kick1.wav
192,192,13303,1,0,0:0:0:70:amenbreak_kick1.wav
64,192,13393,1,0,0:0:0:0:
320,192,13483,1,0,0:0:0:70:amenbreak_snare3.wav
448,192,13483,1,0,0:0:0:0:
192,192,13573,1,0,0:0:0:0:
448,192,13663,1,0,0:0:0:0:
320,192,13752,1,0,0:0:0:0:
64,192,13842,1,0,0:0:0:0:
192,192,13932,1,0,0:0:0:0:
320,192,14022,1,0,0:0:0:0:
448,192,14112,1,0,0:0:0:0:
64,192,14201,1,0,0:0:0:70:h03.wav
192,192,14291,1,0,0:0:0:0:
320,192,14381,1,0,0:0:0:0:
448,192,14471,1,0,0:0:0:0:
64,192,14561,1,2,0:0:0:0:
192,192,14561,1,4,0:0:0:0:
192,192,15998,1,0,0:0:0:0:
320,192,16043,1,0,0:0:0:0:
448,192,16088,1,0,0:0:0:0:
64,192,17435,1,0,0:0:0:0:
192,192,17435,1,0,0:0:0:0:
320,192,18872,1,0,0:0:0:0:
192,192,18917,1,0,0:0:0:0:
64,192,18962,1,0,0:0:0:0:
320,192,20309,1,0,0:0:0:0:
448,192,20309,1,0,0:0:0:0:
64,192,21746,1,0,0:0:0:0:
192,192,21791,1,0,0:0:0:0:
320,192,21836,1,0,0:0:0:0:
64,192,23184,1,0,0:0:0:0:
448,192,23184,1,0,0:0:0:0:
192,192,24621,1,0,0:0:0:0:
320,192,24666,1,0,0:0:0:0:
448,192,24710,1,0,0:0:0:0:
64,192,26058,1,0,0:0:0:0:
448,192,26058,1,0,0:0:0:0:
192,192,26237,1,0,0:0:0:0:
320,192,26417,1,0,0:0:0:0:
448,192,26597,1,0,0:0:0:0:
192,192,26776,1,0,0:0:0:0:
448,192,27854,1,0,0:0:0:0:
64,192,28034,1,0,0:0:0:0:
448,192,28213,1,0,0:0:0:0:
64,192,28393,1,0,0:0:0:0:
192,192,28573,1,0,0:0:0:0:
448,192,28752,1,0,0:0:0:0:
192,192,28932,1,0,0:0:0:0:
320,192,28932,1,0,0:0:0:0:
64,192,29112,1,0,0:0:0:0:
320,192,29291,1,0,0:0:0:0:
448,192,29471,1,0,0:0:0:0:
192,192,29651,1,0,0:0:0:0:
448,192,30728,1,0,0:0:0:0:
192,192,31088,1,0,0:0:0:0:
64,192,31267,1,0,0:0:0:0:
320,192,31447,1,0,0:0:0:0:
64,192,31806,1,0,0:0:0:0:
448,192,31806,1,0,0:0:0:0:
320,192,31986,1,0,0:0:0:0:
192,192,32166,1,0,0:0:0:0:
64,192,32345,1,0,0:0:0:0:
320,192,32525,1,0,0:0:0:0:
64,192,33603,1,0,0:0:0:0:
448,192,33782,1,0,0:0:0:0:
64,192,33962,1,0,0:0:0:0:
448,192,34142,1,0,0:0:0:0:
320,192,34321,1,0,0:0:0:0:
64,192,34501,1,0,0:0:0:0:
192,192,34681,1,0,0:0:0:0:
320,192,34681,1,0,0:0:0:0:
448,192,34860,1,0,0:0:0:0:
192,192,35040,1,0,0:0:0:0:
64,192,35219,1,0,0:0:0:0:
320,192,35399,1,0,0:0:0:0:
320,192,36118,1,0,0:0:0:0:
192,192,36163,1,0,0:0:0:0:
64,192,36207,1,0,0:0:0:0:
64,192,40429,1,2,0:0:0:0:
192,192,40429,1,4,0:0:0:0:
448,192,40429,128,0,43303:0:0:0:0:
320,192,40609,1,0,0:0:0:0:
64,192,40788,1,0,0:0:0:0:
192,192,41148,1,0,0:0:0:0:
64,192,41327,1,0,0:0:0:0:
320,192,41507,1,0,0:0:0:0:
64,192,41866,1,0,0:0:0:0:
320,192,42046,1,0,0:0:0:0:
64,192,42225,1,0,0:0:0:0:
320,192,42405,1,0,0:0:0:0:
64,192,42585,1,0,0:0:0:0:
320,192,42764,1,0,0:0:0:0:
192,192,42944,1,0,0:0:0:0:
64,192,43303,128,0,44740:0:0:0:0:
320,192,43303,1,0,0:0:0:0:
192,192,43483,1,0,0:0:0:0:
448,192,43663,1,0,0:0:0:0:
320,192,44022,1,0,0:0:0:0:
448,192,44201,1,0,0:0:0:0:
192,192,44381,1,0,0:0:0:0:
320,192,44740,128,0,46178:0:0:0:0:
448,192,44920,1,0,0:0:0:0:
64,192,45100,1,0,0:0:0:0:
192,192,45279,1,0,0:0:0:0:
448,192,45459,1,0,0:0:0:0:
192,192,45639,1,0,0:0:0:0:
64,192,45818,1,0,0:0:0:0:
64,192,46178,1,0,0:0:0:0:
448,192,46178,128,0,47615:0:0:0:0:
320,192,46357,1,0,0:0:0:0:
192,192,46537,1,0,0:0:0:0:
320,192,46896,1,0,0:0:0:0:
64,192,47076,1,0,0:0:0:0:
320,192,47255,1,0,0:0:0:0:
192,192,47615,128,0,49052:0:0:0:0:
64,192,47794,1,0,0:0:0:0:
448,192,47974,1,0,0:0:0:0:
320,192,48154,1,0,0:0:0:0:
64,192,48333,1,0,0:0:0:0:
320,192,48513,1,0,0:0:0:0:
448,192,48692,1,0,0:0:0:0:
64,192,49052,128,0,50489:0:0:0:0:
448,192,49052,1,0,0:0:0:0:
320,192,49231,1,0,0:0:0:0:
192,192,49411,1,0,0:0:0:0:
320,192,49770,1,0,0:0:0:0:
448,192,49950,1,0,0:0:0:0:
192,192,50130,1,0,0:0:0:0:
448,192,50489,128,0,51926:0:0:0:0:
192,192,50669,1,0,0:0:0:0:
320,192,50848,1,0,0:0:0:0:
64,192,51028,1,0,0:0:0:0:
192,192,51207,128,0,51387:0:0:0:0:
320,192,51387,128,0,51567:0:0:0:0:
64,192,51567,128,0,51746:0:0:0:0:
192,192,51746,128,0,51926:0:0:0:0:
64,192,51926,1,4,0:0:0:0:
320,192,51926,1,2,0:0:0:0:
192,192,52106,1,0,0:0:0:0:
64,192,52285,1,8,0:0:0:0:
448,192,52285,1,0,0:0:0:0:
320,192,52465,1,0,0:0:0:0:
192,192,52645,1,0,0:0:0:0:
448,192,52824,1,0,0:0:0:0:
64,192,53004,1,8,0:0:0:0:
192,192,53004,1,0,0:0:0:0:
320,192,53184,1,0,0:0:0:0:
192,192,53363,1,0,0:0:0:0:
320,192,53453,1,0,0:0:0:0:
448,192,53543,1,0,0:0:0:0:
192,192,53722,1,8,0:0:0:0:
320,192,53722,1,0,0:0:0:0:
64,192,53812,1,0,0:0:0:0:
448,192,53902,1,0,0:0:0:0:
320,192,54082,1,0,0:0:0:0:
192,192,54172,1,0,0:0:0:0:
64,192,54261,1,0,0:0:0:0:
320,192,54441,1,8,0:0:0:0:
448,192,54441,1,0,0:0:0:0:
192,192,54531,1,0,0:0:0:0:
320,192,54621,1,0,0:0:0:0:
64,192,54800,1,0,0:0:0:0:
192,192,54800,1,0,0:0:0:0:
320,192,54890,1,0,0:0:0:0:
448,192,54980,1,0,0:0:0:0:
192,192,55160,1,8,0:0:0:0:
320,192,55160,1,0,0:0:0:0:
64,192,55249,1,0,0:0:0:0:
448,192,55339,1,0,0:0:0:0:
192,192,55519,1,0,0:0:0:0:
320,192,55609,1,0,0:0:0:0:
448,192,55698,1,0,0:0:0:0:
64,192,55878,1,8,0:0:0:0:
192,192,55878,1,0,0:0:0:0:
320,192,55968,1,0,0:0:0:0:
64,192,56058,1,0,0:0:0:0:
448,192,56237,1,0,0:0:0:0:
192,192,56327,1,0,0:0:0:0:
320,192,56417,1,0,0:0:0:0:
64,192,56597,1,8,0:0:0:0:
448,192,56597,1,0,0:0:0:0:
192,192,56687,1,0,0:0:0:0:
320,192,56776,1,0,0:0:0:0:
64,192,56956,1,0,0:0:0:0:
320,192,57046,1,0,0:0:0:0:
192,192,57136,1,0,0:0:0:0:
320,192,57315,1,8,0:0:0:0:
448,192,57315,1,0,0:0:0:0:
192,192,57405,1,0,0:0:0:0:
64,192,57495,1,0,0:0:0:0:
192,192,57675,1,0,0:0:0:0:
320,192,57675,1,0,0:0:0:0:
448,192,57764,1,0,0:0:0:0:
192,192,57854,1,0,0:0:0:0:
64,192,58034,1,8,0:0:0:0:
448,192,58034,1,0,0:0:0:0:
192,192,58124,1,0,0:0:0:0:
320,192,58213,1,0,0:0:0:0:
192,192,58393,1,0,0:0:0:0:
320,192,58483,1,0,0:0:0:0:
64,192,58573,1,0,0:0:0:0:
192,192,58752,1,8,0:0:0:0:
448,192,58752,1,0,0:0:0:0:
64,192,58842,1,0,0:0:0:0:
320,192,58932,1,0,0:0:0:0:
192,192,59112,1,0,0:0:0:0:
448,192,59201,1,0,0:0:0:0:
320,192,59291,1,0,0:0:0:0:
64,192,59471,1,8,0:0:0:0:
448,192,59471,1,0,0:0:0:0:
192,192,59561,1,0,0:0:0:0:
320,192,59651,1,0,0:0:0:0:
64,192,59830,1,0,0:0:0:0:
320,192,59920,1,0,0:0:0:0:
192,192,60010,1,0,0:0:0:0:
320,192,60189,1,8,0:0:0:0:
448,192,60189,1,0,0:0:0:0:
64,192,60279,1,0,0:0:0:0:
192,192,60369,1,0,0:0:0:0:
64,192,60549,1,0,0:0:0:0:
448,192,60549,1,0,0:0:0:0:
320,192,60639,1,0,0:0:0:0:
192,192,60728,1,0,0:0:0:0:
64,192,60908,1,8,0:0:0:0:
320,192,60908,1,0,0:0:0:0:
448,192,60998,1,0,0:0:0:0:
192,192,61088,1,0,0:0:0:0:
320,192,61267,1,0,0:0:0:0:
64,192,61357,1,0,0:0:0:0:
192,192,61447,1,0,0:0:0:0:
64,192,61627,1,8,0:0:0:0:
448,192,61627,1,0,0:0:0:0:
320,192,61716,1,0,0:0:0:0:
192,192,61806,1,0,0:0:0:0:
320,192,61986,1,0,0:0:0:0:
448,192,62076,1,0,0:0:0:0:
192,192,62166,1,0,0:0:0:0:
64,192,62345,1,8,0:0:0:0:
448,192,62345,1,0,0:0:0:0:
192,192,62435,1,0,0:0:0:0:
320,192,62525,1,0,0:0:0:0:
192,192,62704,1,0,0:0:0:0:
64,192,62794,1,0,0:0:0:0:
320,192,62884,1,0,0:0:0:0:
192,192,63064,1,8,0:0:0:0:
448,192,63064,1,0,0:0:0:0:
64,192,63154,1,0,0:0:0:0:
320,192,63243,1,0,0:0:0:0:
64,192,63423,1,2,0:0:0:0:
448,192,63423,1,0,0:0:0:70:VEC3 Snares 001.wav
192,192,63603,1,2,0:0:0:0:
448,192,63603,1,0,0:0:0:0:
64,192,63782,1,10,0:0:0:0:
320,192,63782,1,0,0:0:0:70:VEC3 Snares 001.wav
64,192,63962,1,2,0:0:0:0:
448,192,63962,1,0,0:0:0:0:
192,192,64142,1,2,0:0:0:0:
320,192,64142,1,0,0:0:0:70:VEC3 Snares 001.wav
64,192,64321,1,2,0:0:0:0:
320,192,64321,1,0,0:0:0:0:
192,192,64501,1,10,0:0:0:0:
448,192,64501,1,0,0:0:0:70:VEC3 Snares 001.wav
192,192,64681,1,2,0:0:0:0:
320,192,64681,1,0,0:0:0:0:
64,192,64860,1,2,0:0:0:0:
448,192,64860,1,0,0:0:0:70:VEC3 Snares 001.wav
64,192,65040,1,2,0:0:0:0:
192,192,65040,1,0,0:0:0:0:
320,192,65219,1,10,0:0:0:0:
448,192,65219,1,0,0:0:0:70:VEC3 Snares 001.wav
64,192,65399,1,2,0:0:0:0:
320,192,65399,1,0,0:0:0:0:
192,192,65579,1,2,0:0:0:0:
448,192,65579,1,0,0:0:0:70:VEC3 Snares 001.wav
192,192,65758,1,2,0:0:0:0:
320,192,65758,1,0,0:0:0:0:
64,192,65938,1,10,0:0:0:0:
448,192,65938,1,0,0:0:0:70:VEC3 Snares 001.wav
192,192,66118,1,2,0:0:0:0:
448,192,66118,1,0,0:0:0:0:
64,192,66297,1,2,0:0:0:0:
320,192,66297,1,0,0:0:0:70:VEC3 Snares 001.wav
192,192,66477,1,2,0:0:0:0:
320,192,66477,1,0,0:0:0:0:
64,192,66657,1,10,0:0:0:0:
448,192,66657,1,0,0:0:0:70:VEC3 Snares 001.wav
64,192,66836,1,2,0:0:0:0:
192,192,66836,1,0,0:0:0:0:
320,192,67016,1,2,0:0:0:0:
448,192,67016,1,0,0:0:0:70:VEC3 Snares 001.wav
64,192,67195,1,2,0:0:0:0:
448,192,67195,1,0,0:0:0:0:
64,192,67375,1,10,0:0:0:0:
320,192,67375,1,0,0:0:0:70:VEC3 Snares 001.wav
192,192,67555,1,2,0:0:0:0:
448,192,67555,1,0,0:0:0:0:
64,192,67734,1,2,0:0:0:0:
320,192,67734,1,0,0:0:0:70:VEC3 Snares 001.wav
64,192,67914,1,2,0:0:0:0:
448,192,67914,1,0,0:0:0:0:
320,192,68094,1,10,0:0:0:0:
448,192,68094,1,0,0:0:0:70:VEC3 Snares 001.wav
64,192,68273,1,2,0:0:0:0:
192,192,68273,1,0,0:0:0:0:
64,192,68453,1,2,0:0:0:0:
448,192,68453,1,0,0:0:0:70:VEC3 Snares 001.wav
192,192,68633,1,2,0:0:0:0:
320,192,68633,1,0,0:0:0:0:
64,192,68812,1,10,0:0:0:0:
320,192,68812,1,0,0:0:0:70:VEC3 Snares 001.wav
192,192,68992,1,2,0:0:0:0:
448,192,68992,1,0,0:0:0:0:
320,192,69172,1,2,0:0:0:0:
448,192,69172,1,0,0:0:0:70:VEC3 Snares 001.wav
64,192,69261,1,0,0:0:0:0:
192,192,69351,1,2,0:0:0:0:
320,192,69441,1,0,0:0:0:0:
64,192,69531,1,10,0:0:0:0:
192,192,69531,1,0,0:0:0:70:VEC3 Snares 001.wav
448,192,69621,1,0,0:0:0:0:
320,192,69710,1,2,0:0:0:0:
64,192,69800,1,0,0:0:0:0:
192,192,69890,1,2,0:0:0:0:
320,192,69890,1,0,0:0:0:70:VEC3 Snares 001.wav
448,192,69980,1,0,0:0:0:0:
64,192,70070,1,2,0:0:0:0:
192,192,70160,1,0,0:0:0:0:
320,192,70249,1,10,0:0:0:0:
448,192,70249,1,0,0:0:0:70:VEC3 Snares 001.wav
192,192,70339,1,0,0:0:0:0:
64,192,70429,1,2,0:0:0:0:
448,192,70519,1,0,0:0:0:0:
192,192,70609,1,2,0:0:0:0:
320,192,70609,1,0,0:0:0:70:VEC3 Snares 001.wav
64,192,70698,1,0,0:0:0:0:
448,192,70788,1,2,0:0:0:0:
320,192,70878,1,0,0:0:0:0:
64,192,70968,1,10,0:0:0:0:
192,192,70968,1,0,0:0:0:70:VEC3 Snares 001.wav
320,192,71058,1,0,0:0:0:0:
448,192,71148,1,2,0:0:0:0:
64,192,71237,1,0,0:0:0:0:
192,192,71327,1,2,0:0:0:0:
320,192,71327,1,0,0:0:0:70:VEC3 Snares 001.wav
448,192,71417,1,0,0:0:0:0:
64,192,71507,1,2,0:0:0:0:
192,192,71597,1,0,0:0:0:0:
320,192,71687,1,10,0:0:0:0:
448,192,71687,1,0,0:0:0:70:VEC3 Snares 001.wav
192,192,71776,1,0,0:0:0:0:
64,192,71866,1,2,0:0:0:0:
320,192,71956,1,0,0:0:0:0:
64,192,72046,1,2,0:0:0:0:
448,192,72046,1,0,0:0:0:0:
320,192,72136,1,2,0:0:0:0:
192,192,72225,1,2,0:0:0:0:
64,192,72315,1,2,0:0:0:0:
320,192,72405,1,2,0:0:0:0:
448,192,72405,1,8,0:0:0:0:
192,192,72495,1,2,0:0:0:0:
320,192,72585,1,2,0:0:0:0:
448,192,72675,1,2,0:0:0:0:
64,192,72764,1,2,0:0:0:0:
192,192,72764,1,0,0:0:0:0:
320,192,72854,1,2,0:0:0:0:
192,192,72944,1,2,0:0:0:0:
64,192,73034,1,2,0:0:0:0:
320,192,73124,1,2,0:0:0:0:
448,192,73124,1,8,0:0:0:0:
192,192,73213,1,2,0:0:0:0:
320,192,73303,1,2,0:0:0:0:
448,192,73393,1,2,0:0:0:0:
64,192,73483,1,2,0:0:0:0:
192,192,73483,1,0,0:0:0:0:
320,192,73573,1,2,0:0:0:0:
192,192,73663,1,2,0:0:0:0:
448,192,73752,1,2,0:0:0:0:
192,192,73842,1,2,0:0:0:0:
320,192,73842,1,8,0:0:0:0:
64,192,73932,1,2,0:0:0:0:
448,192,74022,1,2,0:0:0:0:
192,192,74112,1,2,0:0:0:0:
320,192,74201,1,2,0:0:0:0:
448,192,74201,1,0,0:0:0:0:
64,192,74291,1,2,0:0:0:0:
320,192,74381,1,2,0:0:0:0:
192,192,74471,1,2,0:0:0:0:
64,192,74561,1,2,0:0:0:0:
448,192,74561,1,8,0:0:0:0:
320,192,74651,1,2,0:0:0:0:
192,192,74740,1,2,0:0:0:0:
320,192,74830,1,2,0:0:0:0:
64,192,74920,128,2,77794:0:0:0:0:
448,192,74920,1,4,0:0:0:0:
448,192,77794,128,0,79231:0:0:0:0:
64,192,79591,1,0,0:0:0:0:
320,192,79950,1,0,0:0:0:0:
448,192,80130,1,0,0:0:0:0:
192,192,80309,128,0,80669:0:0:0:0:
64,192,80669,1,2,0:0:0:0:
320,192,80669,1,4,0:0:0:0:
448,192,80669,1,0,0:0:0:0:
192,192,80848,1,0,0:0:0:0:
320,192,80848,1,0,0:0:0:0:
64,192,81028,1,2,0:0:0:0:
448,192,81028,1,8,0:0:0:0:
192,192,81207,1,0,0:0:0:0:
448,192,81207,1,0,0:0:0:0:
64,192,81387,1,2,0:0:0:0:
320,192,81387,1,0,0:0:0:0:
448,192,81567,1,0,0:0:0:0:
64,192,81746,1,2,0:0:0:0:
192,192,81746,1,8,0:0:0:0:
320,192,81926,1,0,0:0:0:0:
64,192,82106,1,2,0:0:0:0:
448,192,82106,1,0,0:0:0:0:
192,192,82285,1,0,0:0:0:0:
320,192,82285,1,0,0:0:0:0:
64,192,82465,1,2,0:0:0:0:
448,192,82465,1,8,0:0:0:0:
320,192,82645,1,0,0:0:0:0:
448,192,82645,1,0,0:0:0:0:
64,192,82824,1,2,0:0:0:0:
192,192,82824,1,0,0:0:0:0:
192,192,83004,1,0,0:0:0:0:
448,192,83004,1,0,0:0:0:0:
64,192,83184,1,2,0:0:0:0:
320,192,83184,1,8,0:0:0:0:
192,192,83363,1,0,0:0:0:0:
320,192,83363,1,0,0:0:0:0:
64,192,83543,1,2,0:0:0:0:
448,192,83543,1,0,0:0:0:0:
64,192,83722,1,0,0:0:0:0:
192,192,83722,1,0,0:0:0:0:
320,192,83902,1,2,0:0:0:0:
448,192,83902,1,8,0:0:0:0:
64,192,84082,1,0,0:0:0:0:
448,192,84082,1,0,0:0:0:0:
192,192,84261,1,2,0:0:0:0:
320,192,84261,1,0,0:0:0:0:
64,192,84441,1,0,0:0:0:0:
320,192,84621,1,2,0:0:0:0:
448,192,84621,1,8,0:0:0:0:
192,192,84800,1,0,0:0:0:0:
64,192,84980,1,2,0:0:0:0:
448,192,84980,1,0,0:0:0:0:
192,192,85160,1,0,0:0:0:0:
320,192,85160,1,0,0:0:0:0:
64,192,85339,1,2,0:0:0:0:
448,192,85339,1,8,0:0:0:0:
192,192,85519,1,0,0:0:0:0:
448,192,85519,1,0,0:0:0:0:
192,192,85698,1,2,0:0:0:0:
320,192,85698,1,0,0:0:0:0:
64,192,85878,1,0,0:0:0:0:
320,192,85878,1,0,0:0:0:0:
192,192,86058,1,2,0:0:0:0:
448,192,86058,1,8,0:0:0:0:
192,192,86237,1,0,0:0:0:0:
320,192,86237,1,0,0:0:0:0:
64,192,86417,1,2,0:0:0:0:
448,192,86417,1,0,0:0:0:0:
64,192,86597,1,0,0:0:0:0:
192,192,86597,1,0,0:0:0:0:
320,192,86776,1,2,0:0:0:0:
448,192,86776,1,8,0:0:0:0:
64,192,86956,1,0,0:0:0:0:
320,192,86956,1,0,0:0:0:0:
64,192,87136,1,2,0:0:0:0:
448,192,87136,1,0,0:0:0:0:
192,192,87315,1,0,0:0:0:0:
64,192,87495,1,2,0:0:0:0:
448,192,87495,1,8,0:0:0:0:
320,192,87675,1,0,0:0:0:0:
192,192,87854,1,2,0:0:0:0:
448,192,87854,1,0,0:0:0:0:
64,192,88034,1,0,0:0:0:0:
320,192,88034,1,0,0:0:0:0:
64,192,88213,1,2,0:0:0:0:
448,192,88213,1,8,0:0:0:0:
192,192,88393,1,0,0:0:0:0:
320,192,88393,1,0,0:0:0:0:
64,192,88573,1,2,0:0:0:0:
320,192,88573,1,0,0:0:0:0:
192,192,88752,1,0,0:0:0:0:
448,192,88752,1,0,0:0:0:0:
64,192,88932,1,2,0:0:0:0:
448,192,88932,1,8,0:0:0:0:
192,192,89112,1,0,0:0:0:0:
320,192,89112,1,0,0:0:0:0:
192,192,89291,1,2,0:0:0:0:
448,192,89291,1,0,0:0:0:0:
64,192,89471,1,0,0:0:0:0:
448,192,89471,1,0,0:0:0:0:
192,192,89651,1,2,0:0:0:0:
320,192,89651,1,8,0:0:0:0:
64,192,89830,1,0,0:0:0:0:
448,192,89830,1,0,0:0:0:0:
64,192,90010,1,2,0:0:0:0:
192,192,90010,1,0,0:0:0:0:
448,192,90189,1,0,0:0:0:0:
192,192,90369,1,2,0:0:0:0:
320,192,90369,1,8,0:0:0:0:
64,192,90549,1,0,0:0:0:0:
320,192,90728,1,2,0:0:0:0:
448,192,90728,1,0,0:0:0:0:
64,192,90908,1,0,0:0:0:0:
192,192,90908,1,0,0:0:0:0:
64,192,91088,1,2,0:0:0:0:
448,192,91088,1,8,0:0:0:0:
192,192,91267,1,0,0:0:0:0:
448,192,91267,1,0,0:0:0:0:
192,192,91447,1,2,0:0:0:0:
320,192,91447,1,0,0:0:0:0:
64,192,91627,1,0,0:0:0:0:
448,192,91627,1,0,0:0:0:0:
64,192,91806,1,2,0:0:0:0:
320,192,91806,1,8,0:0:0:0:
192,192,91986,1,0,0:0:0:0:
320,192,91986,1,0,0:0:0:0:
64,192,92166,1,2,0:0:0:0:
448,192,92166,1,0,0:0:0:0:
192,192,92345,1,0,0:0:0:0:
448,192,92345,1,0,0:0:0:0:
64,192,92525,1,2,0:0:0:0:
320,192,92525,1,8,0:0:0:0:
64,192,92704,1,0,0:0:0:0:
448,192,92704,1,0,0:0:0:0:
192,192,92884,1,2,0:0:0:0:
448,192,92884,1,0,0:0:0:0:
320,192,93064,1,0,0:0:0:0:
64,192,93243,1,2,0:0:0:0:
192,192,93243,1,8,0:0:0:0:
448,192,93423,1,0,0:0:0:0:
192,192,93603,1,2,0:0:0:0:
320,192,93603,1,0,0:0:0:0:
64,192,93782,1,0,0:0:0:0:
448,192,93782,1,0,0:0:0:0:
64,192,93962,1,2,0:0:0:0:
320,192,93962,1,8,0:0:0:0:
192,192,94142,1,0,0:0:0:0:
448,192,94142,1,0,0:0:0:0:
192,192,94321,1,2,0:0:0:0:
320,192,94321,1,0,0:0:0:0:
64,192,94501,1,0,0:0:0:0:
448,192,94501,1,0,0:0:0:0:
192,192,94681,1,2,0:0:0:0:
320,192,94681,1,8,0:0:0:0:
64,192,94860,1,0,0:0:0:0:
320,192,94860,1,0,0:0:0:0:
64,192,95040,1,2,0:0:0:0:
448,192,95040,1,0,0:0:0:0:
192,192,95219,1,0,0:0:0:0:
320,192,95219,1,0,0:0:0:0:
64,192,95399,1,2,0:0:0:0:
448,192,95399,1,8,0:0:0:0:
192,192,95579,1,0,0:0:0:0:
448,192,95579,1,0,0:0:0:0:
64,192,95758,1,2,0:0:0:0:
320,192,95758,1,0,0:0:0:0:
192,192,95938,1,0,0:0:0:0:
320,192,96118,1,2,0:0:0:0:
448,192,96118,1,8,0:0:0:0:
64,192,96297,1,0,0:0:0:0:
192,192,96477,1,2,0:0:0:0:
320,192,96477,1,0,0:0:0:0:
64,192,96657,1,0,0:0:0:0:
448,192,96657,1,0,0:0:0:0:
192,192,96836,1,2,0:0:0:0:
448,192,96836,1,8,0:0:0:0:
192,192,97016,1,0,0:0:0:0:
320,192,97016,1,0,0:0:0:0:
64,192,97195,1,2,0:0:0:0:
448,192,97195,1,0,0:0:0:0:
64,192,97375,1,0,0:0:0:0:
320,192,97375,1,0,0:0:0:0:
192,192,97555,1,2,0:0:0:0:
448,192,97555,1,8,0:0:0:0:
64,192,97734,1,0,0:0:0:0:
448,192,97734,1,0,0:0:0:0:
192,192,97914,1,2,0:0:0:0:
320,192,97914,1,0,0:0:0:0:
64,192,98094,1,0,0:0:0:0:
320,192,98094,1,0,0:0:0:0:
192,192,98273,1,2,0:0:0:0:
448,192,98273,1,8,0:0:0:0:
64,192,98453,1,0,0:0:0:0:
448,192,98453,1,0,0:0:0:0:
192,192,98633,1,2,0:0:0:0:
320,192,98633,1,0,0:0:0:0:
448,192,98812,1,0,0:0:0:0:
64,192,98992,1,2,0:0:0:0:
320,192,98992,1,8,0:0:0:0:
192,192,99172,1,0,0:0:0:0:
64,192,99351,1,2,0:0:0:0:
448,192,99351,1,0,0:0:0:0:
192,192,99531,1,0,0:0:0:0:
320,192,99531,1,0,0:0:0:0:
64,192,99710,1,2,0:0:0:0:
448,192,99710,1,8,0:0:0:0:
320,192,99890,1,0,0:0:0:0:
448,192,99890,1,0,0:0:0:0:
64,192,100070,1,2,0:0:0:0:
192,192,100070,1,0,0:0:0:0:
192,192,100249,1,0,0:0:0:0:
320,192,100249,1,0,0:0:0:0:
64,192,100429,1,2,0:0:0:0:
448,192,100429,1,8,0:0:0:0:
192,192,100609,1,0,0:0:0:0:
448,192,100609,1,0,0:0:0:0:
64,192,100788,1,2,0:0:0:0:
320,192,100788,1,0,0:0:0:0:
192,192,100968,1,0,0:0:0:0:
320,192,100968,1,0,0:0:0:0:
64,192,101148,1,2,0:0:0:0:
448,192,101148,1,8,0:0:0:0:
64,192,101327,1,0,0:0:0:0:
320,192,101327,1,0,0:0:0:0:
192,192,101507,1,2,0:0:0:0:
448,192,101507,1,0,0:0:0:0:
320,192,101687,1,0,0:0:0:0:
64,192,101866,1,2,0:0:0:0:
192,192,101866,1,8,0:0:0:0:
320,192,102046,1,2,0:0:0:0:
448,192,102046,1,0,0:0:0:0:
64,192,102225,1,2,0:0:0:0:
448,192,102225,1,4,0:0:0:0:
192,192,102315,1,0,0:0:0:70:VEC3 Snares 001.wav
320,192,102405,1,0,0:0:0:70:VEC3 Snares 001.wav
64,192,102495,1,0,0:0:0:70:VEC3 Snares 001.wav
448,192,102585,1,0,0:0:0:70:VEC3 Snares 001.wav
192,192,102675,1,0,0:0:0:70:VEC3 Snares 001.wav
320,192,102764,1,0,0:0:0:70:VEC3 Snares 001.wav
64,192,102854,1,0,0:0:0:70:VEC3 Snares 001.wav
320,192,102944,1,2,0:0:0:0:
448,192,102944,1,0,0:0:0:70:VEC3 Snares 001.wav
64,192,103124,1,2,0:0:0:0:
192,192,103124,1,0,0:0:0:70:VEC3 Snares 001.wav
320,192,103303,1,2,0:0:0:0:
448,192,103303,1,0,0:0:0:70:VEC3 Snares 001.wav
64,192,103393,1,2,0:0:0:0:
320,192,103483,1,2,0:0:0:0:
192,192,103573,1,2,0:0:0:0:
64,192,103663,1,2,0:0:0:0:
448,192,103663,1,4,0:0:0:0:
192,192,103842,1,0,0:0:0:0:
320,192,103842,1,0,0:0:0:0:
320,192,104022,1,2,0:0:0:0:
448,192,104022,1,8,0:0:0:0:
64,192,104201,1,0,0:0:0:0:
192,192,104201,1,0,0:0:0:0:
64,192,104381,1,2,0:0:0:0:
448,192,104381,1,0,0:0:0:0:
320,192,104561,1,0,0:0:0:0:
64,192,104740,1,2,0:0:0:0:
448,192,104740,1,8,0:0:0:0:
192,192,104920,1,0,0:0:0:0:
64,192,105100,1,2,0:0:0:0:
448,192,105100,1,0,0:0:0:0:
64,192,105279,1,0,0:0:0:0:
320,192,105279,1,0,0:0:0:0:
192,192,105459,1,2,0:0:0:0:
448,192,105459,1,8,0:0:0:0:
192,192,105639,1,0,0:0:0:0:
320,192,105639,1,0,0:0:0:0:
64,192,105818,1,2,0:0:0:0:
448,192,105818,1,0,0:0:0:0:
64,192,105998,1,0,0:0:0:0:
192,192,105998,1,0,0:0:0:0:
320,192,106178,1,2,0:0:0:0:
448,192,106178,1,8,0:0:0:0:
64,192,106357,1,0,0:0:0:0:
320,192,106357,1,0,0:0:0:0:
192,192,106537,1,2,0:0:0:0:
448,192,106537,1,0,0:0:0:0:
64,192,106716,1,0,0:0:0:0:
448,192,106716,1,0,0:0:0:0:
64,192,106896,1,2,0:0:0:0:
192,192,106896,1,8,0:0:0:0:
320,192,107076,1,0,0:0:0:0:
448,192,107076,1,0,0:0:0:0:
64,192,107255,1,2,0:0:0:0:
448,192,107255,1,0,0:0:0:0:
192,192,107435,1,0,0:0:0:0:
64,192,107615,1,2,0:0:0:0:
448,192,107615,1,8,0:0:0:0:
320,192,107794,1,0,0:0:0:0:
64,192,107974,1,2,0:0:0:0:
448,192,107974,1,0,0:0:0:0:
192,192,108154,1,0,0:0:0:0:
320,192,108154,1,0,0:0:0:0:
64,192,108333,1,2,0:0:0:0:
448,192,108333,1,8,0:0:0:0:
64,192,108513,1,0,0:0:0:0:
320,192,108513,1,0,0:0:0:0:
192,192,108692,1,2,0:0:0:0:
320,192,108692,1,0,0:0:0:0:
64,192,108872,1,0,0:0:0:0:
448,192,108872,1,0,0:0:0:0:
64,192,109052,1,2,0:0:0:0:
320,192,109052,1,8,0:0:0:0:
192,192,109231,1,0,0:0:0:0:
448,192,109231,1,0,0:0:0:0:
64,192,109411,1,2,0:0:0:0:
448,192,109411,1,0,0:0:0:0:
64,192,109591,1,0,0:0:0:0:
192,192,109591,1,0,0:0:0:0:
320,192,109770,1,2,0:0:0:0:
448,192,109770,1,8,0:0:0:0:
64,192,109950,1,0,0:0:0:0:
448,192,109950,1,0,0:0:0:0:
192,192,110130,1,2,0:0:0:0:
320,192,110130,1,0,0:0:0:0:
448,192,110309,1,0,0:0:0:0:
64,192,110489,1,2,0:0:0:0:
192,192,110489,1,8,0:0:0:0:
320,192,110669,1,0,0:0:0:0:
64,192,110848,1,2,0:0:0:0:
448,192,110848,1,0,0:0:0:0:
192,192,111028,1,0,0:0:0:0:
320,192,111028,1,0,0:0:0:0:
192,192,111207,1,2,0:0:0:0:
448,192,111207,1,8,0:0:0:0:
64,192,111387,1,0,0:0:0:0:
448,192,111387,1,0,0:0:0:0:
192,192,111567,1,2,0:0:0:0:
320,192,111567,1,0,0:0:0:0:
64,192,111746,1,0,0:0:0:0:
320,192,111746,1,0,0:0:0:0:
192,192,111926,1,2,0:0:0:0:
448,192,111926,1,8,0:0:0:0:
64,192,112106,1,0,0:0:0:0:
448,192,112106,1,0,0:0:0:0:
192,192,112285,1,2,0:0:0:0:
320,192,112285,1,0,0:0:0:0:
192,192,112465,1,0,0:0:0:0:
448,192,112465,1,0,0:0:0:0:
64,192,112645,1,2,0:0:0:0:
320,192,112645,1,8,0:0:0:0:
64,192,112824,1,0,0:0:0:0:
448,192,112824,1,0,0:0:0:0:
192,192,113004,1,2,0:0:0:0:
320,192,113004,1,0,0:0:0:0:
64,192,113184,1,0,0:0:0:0:
320,192,113363,1,2,0:0:0:0:
448,192,113363,1,8,0:0:0:0:
192,192,113543,1,0,0:0:0:0:
64,192,113722,1,2,0:0:0:0:
448,192,113722,1,0,0:0:0:0:
192,192,113902,1,0,0:0:0:0:
448,192,113902,1,0,0:0:0:0:
192,192,114082,1,2,0:0:0:0:
320,192,114082,1,8,0:0:0:0:
64,192,114261,1,0,0:0:0:0:
448,192,114261,1,0,0:0:0:0:
64,192,114441,1,2,0:0:0:0:
320,192,114441,1,0,0:0:0:0:
192,192,114621,1,0,0:0:0:0:
448,192,114621,1,0,0:0:0:0:
64,192,114800,1,2,0:0:0:0:
448,192,114800,1,8,0:0:0:0:
192,192,114980,1,0,0:0:0:0:
320,192,114980,1,0,0:0:0:0:
64,192,115160,1,2,0:0:0:0:
320,192,115160,1,0,0:0:0:0:
64,192,115339,1,0,0:0:0:0:
448,192,115339,1,0,0:0:0:0:
192,192,115519,1,2,0:0:0:0:
320,192,115519,1,8,0:0:0:0:
192,192,115698,1,0,0:0:0:0:
448,192,115698,1,0,0:0:0:0:
64,192,115878,1,2,0:0:0:0:
320,192,115878,1,0,0:0:0:0:
448,192,116058,1,0,0:0:0:0:
192,192,116237,1,2,0:0:0:0:
320,192,116237,1,8,0:0:0:0:
64,192,116417,1,0,0:0:0:0:
192,192,116597,1,2,0:0:0:0:
448,192,116597,1,0,0:0:0:0:
192,192,116776,1,0,0:0:0:0:
320,192,116776,1,0,0:0:0:0:
64,192,116956,1,2,0:0:0:0:
448,192,116956,1,8,0:0:0:0:
192,192,117136,1,0,0:0:0:0:
320,192,117136,1,0,0:0:0:0:
64,192,117315,1,2,0:0:0:0:
320,192,117315,1,0,0:0:0:0:
192,192,117495,1,0,0:0:0:0:
448,192,117495,1,0,0:0:0:0:
64,192,117675,1,2,0:0:0:0:
320,192,117675,1,8,0:0:0:0:
64,192,117854,1,0,0:0:0:0:
448,192,117854,1,0,0:0:0:0:
192,192,118034,1,2,0:0:0:0:
320,192,118034,1,0,0:0:0:0:
192,192,118213,1,0,0:0:0:0:
448,192,118213,1,0,0:0:0:0:
64,192,118393,1,2,0:0:0:0:
448,192,118393,1,8,0:0:0:0:
64,192,118573,1,0,0:0:0:0:
320,192,118573,1,0,0:0:0:0:
192,192,118752,1,2,0:0:0:0:
448,192,118752,1,0,0:0:0:0:
64,192,118932,1,0,0:0:0:0:
192,192,119112,1,2,0:0:0:0:
320,192,119112,1,8,0:0:0:0:
448,192,119291,1,0,0:0:0:0:
64,192,119471,1,2,0:0:0:0:
320,192,119471,1,0,0:0:0:0:
64,192,119651,1,0,0:0:0:0:
448,192,119651,1,0,0:0:0:0:
192,192,119830,1,2,0:0:0:0:
320,192,119830,1,8,0:0:0:0:
64,192,120010,1,0,0:0:0:0:
320,192,120010,1,0,0:0:0:0:
192,192,120189,1,2,0:0:0:0:
448,192,120189,1,0,0:0:0:0:
192,192,120369,1,0,0:0:0:0:
320,192,120369,1,0,0:0:0:0:
64,192,120549,1,2,0:0:0:0:
448,192,120549,1,8,0:0:0:0:
192,192,120728,1,0,0:0:0:0:
320,192,120728,1,0,0:0:0:0:
64,192,120908,1,4,0:0:0:0:
320,192,120908,1,2,0:0:0:0:
448,192,120908,1,0,0:0:0:70:VEC3 Snares 001.wav
64,192,121088,1,2,0:0:0:0:
320,192,121088,1,0,0:0:0:70:VEC3 Snares 001.wav
192,192,121267,1,10,0:0:0:0:
448,192,121267,1,0,0:0:0:70:VEC3 Snares 001.wav
192,192,121447,1,2,0:0:0:0:
320,192,121447,1,0,0:0:0:70:VEC3 Snares 001.wav
64,192,121627,1,2,0:0:0:0:
448,192,121627,1,0,0:0:0:70:VEC3 Snares 001.wav
192,192,121806,1,2,0:0:0:0:
448,192,121806,1,0,0:0:0:70:VEC3 Snares 001.wav
64,192,121986,1,10,0:0:0:0:
320,192,121986,1,0,0:0:0:70:VEC3 Snares 001.wav
192,192,122166,1,2,0:0:0:0:
320,192,122166,1,0,0:0:0:70:VEC3 Snares 001.wav
64,192,122345,1,2,0:0:0:0:
192,192,122345,1,4,0:0:0:0:
448,192,122345,1,0,0:0:0:70:VEC3 Snares 001.wav
192,192,122525,1,2,0:0:0:0:
448,192,122525,1,0,0:0:0:70:VEC3 Snares 001.wav
64,192,122704,1,10,0:0:0:0:
320,192,122704,1,0,0:0:0:70:VEC3 Snares 001.wav
192,192,122884,1,2,0:0:0:0:
320,192,122884,1,0,0:0:0:70:VEC3 Snares 001.wav
64,192,123064,1,2,0:0:0:0:
448,192,123064,1,0,0:0:0:70:VEC3 Snares 001.wav
64,192,123243,1,2,0:0:0:0:
320,192,123243,1,0,0:0:0:70:VEC3 Snares 001.wav
192,192,123423,1,10,0:0:0:0:
320,192,123423,1,0,0:0:0:70:VEC3 Snares 001.wav
64,192,123603,1,2,0:0:0:0:
448,192,123603,1,0,0:0:0:70:VEC3 Snares 001.wav
64,192,123782,1,2,0:0:0:0:
192,192,123782,1,4,0:0:0:0:
448,192,123782,1,0,0:0:0:0:
320,192,123872,1,2,0:0:0:0:
64,192,123962,1,2,0:0:0:0:
448,192,124052,1,2,0:0:0:0:
192,192,124142,1,10,0:0:0:0:
320,192,124231,1,2,0:0:0:0:
64,192,124321,1,2,0:0:0:0:
320,192,124411,1,2,0:0:0:0:
64,192,124501,1,2,0:0:0:0:
448,192,124501,1,4,0:0:0:0:
192,192,124591,1,2,0:0:0:0:
320,192,124681,1,2,0:0:0:0:
64,192,124770,1,2,0:0:0:0:
320,192,124860,1,10,0:0:0:0:
448,192,124950,1,2,0:0:0:0:
192,192,125040,1,2,0:0:0:0:
320,192,125130,1,2,0:0:0:0:
64,192,125219,1,2,0:0:0:0:
448,192,125219,1,4,0:0:0:0:
192,192,125309,1,0,0:0:0:70:VEC3 Snares 001.wav
320,192,125399,1,0,0:0:0:70:VEC3 Snares 001.wav
448,192,125489,1,0,0:0:0:70:VEC3 Snares 001.wav
64,192,125579,1,0,0:0:0:70:VEC3 Snares 001.wav
192,192,125579,1,0,0:0:0:70:amenbreak_snare3.wav
320,192,125669,1,0,0:0:0:70:VEC3 Snares 001.wav
192,192,125758,1,0,0:0:0:70:VEC3 Snares 001.wav
64,192,125848,1,0,0:0:0:70:VEC3 Snares 001.wav
320,192,125938,1,2,0:0:0:0:
448,192,125938,1,0,0:0:0:70:VEC3 Snares 001.wav
320,192,126118,1,2,0:0:0:0:
448,192,126118,1,0,0:0:0:70:VEC3 Snares 001.wav
64,192,126297,1,2,0:0:0:0:
192,192,126297,1,0,0:0:0:70:VEC3 Snares 001.wav
448,192,126387,1,2,0:0:0:0:
192,192,126477,1,2,0:0:0:0:
320,192,126567,1,2,0:0:0:0:
64,192,126657,1,2,0:0:0:0:
448,192,126657,1,4,0:0:0:0:
192,192,126836,1,0,0:0:0:0:
320,192,126836,1,0,0:0:0:0:
64,192,127016,1,2,0:0:0:0:
320,192,127016,1,8,0:0:0:0:
192,192,127195,1,0,0:0:0:0:
448,192,127195,1,0,0:0:0:0:
192,192,127375,1,2,0:0:0:0:
320,192,127375,1,0,0:0:0:0:
448,192,127555,1,0,0:0:0:0:
64,192,127734,128,2,127914:0:0:0:0:
192,192,127734,1,8,0:0:0:0:
320,192,127914,1,0,0:0:0:0:
64,192,128094,1,2,0:0:0:0:
448,192,128094,128,0,128273:0:0:0:0:
192,192,128273,1,0,0:0:0:0:
64,192,128453,1,2,0:0:0:0:
320,192,128453,1,8,0:0:0:0:
192,192,128633,1,0,0:0:0:0:
448,192,128633,1,0,0:0:0:0:
192,192,128812,1,2,0:0:0:0:
320,192,128812,1,0,0:0:0:0:
64,192,128992,1,0,0:0:0:0:
448,192,128992,1,0,0:0:0:0:
64,192,129172,1,2,0:0:0:0:
320,192,129172,1,8,0:0:0:0:
192,192,129351,1,0,0:0:0:0:
320,192,129351,1,0,0:0:0:0:
64,192,129531,128,2,129710:0:0:0:0:
448,192,129531,1,0,0:0:0:0:
192,192,129710,1,0,0:0:0:0:
64,192,129890,1,2,0:0:0:0:
448,192,129890,1,8,0:0:0:0:
192,192,130070,1,0,0:0:0:0:
448,192,130070,1,0,0:0:0:0:
64,192,130249,1,2,0:0:0:0:
320,192,130249,1,0,0:0:0:0:
192,192,130429,1,0,0:0:0:0:
320,192,130609,1,2,0:0:0:0:
448,192,130609,128,8,130788:0:0:0:0:
192,192,130788,1,0,0:0:0:0:
64,192,130968,128,2,131148:0:0:0:0:
448,192,130968,1,0,0:0:0:0:
320,192,131148,1,0,0:0:0:0:
64,192,131327,1,2,0:0:0:0:
448,192,131327,1,8,0:0:0:0:
192,192,131507,1,0,0:0:0:0:
320,192,131507,1,0,0:0:0:0:
192,192,131687,1,2,0:0:0:0:
448,192,131687,1,0,0:0:0:0:
64,192,131866,1,0,0:0:0:0:
320,192,131866,1,0,0:0:0:0:
64,192,132046,1,2,0:0:0:0:
192,192,132046,1,8,0:0:0:0:
320,192,132225,1,0,0:0:0:0:
448,192,132225,1,0,0:0:0:0:
64,192,132405,1,2,0:0:0:0:
448,192,132405,128,0,132585:0:0:0:0:
320,192,132585,1,0,0:0:0:0:
64,192,132764,1,2,0:0:0:0:
448,192,132764,1,8,0:0:0:0:
192,192,132944,1,0,0:0:0:0:
320,192,132944,1,0,0:0:0:0:
64,192,133124,1,2,0:0:0:0:
320,192,133124,1,0,0:0:0:0:
448,192,133303,1,0,0:0:0:0:
192,192,133483,128,2,133663:0:0:0:0:
320,192,133483,1,8,0:0:0:0:
64,192,133663,1,0,0:0:0:0:
320,192,133842,1,2,0:0:0:0:
448,192,133842,128,0,134022:0:0:0:0:
192,192,134022,1,0,0:0:0:0:
64,192,134201,1,2,0:0:0:0:
448,192,134201,1,8,0:0:0:0:
192,192,134381,1,0,0:0:0:0:
320,192,134381,1,0,0:0:0:0:
64,192,134561,1,2,0:0:0:0:
320,192,134561,1,0,0:0:0:0:
192,192,134740,1,0,0:0:0:0:
448,192,134740,1,0,0:0:0:0:
192,192,134920,1,2,0:0:0:0:
320,192,134920,1,8,0:0:0:0:
64,192,135100,1,0,0:0:0:0:
448,192,135100,1,0,0:0:0:0:
192,192,135279,128,2,135459:0:0:0:0:
448,192,135279,1,0,0:0:0:0:
64,192,135459,1,0,0:0:0:0:
192,192,135639,1,2,0:0:0:0:
320,192,135639,1,8,0:0:0:0:
64,192,135818,1,0,0:0:0:0:
320,192,135818,1,0,0:0:0:0:
192,192,135998,1,2,0:0:0:0:
448,192,135998,1,0,0:0:0:0:
64,192,136178,1,0,0:0:0:0:
192,192,136357,1,2,0:0:0:0:
320,192,136357,128,8,136537:0:0:0:0:
448,192,136537,1,0,0:0:0:0:
64,192,136716,128,2,136896:0:0:0:0:
192,192,136716,1,0,0:0:0:0:
320,192,136896,1,0,0:0:0:0:
64,192,137076,1,2,0:0:0:0:
448,192,137076,1,8,0:0:0:0:
192,192,137255,1,0,0:0:0:0:
320,192,137255,1,0,0:0:0:0:
192,192,137435,1,2,0:0:0:0:
448,192,137435,1,0,0:0:0:0:
64,192,137615,1,0,0:0:0:0:
320,192,137615,1,0,0:0:0:0:
192,192,137794,1,2,0:0:0:0:
320,192,137794,1,8,0:0:0:0:
64,192,137974,1,0,0:0:0:0:
448,192,137974,1,0,0:0:0:0:
64,192,138154,1,2,0:0:0:0:
320,192,138154,128,0,138333:0:0:0:0:
448,192,138333,1,0,0:0:0:0:
192,192,138513,1,2,0:0:0:0:
320,192,138513,1,8,0:0:0:0:
64,192,138692,1,0,0:0:0:0:
448,192,138692,1,0,0:0:0:0:
320,192,138872,1,2,0:0:0:0:
448,192,138872,1,0,0:0:0:0:
192,192,139052,1,0,0:0:0:0:
64,192,139231,128,2,139411:0:0:0:0:
320,192,139231,1,8,0:0:0:0:
192,192,139411,1,0,0:0:0:0:
320,192,139591,1,2,0:0:0:0:
448,192,139591,128,0,139770:0:0:0:0:
64,192,139770,1,0,0:0:0:0:
192,192,139950,1,2,0:0:0:0:
448,192,139950,1,8,0:0:0:0:
64,192,140130,1,0,0:0:0:0:
320,192,140130,1,0,0:0:0:0:
192,192,140309,1,2,0:0:0:0:
320,192,140309,1,0,0:0:0:0:
192,192,140489,1,0,0:0:0:0:
448,192,140489,1,0,0:0:0:0:
64,192,140669,1,2,0:0:0:0:
320,192,140669,1,8,0:0:0:0:
64,192,140848,1,0,0:0:0:0:
448,192,140848,1,0,0:0:0:0:
192,192,141028,128,2,141207:0:0:0:0:
448,192,141028,1,0,0:0:0:0:
64,192,141207,1,0,0:0:0:0:
192,192,141387,1,2,0:0:0:0:
320,192,141387,1,8,0:0:0:0:
64,192,141567,1,0,0:0:0:0:
448,192,141567,1,0,0:0:0:0:
64,192,141746,1,2,0:0:0:0:
192,192,141746,1,0,0:0:0:0:
320,192,141926,1,0,0:0:0:0:
192,192,142106,1,2,0:0:0:0:
448,192,142106,128,8,142285:0:0:0:0:
320,192,142285,1,0,0:0:0:0:
64,192,142465,128,2,142645:0:0:0:0:
192,192,142465,1,0,0:0:0:0:
320,192,142645,1,0,0:0:0:0:
64,192,142824,1,2,0:0:0:0:
448,192,142824,1,8,0:0:0:0:
64,192,143004,1,0,0:0:0:0:
320,192,143004,1,0,0:0:0:0:
192,192,143184,1,2,0:0:0:0:
448,192,143184,1,0,0:0:0:0:
192,192,143363,1,0,0:0:0:0:
320,192,143363,1,0,0:0:0:0:
64,192,143543,1,2,0:0:0:0:
448,192,143543,1,8,0:0:0:0:
192,192,143722,1,0,0:0:0:0:
320,192,143722,1,0,0:0:0:0:
64,192,143902,1,2,0:0:0:0:
448,192,143902,128,0,144082:0:0:0:0:
320,192,144082,1,0,0:0:0:0:
64,192,144261,1,2,0:0:0:0:
192,192,144261,1,8,0:0:0:0:
320,192,144441,1,0,0:0:0:0:
448,192,144441,1,0,0:0:0:0:
64,192,144621,1,2,0:0:0:0:
448,192,144621,1,0,0:0:0:0:
192,192,144800,1,0,0:0:0:0:
64,192,144980,1,2,0:0:0:0:
320,192,144980,128,8,145160:0:0:0:0:
448,192,145160,1,0,0:0:0:0:
192,192,145339,128,2,145519:0:0:0:0:
320,192,145339,1,0,0:0:0:0:
64,192,145519,1,0,0:0:0:0:
64,192,145698,1,2,0:0:0:0:
448,192,145698,1,8,0:0:0:0:
192,192,145878,1,0,0:0:0:0:
448,192,145878,1,0,0:0:0:0:
64,192,146058,1,2,0:0:0:0:
320,192,146058,1,0,0:0:0:0:
192,192,146237,1,0,0:0:0:0:
320,192,146237,1,0,0:0:0:0:
64,192,146417,1,2,0:0:0:0:
448,192,146417,1,8,0:0:0:0:
192,192,146597,1,0,0:0:0:0:
320,192,146597,1,0,0:0:0:0:
64,192,146776,128,2,146956:0:0:0:0:
448,192,146776,1,0,0:0:0:0:
192,192,146956,1,0,0:0:0:0:
320,192,147136,1,2,0:0:0:0:
448,192,147136,1,8,0:0:0:0:
64,192,147315,1,0,0:0:0:0:
448,192,147315,1,0,0:0:0:0:
192,192,147495,1,2,0:0:0:0:
320,192,147495,1,0,0:0:0:0:
448,192,147675,1,0,0:0:0:0:
64,192,147854,1,2,0:0:0:0:
192,192,147854,1,8,0:0:0:0:
320,192,148034,1,2,0:0:0:0:
448,192,148034,1,0,0:0:0:0:
64,192,148213,1,2,0:0:0:0:
448,192,148213,1,4,0:0:0:0:
192,192,148303,1,0,0:0:0:70:VEC3 Snares 001.wav
320,192,148393,1,0,0:0:0:70:VEC3 Snares 001.wav
64,192,148483,1,0,0:0:0:70:VEC3 Snares 001.wav
192,192,148573,1,0,0:0:0:70:VEC3 Snares 001.wav
320,192,148573,1,0,0:0:0:0:
448,192,148663,1,0,0:0:0:70:VEC3 Snares 001.wav
192,192,148752,1,0,0:0:0:70:VEC3 Snares 001.wav
64,192,148842,1,0,0:0:0:70:VEC3 Snares 001.wav
320,192,148932,1,2,0:0:0:0:
448,192,148932,1,0,0:0:0:70:VEC3 Snares 001.wav
64,192,149112,1,2,0:0:0:0:
192,192,149112,1,0,0:0:0:70:VEC3 Snares 001.wav
64,192,149291,1,2,0:0:0:0:
192,192,149291,1,0,0:0:0:70:VEC3 Snares 001.wav
448,192,149381,1,2,0:0:0:0:
192,192,149471,1,2,0:0:0:0:
320,192,149561,1,2,0:0:0:0:
64,192,149651,1,2,0:0:0:0:
448,192,149651,1,4,0:0:0:0:
192,192,149830,1,0,0:0:0:0:
320,192,149830,1,0,0:0:0:0:
192,192,150010,1,2,0:0:0:0:
448,192,150010,1,8,0:0:0:0:
64,192,150189,1,0,0:0:0:0:
448,192,150189,1,0,0:0:0:0:
192,192,150369,1,2,0:0:0:0:
320,192,150369,1,0,0:0:0:0:
320,192,150549,1,0,0:0:0:0:
64,192,150728,128,2,150908:0:0:0:0:
448,192,150728,1,8,0:0:0:0:
192,192,150908,1,0,0:0:0:0:
320,192,151088,1,2,0:0:0:0:
448,192,151088,128,0,151267:0:0:0:0:
64,192,151267,1,0,0:0:0:0:
192,192,151447,1,2,0:0:0:0:
448,192,151447,1,8,0:0:0:0:
64,192,151627,1,0,0:0:0:0:
320,192,151627,1,0,0:0:0:0:
192,192,151806,1,2,0:0:0:0:
320,192,151806,1,0,0:0:0:0:
64,192,151986,1,0,0:0:0:0:
448,192,151986,1,0,0:0:0:0:
192,192,152166,1,2,0:0:0:0:
448,192,152166,1,8,0:0:0:0:
192,192,152345,1,0,0:0:0:0:
320,192,152345,1,0,0:0:0:0:
64,192,152525,1,2,0:0:0:0:
320,192,152525,128,0,152704:0:0:0:0:
448,192,152704,1,0,0:0:0:0:
192,192,152884,1,2,0:0:0:0:
320,192,152884,1,8,0:0:0:0:
64,192,153064,1,0,0:0:0:0:
320,192,153064,1,0,0:0:0:0:
192,192,153243,1,2,0:0:0:0:
448,192,153243,1,0,0:0:0:0:
192,192,153423,1,0,0:0:0:0:
320,192,153603,1,2,0:0:0:0:
448,192,153603,128,8,153782:0:0:0:0:
192,192,153782,1,0,0:0:0:0:
64,192,153962,128,2,154142:0:0:0:0:
448,192,153962,1,0,0:0:0:0:
320,192,154142,1,0,0:0:0:0:
192,192,154321,1,2,0:0:0:0:
448,192,154321,1,8,0:0:0:0:
64,192,154501,1,0,0:0:0:0:
320,192,154501,1,0,0:0:0:0:
192,192,154681,1,2,0:0:0:0:
320,192,154681,1,0,0:0:0:0:
64,192,154860,1,0,0:0:0:0:
448,192,154860,1,0,0:0:0:0:
192,192,155040,1,2,0:0:0:0:
448,192,155040,1,8,0:0:0:0:
192,192,155219,1,0,0:0:0:0:
320,192,155219,1,0,0:0:0:0:
64,192,155399,128,2,155579:0:0:0:0:
448,192,155399,1,0,0:0:0:0:
320,192,155579,1,0,0:0:0:0:
64,192,155758,1,2,0:0:0:0:
448,192,155758,1,8,0:0:0:0:
64,192,155938,1,0,0:0:0:0:
320,192,155938,1,0,0:0:0:0:
192,192,156118,1,2,0:0:0:0:
448,192,156118,1,0,0:0:0:0:
448,192,156297,1,0,0:0:0:0:
64,192,156477,1,2,0:0:0:0:
192,192,156477,128,8,156657:0:0:0:0:
320,192,156657,1,0,0:0:0:0:
64,192,156836,1,2,0:0:0:0:
448,192,156836,128,0,157016:0:0:0:0:
320,192,157016,1,0,0:0:0:0:
64,192,157195,1,2,0:0:0:0:
448,192,157195,1,8,0:0:0:0:
64,192,157375,1,0,0:0:0:0:
320,192,157375,1,0,0:0:0:0:
192,192,157555,1,2,0:0:0:0:
448,192,157555,1,0,0:0:0:0:
192,192,157734,1,0,0:0:0:0:
320,192,157734,1,0,0:0:0:0:
64,192,157914,1,2,0:0:0:0:
448,192,157914,1,8,0:0:0:0:
192,192,158094,1,0,0:0:0:0:
320,192,158094,1,0,0:0:0:0:
64,192,158273,1,2,0:0:0:0:
448,192,158273,128,0,158453:0:0:0:0:
320,192,158453,1,0,0:0:0:0:
64,192,158633,1,2,0:0:0:0:
448,192,158633,1,8,0:0:0:0:
192,192,158812,1,0,0:0:0:0:
448,192,158812,1,0,0:0:0:0:
64,192,158992,1,2,0:0:0:0:
320,192,158992,1,0,0:0:0:0:
64,192,159172,1,0,0:0:0:0:
320,192,159351,128,2,159531:0:0:0:0:
448,192,159351,1,8,0:0:0:0:
192,192,159531,1,0,0:0:0:0:
64,192,159710,128,2,159890:0:0:0:0:
448,192,159710,1,0,0:0:0:0:
192,192,159890,1,0,0:0:0:0:
320,192,160070,1,2,0:0:0:0:
448,192,160070,1,8,0:0:0:0:
64,192,160249,1,0,0:0:0:0:
192,192,160249,1,0,0:0:0:0:
64,192,160429,1,2,0:0:0:0:
448,192,160429,1,0,0:0:0:0:
192,192,160698,1,2,0:0:0:0:
320,192,160698,1,0,0:0:0:0:
64,192,160788,1,2,0:0:0:0:
448,192,160788,1,8,0:0:0:0:
192,192,160968,1,2,0:0:0:0:
320,192,160968,1,0,0:0:0:0:
64,192,161148,1,2,0:0:0:0:
448,192,161148,1,4,0:0:0:0:
320,192,161327,1,0,0:0:0:0:
64,192,161507,1,8,0:0:0:0:
192,192,161507,1,0,0:0:0:0:
448,192,161687,1,0,0:0:0:0:
64,192,161866,1,0,0:0:0:0:
448,192,162046,1,0,0:0:0:0:
64,192,162225,1,8,0:0:0:0:
192,192,162225,1,0,0:0:0:0:
320,192,162405,1,0,0:0:0:0:
64,192,162585,1,0,0:0:0:0:
448,192,162585,1,0,0:0:0:0:
192,192,162764,1,0,0:0:0:0:
320,192,162944,1,8,0:0:0:0:
448,192,162944,1,0,0:0:0:0:
64,192,163124,1,0,0:0:0:0:
448,192,163303,1,0,0:0:0:0:
64,192,163483,1,0,0:0:0:0:
320,192,163663,1,8,0:0:0:0:
448,192,163663,1,0,0:0:0:0:
64,192,163842,1,0,0:0:0:0:
192,192,164022,1,0,0:0:0:0:
320,192,164022,1,0,0:0:0:0:
448,192,164201,1,0,0:0:0:0:
64,192,164381,1,8,0:0:0:0:
192,192,164381,1,0,0:0:0:0:
448,192,164561,1,0,0:0:0:0:
64,192,164740,1,0,0:0:0:0:
448,192,164920,1,0,0:0:0:0:
64,192,165100,1,8,0:0:0:0:
192,192,165100,1,0,0:0:0:0:
320,192,165279,1,0,0:0:0:0:
64,192,165459,1,0,0:0:0:0:
448,192,165459,1,0,0:0:0:0:
192,192,165639,1,0,0:0:0:0:
64,192,165818,1,8,0:0:0:0:
448,192,165818,1,0,0:0:0:0:
320,192,165998,1,0,0:0:0:0:
192,192,166178,1,0,0:0:0:0:
320,192,166357,1,0,0:0:0:0:
64,192,166537,1,8,0:0:0:0:
448,192,166537,1,0,0:0:0:0:
192,192,166716,1,0,0:0:0:0:
64,192,166896,1,4,0:0:0:0:
320,192,166896,1,2,0:0:0:0:
448,192,166896,1,0,0:0:0:70:VEC3 Snares 001.wav
320,192,167076,1,2,0:0:0:0:
448,192,167076,1,0,0:0:0:70:VEC3 Snares 001.wav
64,192,167255,1,10,0:0:0:0:
192,192,167255,1,0,0:0:0:70:VEC3 Snares 001.wav
64,192,167435,1,2,0:0:0:0:
192,192,167435,1,0,0:0:0:70:VEC3 Snares 001.wav
192,192,167615,1,2,0:0:0:0:
448,192,167615,1,0,0:0:0:70:VEC3 Snares 001.wav
192,192,167794,1,2,0:0:0:0:
448,192,167794,1,0,0:0:0:70:VEC3 Snares 001.wav
64,192,167974,1,10,0:0:0:0:
320,192,167974,1,0,0:0:0:70:VEC3 Snares 001.wav
64,192,168154,1,2,0:0:0:0:
320,192,168154,1,0,0:0:0:70:VEC3 Snares 001.wav
64,192,168333,1,2,0:0:0:0:
192,192,168333,1,4,0:0:0:0:
448,192,168333,1,0,0:0:0:70:VEC3 Snares 001.wav
192,192,168513,1,2,0:0:0:0:
448,192,168513,1,0,0:0:0:70:VEC3 Snares 001.wav
64,192,168692,1,10,0:0:0:0:
320,192,168692,1,0,0:0:0:70:VEC3 Snares 001.wav
64,192,168872,1,2,0:0:0:0:
320,192,168872,1,0,0:0:0:70:VEC3 Snares 001.wav
192,192,169052,1,2,0:0:0:0:
320,192,169052,1,0,0:0:0:70:VEC3 Snares 001.wav
192,192,169231,1,2,0:0:0:0:
320,192,169231,1,0,0:0:0:70:VEC3 Snares 001.wav
64,192,169411,1,10,0:0:0:0:
448,192,169411,1,0,0:0:0:70:VEC3 Snares 001.wav
64,192,169591,1,2,0:0:0:0:
448,192,169591,1,0,0:0:0:70:VEC3 Snares 001.wav
64,192,169770,1,2,0:0:0:0:
320,192,169770,1,4,0:0:0:0:
448,192,169770,1,0,0:0:0:0:
192,192,169860,1,2,0:0:0:0:
320,192,169950,1,2,0:0:0:0:
64,192,170040,1,2,0:0:0:0:
448,192,170130,1,10,0:0:0:0:
192,192,170219,1,2,0:0:0:0:
320,192,170309,1,2,0:0:0:0:
192,192,170399,1,2,0:0:0:0:
64,192,170489,1,2,0:0:0:0:
448,192,170489,1,4,0:0:0:0:
320,192,170579,1,2,0:0:0:0:
192,192,170669,1,2,0:0:0:0:
448,192,170758,1,2,0:0:0:0:
64,192,170848,1,10,0:0:0:0:
320,192,170938,1,2,0:0:0:0:
192,192,171028,1,2,0:0:0:0:
320,192,171118,1,2,0:0:0:0:
64,192,171207,1,2,0:0:0:0:
448,192,171207,1,4,0:0:0:0:
192,192,171297,1,0,0:0:0:70:VEC3 Snares 001.wav
320,192,171387,1,0,0:0:0:70:VEC3 Snares 001.wav
448,192,171477,1,0,0:0:0:70:VEC3 Snares 001.wav
192,192,171567,1,0,0:0:0:70:VEC3 Snares 001.wav
64,192,171657,1,0,0:0:0:70:VEC3 Snares 001.wav
448,192,171746,1,0,0:0:0:70:VEC3 Snares 001.wav
320,192,171836,1,0,0:0:0:70:VEC3 Snares 001.wav
64,192,171926,1,2,0:0:0:0:
192,192,171926,1,0,0:0:0:70:VEC3 Snares 001.wav
64,192,172106,1,2,0:0:0:0:
192,192,172106,1,0,0:0:0:70:VEC3 Snares 001.wav
320,192,172285,1,2,0:0:0:0:
448,192,172285,1,0,0:0:0:70:VEC3 Snares 001.wav
64,192,172375,1,2,0:0:0:0:
320,192,172465,1,2,0:0:0:0:
192,192,172555,1,2,0:0:0:0:
64,192,172645,1,2,0:0:0:0:
448,192,172645,1,4,0:0:0:0:
192,192,172824,1,0,0:0:0:0:
64,192,173004,1,2,0:0:0:0:
448,192,173004,1,8,0:0:0:0:
320,192,173184,1,0,0:0:0:0:
64,192,173363,1,2,0:0:0:0:
192,192,173363,1,0,0:0:0:0:
320,192,173543,1,0,0:0:0:0:
64,192,173722,1,2,0:0:0:0:
448,192,173722,1,8,0:0:0:0:
192,192,173902,1,0,0:0:0:0:
320,192,174082,1,2,0:0:0:0:
448,192,174082,1,0,0:0:0:0:
64,192,174261,1,0,0:0:0:0:
192,192,174441,1,2,0:0:0:0:
320,192,174441,1,8,0:0:0:0:
448,192,174621,1,0,0:0:0:0:
64,192,174800,1,2,0:0:0:0:
192,192,174800,1,0,0:0:0:0:
320,192,174980,1,0,0:0:0:0:
64,192,175160,1,2,0:0:0:0:
448,192,175160,1,8,0:0:0:0:
192,192,175339,1,0,0:0:0:0:
320,192,175519,1,2,0:0:0:0:
448,192,175519,1,0,0:0:0:0:
64,192,175698,1,0,0:0:0:0:
320,192,175878,1,2,0:0:0:0:
448,192,175878,1,8,0:0:0:0:
192,192,176058,1,0,0:0:0:0:
64,192,176237,1,2,0:0:0:0:
448,192,176237,1,0,0:0:0:0:
320,192,176417,1,0,0:0:0:0:
192,192,176597,1,2,0:0:0:0:
448,192,176597,1,8,0:0:0:0:
64,192,176776,1,0,0:0:0:0:
192,192,176956,1,2,0:0:0:0:
320,192,176956,1,0,0:0:0:0:
448,192,177136,1,0,0:0:0:0:
64,192,177315,1,2,0:0:0:0:
320,192,177315,1,8,0:0:0:0:
192,192,177495,1,0,0:0:0:0:
320,192,177675,1,2,0:0:0:0:
448,192,177675,1,0,0:0:0:0:
192,192,177854,1,0,0:0:0:0:
64,192,178034,1,2,0:0:0:0:
448,192,178034,1,8,0:0:0:0:
320,192,178213,1,0,0:0:0:0:
64,192,178393,1,2,0:0:0:0:
192,192,178393,1,0,0:0:0:0:
448,192,178573,1,0,0:0:0:0:
64,192,178752,1,2,0:0:0:0:
192,192,178752,1,8,0:0:0:0:
448,192,178932,1,0,0:0:0:0:
64,192,179112,1,2,0:0:0:0:
192,192,179112,1,0,0:0:0:0:
320,192,179291,1,0,0:0:0:0:
64,192,179471,1,2,0:0:0:0:
448,192,179471,1,8,0:0:0:0:
192,192,179651,1,0,0:0:0:0:
64,192,179830,1,2,0:0:0:0:
448,192,179830,1,0,0:0:0:0:
320,192,180010,1,0,0:0:0:0:
192,192,180189,1,2,0:0:0:0:
448,192,180189,1,8,0:0:0:0:
64,192,180369,1,0,0:0:0:0:
320,192,180549,1,2,0:0:0:0:
448,192,180549,1,0,0:0:0:0:
64,192,180728,1,0,0:0:0:0:
192,192,180908,1,2,0:0:0:0:
320,192,180908,1,8,0:0:0:0:
448,192,181088,1,0,0:0:0:0:
64,192,181267,1,2,0:0:0:0:
320,192,181267,1,0,0:0:0:0:
192,192,181447,1,0,0:0:0:0:
64,192,181627,1,2,0:0:0:0:
320,192,181627,1,8,0:0:0:0:
192,192,181806,1,0,0:0:0:0:
64,192,181986,1,2,0:0:0:0:
448,192,181986,1,0,0:0:0:0:
320,192,182166,1,0,0:0:0:0:
64,192,182345,1,2,0:0:0:0:
192,192,182345,1,8,0:0:0:0:
448,192,182525,1,0,0:0:0:0:
192,192,182704,1,2,0:0:0:0:
320,192,182704,1,0,0:0:0:0:
64,192,182884,1,0,0:0:0:0:
320,192,183064,1,2,0:0:0:0:
448,192,183064,1,8,0:0:0:0:
192,192,183243,1,0,0:0:0:0:
64,192,183423,1,2,0:0:0:0:
448,192,183423,1,0,0:0:0:0:
320,192,183603,1,0,0:0:0:0:
192,192,183692,1,2,0:0:0:0:
64,192,183782,1,2,0:0:0:0:
448,192,183782,1,8,0:0:0:0:
192,192,183962,1,2,0:0:0:0:
64,192,184142,1,2,0:0:0:0:
320,192,184142,1,4,0:0:0:0:
448,192,184142,1,0,0:0:0:0:
320,192,184321,1,0,0:0:0:0:
64,192,184501,1,2,0:0:0:0:
192,192,184501,1,8,0:0:0:0:
448,192,184681,1,0,0:0:0:0:
192,192,184860,1,2,0:0:0:0:
320,192,184860,1,0,0:0:0:0:
64,192,185040,1,0,0:0:0:0:
320,192,185219,1,2,0:0:0:0:
448,192,185219,1,8,0:0:0:0:
192,192,185399,1,0,0:0:0:0:
64,192,185579,1,2,0:0:0:0:
448,192,185579,1,0,0:0:0:0:
320,192,185758,1,0,0:0:0:0:
64,192,185938,1,2,0:0:0:0:
192,192,185938,1,8,0:0:0:0:
320,192,186118,1,0,0:0:0:0:
64,192,186297,1,2,0:0:0:0:
448,192,186297,1,0,0:0:0:0:
192,192,186477,1,0,0:0:0:0:
320,192,186657,1,2,0:0:0:0:
448,192,186657,1,8,0:0:0:0:
64,192,186836,1,0,0:0:0:0:
192,192,187016,1,2,0:0:0:0:
448,192,187016,1,0,0:0:0:0:
320,192,187195,1,0,0:0:0:0:
192,192,187375,1,2,0:0:0:0:
448,192,187375,1,8,0:0:0:0:
320,192,187555,1,0,0:0:0:0:
64,192,187734,1,2,0:0:0:0:
448,192,187734,1,0,0:0:0:0:
192,192,187914,1,0,0:0:0:0:
64,192,188094,1,2,0:0:0:0:
320,192,188094,1,8,0:0:0:0:
448,192,188273,1,0,0:0:0:0:
192,192,188453,1,2,0:0:0:0:
320,192,188453,1,0,0:0:0:0:
64,192,188633,1,0,0:0:0:0:
320,192,188812,1,2,0:0:0:0:
448,192,188812,1,8,0:0:0:0:
192,192,188992,1,0,0:0:0:0:
64,192,189172,1,2,0:0:0:0:
320,192,189172,1,0,0:0:0:0:
448,192,189351,1,0,0:0:0:0:
192,192,189531,1,2,0:0:0:0:
320,192,189531,1,8,0:0:0:0:
64,192,189710,1,0,0:0:0:0:
320,192,189890,1,2,0:0:0:0:
448,192,189890,1,0,0:0:0:70:VEC3 Snares 001.wav
64,192,190070,1,2,0:0:0:0:
192,192,190070,1,0,0:0:0:70:VEC3 Snares 001.wav
64,192,190249,1,10,0:0:0:0:
448,192,190249,1,0,0:0:0:70:VEC3 Snares 001.wav
192,192,190429,1,2,0:0:0:0:
448,192,190429,1,0,0:0:0:70:VEC3 Snares 001.wav
64,192,190609,1,2,0:0:0:0:
320,192,190609,1,0,0:0:0:70:VEC3 Snares 001.wav
64,192,190788,1,2,0:0:0:0:
448,192,190788,1,0,0:0:0:70:VEC3 Snares 001.wav
192,192,190968,1,10,0:0:0:0:
320,192,190968,1,0,0:0:0:70:VEC3 Snares 001.wav
64,192,191148,1,2,0:0:0:0:
320,192,191148,1,0,0:0:0:70:VEC3 Snares 001.wav
192,192,191327,1,2,0:0:0:0:
448,192,191327,1,0,0:0:0:70:VEC3 Snares 001.wav
192,192,191507,1,2,0:0:0:0:
320,192,191507,1,0,0:0:0:70:VEC3 Snares 001.wav
64,192,191687,1,10,0:0:0:0:
448,192,191687,1,0,0:0:0:70:VEC3 Snares 001.wav
192,192,191866,1,2,0:0:0:0:
320,192,191866,1,0,0:0:0:70:VEC3 Snares 001.wav
64,192,192046,1,2,0:0:0:0:
320,192,192046,1,0,0:0:0:70:VEC3 Snares 001.wav
192,192,192225,1,2,0:0:0:0:
448,192,192225,1,0,0:0:0:70:VEC3 Snares 001.wav
64,192,192405,1,10,0:0:0:0:
448,192,192405,1,0,0:0:0:70:VEC3 Snares 001.wav
192,192,192585,1,2,0:0:0:0:
320,192,192585,1,0,0:0:0:70:VEC3 Snares 001.wav
64,192,192764,1,2,0:0:0:0:
192,192,192764,1,0,0:0:0:0:
320,192,192854,1,2,0:0:0:0:
448,192,192944,1,2,0:0:0:0:
64,192,193034,1,2,0:0:0:0:
192,192,193124,1,8,0:0:0:0:
320,192,193124,1,2,0:0:0:0:
448,192,193213,1,2,0:0:0:0:
64,192,193303,1,2,0:0:0:0:
192,192,193393,1,2,0:0:0:0:
320,192,193483,1,2,0:0:0:0:
448,192,193483,1,0,0:0:0:0:
64,192,193573,1,2,0:0:0:0:
192,192,193663,1,2,0:0:0:0:
320,192,193752,1,2,0:0:0:0:
64,192,193842,1,2,0:0:0:0:
448,192,193842,1,8,0:0:0:0:
192,192,193932,1,2,0:0:0:0:
320,192,194022,1,2,0:0:0:0:
448,192,194112,1,2,0:0:0:0:
64,192,194201,1,4,0:0:0:0:
192,192,194201,1,0,0:0:0:70:amenbreak_kick1.wav
320,192,194291,1,0,0:0:0:0:
192,192,194381,1,0,0:0:0:70:amenbreak_kick1.wav
64,192,194471,1,0,0:0:0:0:
320,192,194561,1,0,0:0:0:70:amenbreak_snare3.wav
448,192,194561,1,0,0:0:0:0:
192,192,194740,1,0,0:0:0:0:
320,192,194830,1,0,0:0:0:0:
64,192,194920,1,2,0:0:0:0:
448,192,194920,1,0,0:0:0:0:
192,192,195100,1,2,0:0:0:0:
320,192,195100,1,0,0:0:0:0:
64,192,195279,1,2,0:0:0:0:
192,192,195279,1,0,0:0:0:70:h03.wav
320,192,195369,1,2,0:0:0:0:
448,192,195369,1,0,0:0:0:0:
64,192,195459,1,2,0:0:0:0:
192,192,195459,1,0,0:0:0:0:
320,192,195549,1,2,0:0:0:0:
64,192,195639,1,2,0:0:0:0:
448,192,195639,1,4,0:0:0:0:
192,192,195818,1,0,0:0:0:0:
320,192,195998,1,0,0:0:0:0:
448,192,196178,1,0,0:0:0:0:
64,192,196357,1,0,0:0:0:0:
