osu file format v14

[General]
AudioFilename: audio.mp3
AudioLeadIn: 0
PreviewTime: 224558
Countdown: 0
SampleSet: Soft
StackLeniency: 0.2
Mode: 0
LetterboxInBreaks: 0
WidescreenStoryboard: 0

[Editor]
Bookmarks: 29163,49374,62005,82216,102426,115058,135268,159268,179479,189584,209795,224953,235058,265374
DistanceSpacing: 1
BeatDivisor: 4
GridSize: 32
TimelineZoom: 2.4

[Metadata]
Title:Louder than steel
TitleUnicode:Louder than steel
Artist:Ryu-5150
ArtistUnicode:Ryu-5150
Creator:SnowNiNo_
Version:Sympathetic
Source:東方夢時空 ~ Phantasmagoria of Dim.Dream
Tags:Tabula rasa ~ 空白少女 Symphonic Touhou IX シンフォニック東方Ⅸ
BeatmapID:1930867
BeatmapSetID:924440

[Difficulty]
HPDrainRate:6
CircleSize:4.2
OverallDifficulty:10
ApproachRate:9.6
SliderMultiplier:1.8
SliderTickRate:1

[Events]
//Background and Video events
0,0,"ac9b0d60f8d87dc4934bf12190a7d4f9a4f28e3a.jpg",0,0
//Break Periods
//Storyboard Layer 0 (Background)
//Storyboard Layer 1 (Fail)
//Storyboard Layer 2 (Pass)
//Storyboard Layer 3 (Foreground)
//Storyboard Sound Samples

[TimingPoints]
111,315.789473684211,4,2,0,70,1,0
19058,-66.6666666666667,4,2,0,70,0,0
20321,-100,4,2,0,70,0,0
28532,-66.6666666666667,4,2,0,70,0,0
29163,-100,4,2,0,50,0,0
62005,-83.3333333333333,4,2,0,90,0,1
82216,-100,4,2,0,70,0,0
115058,-83.3333333333333,4,2,0,90,0,1
135268,-100,4,2,0,70,0,0
155479,-200,4,2,0,70,0,0
159268,-100,4,2,0,70,0,0
209795,-100,4,2,0,50,0,0
221163,-100,4,2,0,70,0,0
224953,-133.333333333333,4,2,0,50,0,0
230005,-100,4,2,0,70,0,0
235058,-83.3333333333333,4,2,0,90,0,1
250216,-55.5555555555556,4,2,0,90,0,1
255268,-66.6666666666667,4,2,0,90,0,1
265374,-100,4,2,0,70,0,0
273584,-55.5555555555556,4,2,0,70,0,0
274216,-83.3333333333333,4,2,0,70,0,0
275479,-50,4,2,0,70,0,0

[Colours]
Combo1 : 0,255,0
Combo2 : 0,255,255
Combo3 : 255,128,255
Combo4 : 255,255,0

[HitObjects]
149,24,111,5,0,0:0:0:0:
224,72,268,1,0,0:0:0:0:
224,72,347,1,0,0:0:0:0:
224,72,426,2,0,L|218:130,5,45
132,171,900,2,0,L|126:113,5,45
279,179,1374,2,0,L|273:237,5,45
184,292,1847,2,0,L|178:234,5,45
301,317,2321,2,0,L|295:375,3,45
390,239,2637,5,0,0:0:0:0:
442,312,2795,1,0,0:0:0:0:
442,312,2874,1,0,0:0:0:0:
442,312,2953,2,0,L|494:309,5,45
302,232,3426,2,0,L|250:229,5,45
416,159,3900,2,0,L|468:156,5,45
327,95,4374,2,0,L|330:43,5,45
254,184,4847,2,0,L|257:236,3,45
202,69,5163,5,0,0:0:0:0:
137,131,5321,1,0,0:0:0:0:
137,131,5400,1,0,0:0:0:0:
137,131,5479,2,0,L|77:126,5,45
16,222,5953,2,0,L|76:217,5,45
166,233,6426,2,0,L|157:285,5,45
255,150,6900,2,0,L|246:98,5,45
289,265,7374,2,0,L|350:256,3,45
238,353,7689,5,0,0:0:0:0:
166,233,7847,2,0,L|173:188,1,45
194,106,8005,1,0,0:0:0:0:
194,106,8084,1,0,0:0:0:0:
194,106,8163,1,0,0:0:0:0:
325,214,8321,2,0,L|332:258,1,45
353,341,8479,1,0,0:0:0:0:
353,341,8558,1,0,0:0:0:0:
353,341,8637,1,0,0:0:0:0:
137,227,8795,2,0,L|144:182,1,45
164,99,8953,5,0,0:0:0:0:
263,156,9111,1,0,0:0:0:0:
307,155,9189,1,0,0:0:0:0:
341,127,9268,1,0,0:0:0:0:
352,84,9347,1,0,0:0:0:0:
334,44,9426,1,0,0:0:0:0:
296,22,9505,1,0,0:0:0:0:
252,28,9584,2,0,B|210:45|177:21|177:21|162:47|162:47|120:26|70:37,1,180
106,318,10216,5,0,0:0:0:0:
106,318,10295,1,0,0:0:0:0:
106,318,10374,2,0,L|170:308,1,45
232,206,10532,1,0,0:0:0:0:
232,206,10611,1,0,0:0:0:0:
232,206,10690,2,0,L|168:196,1,45
77,155,10847,1,0,0:0:0:0:
77,155,10926,1,0,0:0:0:0:
77,155,11005,2,0,L|70:214,1,45
174,97,11163,1,0,0:0:0:0:
174,97,11242,1,0,0:0:0:0:
174,97,11321,2,0,L|167:38,1,45
303,12,11479,5,0,0:0:0:0:
344,26,11557,1,0,0:0:0:0:
369,63,11636,1,0,0:0:0:0:
365,107,11715,1,0,0:0:0:0:
335,139,11794,1,0,0:0:0:0:
304,170,11874,1,0,0:0:0:0:
300,214,11953,1,0,0:0:0:0:
324,251,12032,1,0,0:0:0:0:
366,265,12110,1,0,0:0:0:0:
390,302,12189,1,0,0:0:0:0:
380,346,12268,1,0,0:0:0:0:
340,367,12347,1,0,0:0:0:0:
296,356,12426,1,0,0:0:0:0:
273,316,12505,1,0,0:0:0:0:
237,287,12584,1,0,0:0:0:0:
192,289,12663,1,0,0:0:0:0:
152,310,12742,5,0,0:0:0:0:
152,310,12821,1,0,0:0:0:0:
152,310,12900,2,0,L|145:369,1,45
50,270,13058,1,0,0:0:0:0:
50,270,13137,1,0,0:0:0:0:
50,270,13216,2,0,L|43:211,1,45
112,125,13374,1,0,0:0:0:0:
112,125,13453,1,0,0:0:0:0:
112,125,13532,2,0,L|172:134,1,45
263,211,13689,1,0,0:0:0:0:
263,211,13768,1,0,0:0:0:0:
263,211,13847,2,0,L|203:220,1,45
257,85,14005,5,0,0:0:0:0:
288,53,14083,1,0,0:0:0:0:
329,35,14162,1,0,0:0:0:0:
373,33,14241,1,0,0:0:0:0:
415,49,14320,1,0,0:0:0:0:
448,79,14399,1,0,0:0:0:0:
468,119,14478,1,0,0:0:0:0:
471,164,14557,1,0,0:0:0:0:
457,206,14637,2,0,L|453:272,1,45
375,323,14795,2,0,L|371:257,1,45
295,194,14953,2,0,L|291:260,1,45
211,314,15111,2,0,L|207:248,1,45
136,193,15268,5,0,0:0:0:0:
136,193,15347,1,0,0:0:0:0:
136,193,15426,2,0,L|64:189,1,45
35,80,15584,1,0,0:0:0:0:
35,80,15663,1,0,0:0:0:0:
35,80,15742,2,0,L|107:76,1,45
189,31,15900,1,0,0:0:0:0:
189,31,15979,1,0,0:0:0:0:
189,31,16058,2,0,L|195:89,1,45
267,195,16216,1,0,0:0:0:0:
267,195,16295,1,0,0:0:0:0:
267,195,16374,2,0,L|273:137,1,45
308,51,16532,5,0,0:0:0:0:
353,53,16611,1,0,0:0:0:0:
395,66,16690,1,0,0:0:0:0:
433,90,16769,1,0,0:0:0:0:
464,123,16848,1,0,0:0:0:0:
484,163,16927,1,0,0:0:0:0:
494,207,17006,1,0,0:0:0:0:
492,252,17085,1,0,0:0:0:0:
479,295,17163,1,0,0:0:0:0:
440,316,17242,1,0,0:0:0:0:
396,325,17321,1,0,0:0:0:0:
351,319,17400,1,0,0:0:0:0:
311,299,17479,1,0,0:0:0:0:
270,279,17558,1,0,0:0:0:0:
226,273,17637,1,0,0:0:0:0:
182,281,17716,1,0,0:0:0:0:
143,303,17795,5,0,0:0:0:0:
143,303,17874,1,0,0:0:0:0:
143,303,17953,2,0,L|135:368,1,45
18,375,18111,1,0,0:0:0:0:
18,375,18190,1,0,0:0:0:0:
18,375,18269,2,0,L|10:310,1,45
26,215,18426,1,0,0:0:0:0:
69,208,18504,1,0,0:0:0:0:
111,224,18583,1,0,0:0:0:0:
138,259,18662,1,0,0:0:0:0:
143,303,18742,2,0,L|136:364,1,45
227,198,18900,2,0,L|220:136,1,45
274,312,19058,6,0,B|319:289|319:289|424:309,1,135.000005149842
440,333,19295,2,0,P|429:261|469:210,1,135.000005149842
506,193,19532,1,0,0:0:0:0:
434,83,19689,2,0,B|380:75|380:75|354:90|354:90|282:78,1,135.000005149842
261,60,19926,2,0,P|280:133|230:189,1,135.000005149842
203,193,20163,1,0,0:0:0:0:
203,193,20242,1,0,0:0:0:0:
203,193,20321,6,0,P|126:183|117:85,1,180
188,50,20716,1,0,0:0:0:0:
188,50,20795,2,0,L|255:63,1,45
315,185,20953,2,0,L|248:198,1,45
381,85,21111,1,0,0:0:0:0:
381,85,21189,1,0,0:0:0:0:
381,85,21268,2,0,L|450:91,1,45
484,235,21426,2,0,L|415:241,1,45
329,350,21584,5,0,0:0:0:0:
314,308,21662,1,0,0:0:0:0:
278,282,21741,1,0,0:0:0:0:
234,282,21820,1,0,0:0:0:0:
198,307,21899,1,0,0:0:0:0:
161,332,21979,1,0,0:0:0:0:
117,332,22058,1,0,0:0:0:0:
81,306,22137,1,0,0:0:0:0:
67,264,22216,2,0,L|71:195,1,45
80,130,22374,1,0,0:0:0:0:
80,130,22453,1,0,0:0:0:0:
80,130,22532,2,0,L|137:167,1,45
189,208,22689,2,0,L|127:239,1,45
198,104,22847,5,0,0:0:0:0:
223,67,22925,1,0,0:0:0:0:
262,45,23004,1,0,0:0:0:0:
307,42,23083,1,0,0:0:0:0:
349,57,23162,1,0,0:0:0:0:
380,89,23241,1,0,0:0:0:0:
395,131,23320,1,0,0:0:0:0:
391,175,23399,1,0,0:0:0:0:
369,214,23479,2,0,L|360:279,1,45
279,344,23637,2,0,L|269:279,1,45
189,208,23795,1,0,0:0:0:0:
189,208,23874,1,0,0:0:0:0:
189,208,23953,2,0,L|179:272,1,45
85,303,24111,5,0,0:0:0:0:
42,290,24189,1,0,0:0:0:0:
9,259,24268,1,0,0:0:0:0:
0,217,24347,1,0,0:0:0:0:
0,173,24426,1,0,0:0:0:0:
24,136,24505,1,0,0:0:0:0:
63,114,24584,2,0,L|133:111,1,45
177,22,24742,2,0,L|107:18,1,45
243,118,24900,5,0,0:0:0:0:
262,106,24978,1,0,0:0:0:0:
277,89,25057,1,0,0:0:0:0:
287,69,25136,1,0,0:0:0:0:
291,47,25216,2,0,L|288:-3,1,45
414,115,25374,6,0,B|399:170|399:170|415:213|415:213|394:304,1,180
332,346,25768,1,0,0:0:0:0:
332,346,25847,2,0,L|284:340,1,45
221,230,26005,2,0,L|269:224,1,45
129,349,26163,1,0,0:0:0:0:
129,349,26242,1,0,0:0:0:0:
129,349,26321,2,0,L|132:273,1,45
31,188,26479,2,0,L|34:264,1,45
134,176,26637,5,0,0:0:0:0:
170,150,26715,1,0,0:0:0:0:
189,110,26794,1,0,0:0:0:0:
187,65,26873,1,0,0:0:0:0:
163,28,26952,1,0,0:0:0:0:
124,6,27031,1,0,0:0:0:0:
80,7,27110,1,0,0:0:0:0:
41,29,27189,1,0,0:0:0:0:
18,66,27268,2,0,L|21:142,1,45
132,220,27426,1,0,0:0:0:0:
132,220,27505,1,0,0:0:0:0:
132,220,27584,2,0,L|135:144,1,45
271,76,27742,2,0,L|274:152,1,45
211,314,27900,5,0,0:0:0:0:
226,272,27978,1,0,0:0:0:0:
262,247,28057,1,0,0:0:0:0:
307,246,28136,1,0,0:0:0:0:
343,271,28215,1,0,0:0:0:0:
379,296,28295,1,0,0:0:0:0:
423,295,28374,1,0,0:0:0:0:
460,270,28453,1,0,0:0:0:0:
475,228,28532,6,0,L|480:74,1,135.000005149842
484,46,28768,2,0,B|442:82|442:82|357:63,1,135.000005149842
317,53,29005,1,0,0:0:0:0:
177,31,29163,6,0,P|192:80|185:133,1,90
93,185,29479,1,0,0:0:0:0:
82,165,29558,1,0,0:0:0:0:
82,142,29637,1,0,0:0:0:0:
190,233,29795,1,0,0:0:0:0:
105,321,29953,1,0,0:0:0:0:
237,359,30111,1,0,0:0:0:0:
254,345,30189,1,0,0:0:0:0:
276,341,30268,1,0,0:0:0:0:
389,354,30426,5,0,0:0:0:0:
466,268,30584,2,0,P|493:231|468:128,1,135
475,125,30900,1,0,0:0:0:0:
386,39,31058,2,0,P|344:70|329:107,1,90
311,117,31295,2,0,P|353:148|368:185,1,90
360,203,31532,1,0,0:0:0:0:
193,103,31689,6,0,P|154:125|110:127,1,90
40,54,32005,1,0,0:0:0:0:
21,66,32084,1,0,0:0:0:0:
9,85,32163,1,0,0:0:0:0:
6,196,32321,2,0,P|27:240|25:307,1,90
143,360,32637,1,0,0:0:0:0:
156,342,32716,1,0,0:0:0:0:
160,319,32795,1,0,0:0:0:0:
161,197,32953,5,0,0:0:0:0:
264,299,33111,2,0,P|295:260|303:170,1,135
296,156,33426,1,0,0:0:0:0:
470,109,33584,2,0,P|482:152|482:196,1,90
464,211,33821,2,0,P|451:254|451:298,1,90
472,326,34058,1,0,0:0:0:0:
472,326,34137,1,0,0:0:0:0:
472,326,34216,6,0,L|351:318,1,90
281,275,34532,1,0,0:0:0:0:
261,286,34611,1,0,0:0:0:0:
247,303,34689,1,0,0:0:0:0:
149,353,34847,1,0,0:0:0:0:
162,240,35005,1,0,0:0:0:0:
57,298,35163,1,0,0:0:0:0:
37,287,35242,1,0,0:0:0:0:
26,267,35321,1,0,0:0:0:0:
42,137,35479,6,0,P|92:138|134:117,1,90
212,33,35795,1,0,0:0:0:0:
232,42,35874,1,0,0:0:0:0:
248,57,35953,1,0,0:0:0:0:
257,172,36111,1,0,0:0:0:0:
361,102,36268,1,0,0:0:0:0:
415,207,36426,1,0,0:0:0:0:
425,227,36505,1,0,0:0:0:0:
442,241,36584,1,0,0:0:0:0:
494,114,36742,6,0,P|504:70|491:5,1,90
359,57,37058,1,0,0:0:0:0:
355,80,37137,1,0,0:0:0:0:
361,102,37216,1,0,0:0:0:0:
307,209,37374,2,0,P|257:189|207:189,1,90
124,127,37689,1,0,0:0:0:0:
144,116,37768,1,0,0:0:0:0:
159,99,37847,1,0,0:0:0:0:
36,71,38005,6,0,P|20:124|32:175,1,90
78,276,38321,1,0,0:0:0:0:
94,260,38400,1,0,0:0:0:0:
98,237,38479,1,0,0:0:0:0:
221,187,38637,1,0,0:0:0:0:
194,306,38795,1,0,0:0:0:0:
319,257,38953,1,0,0:0:0:0:
339,248,39031,1,0,0:0:0:0:
361,249,39110,1,0,0:0:0:0:
381,260,39189,1,0,0:0:0:0:
394,278,39268,6,0,P|435:301|482:293,1,90
485,147,39584,1,0,0:0:0:0:
465,135,39663,1,0,0:0:0:0:
442,131,39742,1,0,0:0:0:0:
328,163,39900,1,0,0:0:0:0:
362,55,40058,1,0,0:0:0:0:
252,73,40216,1,0,0:0:0:0:
231,82,40295,1,0,0:0:0:0:
217,100,40374,1,0,0:0:0:0:
226,214,40532,5,0,0:0:0:0:
121,156,40689,2,0,P|104:108|131:24,1,135
146,18,41005,1,0,0:0:0:0:
17,132,41163,2,0,P|13:178|20:232,1,90
40,224,41400,2,0,P|44:270|37:324,1,90
31,334,41637,1,0,0:0:0:0:
135,366,41795,6,0,P|182:352|232:351,1,90
295,252,42111,1,0,0:0:0:0:
277,238,42189,1,0,0:0:0:0:
255,232,42268,1,0,0:0:0:0:
328,349,42426,1,0,0:0:0:0:
384,216,42584,1,0,0:0:0:0:
440,326,42742,1,0,0:0:0:0:
459,336,42821,1,0,0:0:0:0:
480,341,42900,1,0,0:0:0:0:
508,231,43058,5,0,0:0:0:0:
384,216,43216,2,0,P|329:220|257:261,1,135
249,278,43532,1,0,0:0:0:0:
130,326,43689,2,0,P|143:279|145:227,1,90
165,226,43926,2,0,P|152:179|150:127,1,90
154,115,44163,1,0,0:0:0:0:
154,115,44242,1,0,0:0:0:0:
154,115,44321,6,0,P|205:115|252:98,1,90
318,22,44637,1,0,0:0:0:0:
340,20,44716,1,0,0:0:0:0:
361,26,44795,1,0,0:0:0:0:
443,95,44953,1,0,0:0:0:0:
334,145,45111,1,0,0:0:0:0:
464,234,45268,1,0,0:0:0:0:
470,255,45347,1,0,0:0:0:0:
472,277,45426,1,0,0:0:0:0:
372,354,45584,6,0,P|351:312|345:262,1,90
240,212,45900,1,0,0:0:0:0:
250,192,45979,1,0,0:0:0:0:
255,170,46058,1,0,0:0:0:0:
211,313,46216,1,0,0:0:0:0:
127,180,46374,1,0,0:0:0:0:
98,311,46532,1,0,0:0:0:0:
82,327,46611,1,0,0:0:0:0:
62,337,46689,1,0,0:0:0:0:
14,220,46847,6,0,P|20:166|16:122,1,90
21,21,47163,1,0,0:0:0:0:
43,23,47242,1,0,0:0:0:0:
63,33,47321,1,0,0:0:0:0:
164,92,47479,2,0,P|219:71|267:74,1,90
367,108,47795,1,0,0:0:0:0:
379,89,47874,1,0,0:0:0:0:
384,67,47953,1,0,0:0:0:0:
284,164,48111,6,0,P|277:215|285:267,1,90
237,361,48426,1,0,0:0:0:0:
222,343,48505,1,0,0:0:0:0:
215,321,48584,1,0,0:0:0:0:
185,198,48742,1,0,0:0:0:0:
114,339,48900,1,0,0:0:0:0:
61,234,49058,1,0,0:0:0:0:
70,213,49136,1,0,0:0:0:0:
73,191,49215,1,0,0:0:0:0:
72,169,49294,1,0,0:0:0:0:
64,147,49374,6,0,P|57:107|83:50,1,90
200,45,49689,2,0,L|203:1,2,45
172,157,50005,1,0,0:0:0:0:
288,111,50163,1,0,0:0:0:0:
273,231,50321,1,0,0:0:0:0:
273,231,50400,1,0,0:0:0:0:
273,231,50479,1,0,0:0:0:0:
380,180,50637,6,0,P|431:168|475:176,1,90
495,286,50953,2,0,L|491:337,2,45
388,347,51268,2,0,P|343:352|300:340,1,90
187,268,51584,1,0,0:0:0:0:
187,268,51663,1,0,0:0:0:0:
187,268,51742,1,0,0:0:0:0:
86,356,51900,5,0,0:0:0:0:
48,255,52058,1,0,0:0:0:0:
49,241,52136,1,0,0:0:0:0:
50,228,52215,1,0,0:0:0:0:
51,214,52294,1,0,0:0:0:0:
53,201,52373,1,0,0:0:0:0:
54,187,52452,1,0,0:0:0:0:
55,174,52531,1,0,0:0:0:0:
153,89,52690,1,0,0:0:0:0:
154,102,52769,1,0,0:0:0:0:
155,116,52848,1,0,0:0:0:0:
157,129,52927,1,0,0:0:0:0:
158,143,53006,1,0,0:0:0:0:
159,156,53085,1,0,0:0:0:0:
161,170,53163,5,0,0:0:0:0:
152,288,53321,1,0,0:0:0:0:
165,286,53399,1,0,0:0:0:0:
178,285,53478,1,0,0:0:0:0:
192,283,53557,1,0,0:0:0:0:
205,282,53636,1,0,0:0:0:0:
219,280,53715,1,0,0:0:0:0:
232,279,53794,1,0,0:0:0:0:
344,192,53953,5,0,0:0:0:0:
312,193,54031,1,0,0:0:0:0:
283,182,54110,1,0,0:0:0:0:
259,162,54189,1,0,0:0:0:0:
245,134,54268,1,0,0:0:0:0:
242,103,54347,1,0,0:0:0:0:
251,73,54426,6,0,P|293:41|335:38,1,90
451,81,54742,2,0,L|462:30,2,45
371,154,55058,1,0,0:0:0:0:
482,207,55216,1,0,0:0:0:0:
406,279,55374,1,0,0:0:0:0:
392,296,55453,1,0,0:0:0:0:
388,318,55532,1,0,0:0:0:0:
266,353,55689,6,0,P|226:332|167:332,1,90
58,336,56005,2,0,L|56:286,2,45
161,212,56321,2,0,P|173:167|164:113,1,90
120,30,56637,2,0,L|71:28,2,45
344,124,56953,5,0,0:0:0:0:
344,124,57032,1,0,0:0:0:0:
344,124,57111,2,0,L|400:128,1,45
168,124,57268,1,0,0:0:0:0:
168,124,57347,1,0,0:0:0:0:
168,124,57426,2,0,L|112:128,1,45
379,210,57584,5,0,0:0:0:0:
379,210,57663,1,0,0:0:0:0:
379,210,57742,2,0,L|432:228,1,45
133,210,57900,1,0,0:0:0:0:
133,210,57979,1,0,0:0:0:0:
133,210,58058,2,0,L|79:228,1,45
411,308,58216,5,0,0:0:0:0:
411,308,58295,1,0,0:0:0:0:
411,308,58374,2,0,L|457:339,1,45
101,308,58532,1,0,0:0:0:0:
101,308,58611,1,0,0:0:0:0:
101,308,58690,2,0,L|54:339,1,45
256,371,58847,6,0,L|256:311,1,45
256,108,59005,1,0,0:0:0:0:
256,130,59084,1,0,0:0:0:0:
256,153,59163,1,0,0:0:0:0:
256,175,59242,1,0,0:0:0:0:
256,198,59321,1,0,0:0:0:0:
256,220,59400,1,0,0:0:0:0:
256,243,59478,5,0,0:0:0:0:
256,243,59795,1,0,0:0:0:0:
383,82,59953,1,0,0:0:0:0:
256,275,60111,1,0,0:0:0:0:
129,82,60268,1,0,0:0:0:0:
256,307,60426,1,0,0:0:0:0:
256,20,60584,1,0,0:0:0:0:
256,339,60742,5,0,0:0:0:0:
344,219,60900,1,0,0:0:0:0:
330,195,60978,1,0,0:0:0:0:
310,177,61057,1,0,0:0:0:0:
286,165,61136,1,0,0:0:0:0:
260,160,61215,1,0,0:0:0:0:
233,163,61294,1,0,0:0:0:0:
208,173,61373,1,0,0:0:0:0:
187,189,61452,1,0,0:0:0:0:
171,211,61531,1,0,0:0:0:0:
358,329,61689,5,0,0:0:0:0:
400,314,61767,1,0,0:0:0:0:
431,282,61846,1,0,0:0:0:0:
447,241,61925,1,0,0:0:0:0:
443,196,62004,5,0,0:0:0:0:
424,145,62084,1,0,0:0:0:0:
384,107,62163,1,0,0:0:0:0:
330,99,62242,1,0,0:0:0:0:
281,122,62321,1,0,0:0:0:0:
232,145,62400,1,0,0:0:0:0:
178,137,62479,1,0,0:0:0:0:
138,99,62558,1,0,0:0:0:0:
131,44,62638,1,0,0:0:0:0:
168,5,62716,1,0,0:0:0:0:
222,3,62795,1,0,0:0:0:0:
260,41,62874,1,0,0:0:0:0:
261,95,62953,1,0,0:0:0:0:
223,134,63032,1,0,0:0:0:0:
193,179,63111,1,0,0:0:0:0:
195,232,63189,1,0,0:0:0:0:
229,273,63268,5,0,0:0:0:0:
281,284,63347,1,0,0:0:0:0:
324,252,63426,1,0,0:0:0:0:
345,202,63505,1,0,0:0:0:0:
391,174,63584,1,0,0:0:0:0:
444,179,63663,1,0,0:0:0:0:
487,210,63742,1,0,0:0:0:0:
499,262,63821,1,0,0:0:0:0:
487,314,63900,1,0,0:0:0:0:
443,345,63979,1,0,0:0:0:0:
388,343,64058,1,0,0:0:0:0:
342,313,64137,1,0,0:0:0:0:
328,260,64216,1,0,0:0:0:0:
290,220,64295,1,0,0:0:0:0:
237,207,64374,1,0,0:0:0:0:
185,224,64453,1,0,0:0:0:0:
155,269,64532,5,0,0:0:0:0:
167,321,64611,1,0,0:0:0:0:
216,341,64689,1,0,0:0:0:0:
267,323,64768,1,0,0:0:0:0:
277,269,64847,1,0,0:0:0:0:
245,224,64926,1,0,0:0:0:0:
225,173,65005,1,0,0:0:0:0:
242,121,65084,1,0,0:0:0:0:
290,97,65163,1,0,0:0:0:0:
342,110,65242,1,0,0:0:0:0:
365,158,65321,1,0,0:0:0:0:
362,212,65400,1,0,0:0:0:0:
317,242,65479,1,0,0:0:0:0:
262,242,65558,1,0,0:0:0:0:
209,230,65637,1,0,0:0:0:0:
163,200,65716,1,0,0:0:0:0:
140,150,65795,6,0,L|137:89,3,53.9999983520508
28,225,66111,2,0,L|25:286,3,53.9999983520508
115,303,66426,1,0,0:0:0:0:
132,323,66504,1,0,0:0:0:0:
153,340,66583,1,0,0:0:0:0:
178,351,66662,1,0,0:0:0:0:
204,357,66741,1,0,0:0:0:0:
231,358,66820,1,0,0:0:0:0:
257,352,66899,1,0,0:0:0:0:
282,341,66978,1,0,0:0:0:0:
304,326,67057,5,0,0:0:0:0:
339,273,67137,1,0,0:0:0:0:
331,211,67216,1,0,0:0:0:0:
282,171,67295,1,0,0:0:0:0:
218,174,67374,1,0,0:0:0:0:
154,177,67453,1,0,0:0:0:0:
105,137,67532,1,0,0:0:0:0:
94,73,67611,1,0,0:0:0:0:
133,20,67691,1,0,0:0:0:0:
195,12,67768,1,0,0:0:0:0:
249,46,67847,1,0,0:0:0:0:
261,109,67926,1,0,0:0:0:0:
230,165,68005,1,0,0:0:0:0:
223,229,68084,1,0,0:0:0:0:
250,287,68163,1,0,0:0:0:0:
308,314,68242,1,0,0:0:0:0:
372,309,68321,5,0,0:0:0:0:
427,275,68400,1,0,0:0:0:0:
439,211,68479,1,0,0:0:0:0:
399,159,68558,1,0,0:0:0:0:
334,159,68637,1,0,0:0:0:0:
291,207,68716,1,0,0:0:0:0:
290,271,68795,1,0,0:0:0:0:
271,333,68874,1,0,0:0:0:0:
215,366,68953,1,0,0:0:0:0:
150,356,69032,1,0,0:0:0:0:
107,306,69111,1,0,0:0:0:0:
105,242,69189,1,0,0:0:0:0:
143,189,69268,1,0,0:0:0:0:
203,166,69347,1,0,0:0:0:0:
234,111,69426,1,0,0:0:0:0:
225,46,69505,1,0,0:0:0:0:
172,6,69584,5,0,0:0:0:0:
107,10,69663,1,0,0:0:0:0:
70,63,69742,1,0,0:0:0:0:
76,127,69821,1,0,0:0:0:0:
130,161,69900,1,0,0:0:0:0:
194,152,69979,1,0,0:0:0:0:
249,117,70058,1,0,0:0:0:0:
312,103,70137,1,0,0:0:0:0:
369,133,70216,1,0,0:0:0:0:
384,196,70295,1,0,0:0:0:0:
352,252,70374,1,0,0:0:0:0:
287,257,70453,1,0,0:0:0:0:
232,222,70532,1,0,0:0:0:0:
220,158,70611,1,0,0:0:0:0:
180,107,70689,1,0,0:0:0:0:
115,109,70768,1,0,0:0:0:0:
75,160,70847,5,0,0:0:0:0:
77,186,70925,1,0,0:0:0:0:
80,213,71004,1,0,0:0:0:0:
82,240,71083,1,0,0:0:0:0:
137,240,71163,1,0,0:0:0:0:
134,266,71241,1,0,0:0:0:0:
131,293,71320,1,0,0:0:0:0:
129,320,71399,1,0,0:0:0:0:
75,331,71479,2,0,L|82:391,3,53.9999983520508
2,260,71795,1,0,0:0:0:0:
137,240,71953,1,0,0:0:0:0:
137,240,72032,1,0,0:0:0:0:
137,240,72111,5,0,0:0:0:0:
176,275,72189,1,0,0:0:0:0:
229,277,72268,1,0,0:0:0:0:
271,246,72347,1,0,0:0:0:0:
285,195,72426,1,0,0:0:0:0:
298,143,72505,1,0,0:0:0:0:
340,112,72584,1,0,0:0:0:0:
393,114,72663,1,0,0:0:0:0:
433,150,72741,1,0,0:0:0:0:
437,204,72821,1,0,0:0:0:0:
405,247,72900,1,0,0:0:0:0:
351,253,72979,1,0,0:0:0:0:
304,225,73058,1,0,0:0:0:0:
275,179,73137,1,0,0:0:0:0:
226,156,73216,1,0,0:0:0:0:
172,152,73295,1,0,0:0:0:0:
121,169,73374,5,0,0:0:0:0:
96,217,73453,1,0,0:0:0:0:
102,270,73532,1,0,0:0:0:0:
143,303,73611,1,0,0:0:0:0:
196,308,73689,1,0,0:0:0:0:
238,274,73768,1,0,0:0:0:0:
249,221,73847,1,0,0:0:0:0:
225,172,73926,1,0,0:0:0:0:
172,152,74005,1,0,0:0:0:0:
141,107,74084,1,0,0:0:0:0:
147,53,74163,1,0,0:0:0:0:
190,20,74242,1,0,0:0:0:0:
244,19,74321,1,0,0:0:0:0:
285,53,74400,1,0,0:0:0:0:
291,106,74479,1,0,0:0:0:0:
328,145,74558,1,0,0:0:0:0:
380,155,74637,5,0,0:0:0:0:
433,150,74716,1,0,0:0:0:0:
478,120,74795,1,0,0:0:0:0:
484,66,74874,1,0,0:0:0:0:
448,25,74953,1,0,0:0:0:0:
394,28,75032,1,0,0:0:0:0:
366,74,75111,1,0,0:0:0:0:
380,125,75189,1,0,0:0:0:0:
412,168,75268,1,0,0:0:0:0:
426,220,75347,1,0,0:0:0:0:
426,274,75426,1,0,0:0:0:0:
392,316,75505,1,0,0:0:0:0:
342,338,75584,1,0,0:0:0:0:
288,327,75663,1,0,0:0:0:0:
255,283,75742,1,0,0:0:0:0:
252,229,75821,1,0,0:0:0:0:
281,183,75900,6,0,L|287:115,3,53.9999983520508
197,40,76216,2,0,L|203:108,3,53.9999983520508
170,210,76532,1,0,0:0:0:0:
162,184,76610,1,0,0:0:0:0:
146,162,76689,1,0,0:0:0:0:
125,145,76768,1,0,0:0:0:0:
100,136,76847,1,0,0:0:0:0:
73,136,76926,1,0,0:0:0:0:
47,144,77005,1,0,0:0:0:0:
25,159,77084,1,0,0:0:0:0:
9,180,77163,5,0,0:0:0:0:
7,234,77242,1,0,0:0:0:0:
40,276,77321,1,0,0:0:0:0:
93,280,77400,1,0,0:0:0:0:
139,253,77479,1,0,0:0:0:0:
185,226,77558,1,0,0:0:0:0:
238,230,77637,1,0,0:0:0:0:
271,272,77716,1,0,0:0:0:0:
261,325,77795,1,0,0:0:0:0:
214,352,77874,1,0,0:0:0:0:
162,336,77953,1,0,0:0:0:0:
147,283,78032,1,0,0:0:0:0:
167,232,78111,1,0,0:0:0:0:
192,185,78189,1,0,0:0:0:0:
212,134,78268,1,0,0:0:0:0:
213,79,78347,1,0,0:0:0:0:
174,44,78426,5,0,0:0:0:0:
119,45,78505,1,0,0:0:0:0:
79,82,78584,1,0,0:0:0:0:
74,135,78663,1,0,0:0:0:0:
107,177,78742,1,0,0:0:0:0:
158,192,78821,1,0,0:0:0:0:
211,189,78900,1,0,0:0:0:0:
256,159,78979,1,0,0:0:0:0:
303,132,79058,1,0,0:0:0:0:
357,132,79137,1,0,0:0:0:0:
405,155,79216,1,0,0:0:0:0:
432,201,79295,1,0,0:0:0:0:
432,255,79374,1,0,0:0:0:0:
399,298,79453,1,0,0:0:0:0:
351,323,79532,1,0,0:0:0:0:
297,313,79611,1,0,0:0:0:0:
251,284,79689,6,0,P|225:277|195:274,1,53.9999983520508
86,302,79847,1,0,0:0:0:0:
59,256,79925,1,0,0:0:0:0:
64,203,80004,1,0,0:0:0:0:
100,164,80083,1,0,0:0:0:0:
152,153,80162,1,0,0:0:0:0:
204,142,80242,1,0,0:0:0:0:
240,102,80321,1,0,0:0:0:0:
252,50,80400,1,0,0:0:0:0:
223,4,80478,1,0,0:0:0:0:
168,2,80558,1,0,0:0:0:0:
135,45,80637,1,0,0:0:0:0:
146,97,80716,1,0,0:0:0:0:
196,115,80795,1,0,0:0:0:0:
250,113,80874,1,0,0:0:0:0:
300,92,80953,6,0,L|369:87,3,53.9999983520508
465,174,81268,2,0,L|396:169,3,53.9999983520508
276,233,81584,2,0,L|345:228,3,53.9999983520508
456,335,81900,2,0,L|387:330,1,53.9999983520508
306,353,82058,1,0,0:0:0:0:
279,351,82136,1,0,0:0:0:0:
252,349,82215,5,0,0:0:0:0:
252,349,82295,1,0,0:0:0:0:
252,349,82374,2,0,L|183:344,1,45
111,261,82532,1,0,0:0:0:0:
111,261,82612,1,0,0:0:0:0:
111,261,82691,2,0,L|180:256,1,45
257,193,82847,1,0,0:0:0:0:
257,193,82926,1,0,0:0:0:0:
257,193,83005,2,0,L|260:254,1,45
372,287,83163,1,0,0:0:0:0:
372,287,83242,1,0,0:0:0:0:
372,287,83321,2,0,L|375:226,1,45
439,88,83479,5,0,0:0:0:0:
416,50,83557,1,0,0:0:0:0:
374,34,83636,1,0,0:0:0:0:
332,47,83715,1,0,0:0:0:0:
307,83,83794,1,0,0:0:0:0:
280,119,83874,1,0,0:0:0:0:
237,131,83953,1,0,0:0:0:0:
196,115,84032,1,0,0:0:0:0:
173,78,84110,1,0,0:0:0:0:
150,40,84189,1,0,0:0:0:0:
108,24,84268,1,0,0:0:0:0:
66,37,84347,1,0,0:0:0:0:
41,73,84426,1,0,0:0:0:0:
41,118,84505,1,0,0:0:0:0:
69,153,84584,1,0,0:0:0:0:
112,163,84663,1,0,0:0:0:0:
155,153,84742,5,0,0:0:0:0:
155,153,84821,1,0,0:0:0:0:
155,153,84900,2,0,L|214:148,1,45
314,80,85058,1,0,0:0:0:0:
314,80,85137,1,0,0:0:0:0:
314,80,85216,2,0,L|255:75,1,45
297,260,85374,1,0,0:0:0:0:
297,260,85453,1,0,0:0:0:0:
297,260,85532,2,0,L|302:189,1,45
422,135,85689,1,0,0:0:0:0:
422,135,85768,1,0,0:0:0:0:
422,135,85847,2,0,L|427:206,1,45
412,381,86005,5,0,0:0:0:0:
401,337,86083,1,0,0:0:0:0:
376,300,86162,1,0,0:0:0:0:
340,273,86241,1,0,0:0:0:0:
297,260,86320,1,0,0:0:0:0:
253,262,86399,1,0,0:0:0:0:
211,279,86478,1,0,0:0:0:0:
178,309,86557,1,0,0:0:0:0:
157,348,86637,2,0,L|103:360,3,45
56,256,86953,2,0,L|110:268,3,45
174,194,87268,5,0,0:0:0:0:
174,194,87347,1,0,0:0:0:0:
174,194,87426,2,0,L|169:139,1,45
273,60,87584,1,0,0:0:0:0:
273,60,87663,1,0,0:0:0:0:
273,60,87742,2,0,L|268:115,1,45
280,229,87900,1,0,0:0:0:0:
280,229,87979,1,0,0:0:0:0:
280,229,88058,2,0,L|340:223,1,45
428,154,88216,1,0,0:0:0:0:
428,154,88295,1,0,0:0:0:0:
428,154,88374,2,0,L|368:148,1,45
267,104,88532,5,0,0:0:0:0:
260,60,88610,1,0,0:0:0:0:
232,25,88689,1,0,0:0:0:0:
190,11,88768,1,0,0:0:0:0:
146,20,88847,1,0,0:0:0:0:
114,50,88926,1,0,0:0:0:0:
102,93,89005,1,0,0:0:0:0:
114,136,89084,1,0,0:0:0:0:
147,166,89163,1,0,0:0:0:0:
179,196,89242,1,0,0:0:0:0:
191,239,89321,1,0,0:0:0:0:
179,281,89400,1,0,0:0:0:0:
147,312,89479,1,0,0:0:0:0:
103,321,89558,1,0,0:0:0:0:
61,306,89637,1,0,0:0:0:0:
33,272,89716,1,0,0:0:0:0:
27,228,89794,5,0,0:0:0:0:
27,228,89874,1,0,0:0:0:0:
27,228,89953,2,0,L|35:170,1,45
144,105,90111,1,0,0:0:0:0:
144,105,90191,1,0,0:0:0:0:
144,105,90270,2,0,L|152:163,1,45
179,281,90426,6,0,L|238:267,1,45
325,171,90584,2,0,L|266:157,1,45
318,320,90742,2,0,L|377:306,1,45
464,210,90900,2,0,L|405:196,1,45
492,365,91058,6,0,L|485:310,1,45
391,87,91216,1,0,0:0:0:0:
385,131,91294,1,0,0:0:0:0:
379,176,91373,1,0,0:0:0:0:
373,220,91452,1,0,0:0:0:0:
367,264,91532,2,0,L|360:319,1,45
512,359,91689,1,0,0:0:0:0:
506,315,91767,1,0,0:0:0:0:
500,270,91846,1,0,0:0:0:0:
494,226,91925,1,0,0:0:0:0:
488,182,92005,2,0,L|481:127,1,45
465,33,92163,1,0,0:0:0:0:
465,33,92242,1,0,0:0:0:0:
465,33,92321,6,0,B|384:83|286:21|286:21|351:72|361:141|304:221|249:205|232:149|275:115,1,450
244,92,93189,1,0,0:0:0:0:
244,92,93268,2,0,P|194:98|146:86,1,90
63,32,93584,5,0,0:0:0:0:
30,161,93742,2,0,P|40:214|32:309,1,135
26,315,94058,1,0,0:0:0:0:
177,351,94216,2,0,P|222:326|275:318,1,90
269,298,94453,2,0,P|314:323|367:331,1,90
373,327,94689,1,0,0:0:0:0:
502,355,94847,6,0,P|492:292|496:255,1,90
410,187,95163,1,0,0:0:0:0:
418,166,95242,1,0,0:0:0:0:
421,143,95321,1,0,0:0:0:0:
340,53,95479,1,0,0:0:0:0:
312,194,95637,1,0,0:0:0:0:
231,103,95795,1,0,0:0:0:0:
213,89,95874,1,0,0:0:0:0:
191,83,95953,1,0,0:0:0:0:
86,133,96111,5,0,0:0:0:0:
163,225,96268,2,0,P|209:229|298:208,1,135
312,194,96584,1,0,0:0:0:0:
431,152,96742,2,0,P|429:204|449:249,1,90
463,246,96979,2,0,P|465:298|445:343,1,90
440,352,97216,1,0,0:0:0:0:
440,352,97295,1,0,0:0:0:0:
440,352,97374,6,0,L|341:348,1,90
262,281,97689,1,0,0:0:0:0:
240,286,97768,1,0,0:0:0:0:
221,298,97847,1,0,0:0:0:0:
121,358,98005,1,0,0:0:0:0:
140,204,98163,1,0,0:0:0:0:
39,266,98321,1,0,0:0:0:0:
30,286,98400,1,0,0:0:0:0:
27,308,98479,1,0,0:0:0:0:
58,147,98637,6,0,P|47:96|29:45,1,90
177,88,98953,1,0,0:0:0:0:
196,99,99032,1,0,0:0:0:0:
217,106,99111,1,0,0:0:0:0:
328,52,99268,1,0,0:0:0:0:
349,174,99426,1,0,0:0:0:0:
464,100,99584,1,0,0:0:0:0:
467,77,99663,1,0,0:0:0:0:
462,54,99742,1,0,0:0:0:0:
443,223,99900,6,0,P|465:275|492:308,1,90
373,360,100216,1,0,0:0:0:0:
355,345,100295,1,0,0:0:0:0:
334,336,100374,1,0,0:0:0:0:
211,345,100532,1,0,0:0:0:0:
260,226,100689,1,0,0:0:0:0:
128,263,100847,1,0,0:0:0:0:
110,276,100926,1,0,0:0:0:0:
99,296,101005,1,0,0:0:0:0:
39,194,101163,6,0,P|36:141|24:105,1,90
135,26,101479,1,0,0:0:0:0:
151,41,101558,1,0,0:0:0:0:
159,61,101637,1,0,0:0:0:0:
180,155,101795,1,0,0:0:0:0:
262,47,101953,1,0,0:0:0:0:
309,156,102111,1,0,0:0:0:0:
325,170,102189,1,0,0:0:0:0:
346,180,102268,1,0,0:0:0:0:
367,185,102347,1,0,0:0:0:0:
390,184,102426,6,0,P|439:176|471:139,1,90
476,281,102742,2,0,L|473:338,2,45
344,291,103058,2,0,P|285:288|243:274,1,90
168,196,103374,1,0,0:0:0:0:
168,196,103453,1,0,0:0:0:0:
168,196,103532,1,0,0:0:0:0:
83,273,103689,6,0,P|93:319|93:366,1,90
21,180,104005,2,0,L|28:119,2,45
112,68,104321,2,0,P|154:50|210:50,1,90
284,123,104637,1,0,0:0:0:0:
284,123,104716,1,0,0:0:0:0:
284,123,104795,1,0,0:0:0:0:
331,25,104953,5,0,0:0:0:0:
411,131,105111,1,0,0:0:0:0:
410,144,105189,1,0,0:0:0:0:
409,157,105268,1,0,0:0:0:0:
409,171,105347,1,0,0:0:0:0:
408,184,105426,1,0,0:0:0:0:
408,198,105505,1,0,0:0:0:0:
407,211,105584,1,0,0:0:0:0:
311,237,105742,1,0,0:0:0:0:
311,250,105820,1,0,0:0:0:0:
312,263,105899,1,0,0:0:0:0:
312,277,105978,1,0,0:0:0:0:
313,290,106057,1,0,0:0:0:0:
313,304,106136,1,0,0:0:0:0:
314,317,106215,5,0,0:0:0:0:
205,348,106374,1,0,0:0:0:0:
191,346,106452,1,0,0:0:0:0:
178,344,106531,1,0,0:0:0:0:
164,343,106610,1,0,0:0:0:0:
151,341,106689,1,0,0:0:0:0:
137,340,106768,1,0,0:0:0:0:
124,338,106847,1,0,0:0:0:0:
47,250,107005,5,0,0:0:0:0:
35,221,107083,1,0,0:0:0:0:
35,189,107162,1,0,0:0:0:0:
47,160,107241,1,0,0:0:0:0:
69,138,107320,1,0,0:0:0:0:
98,126,107399,1,0,0:0:0:0:
129,126,107479,6,0,P|173:129|213:155,1,90
249,250,107795,2,0,L|242:307,2,45
326,119,108111,2,0,P|300:77|256:41,1,90
344,220,108426,1,0,0:0:0:0:
344,220,108505,1,0,0:0:0:0:
344,220,108584,1,0,0:0:0:0:
445,142,108742,6,0,P|457:91|457:40,1,90
457,248,109058,2,0,L|510:251,2,45
344,220,109374,2,0,P|289:205|248:210,1,90
207,302,109689,1,0,0:0:0:0:
207,302,109768,1,0,0:0:0:0:
207,302,109847,1,0,0:0:0:0:
117,128,110005,5,0,0:0:0:0:
117,128,110084,1,0,0:0:0:0:
117,128,110163,2,0,L|104:68,1,45
117,256,110321,1,0,0:0:0:0:
117,256,110400,1,0,0:0:0:0:
117,256,110479,2,0,L|104:316,1,45
226,98,110637,5,0,0:0:0:0:
226,98,110716,1,0,0:0:0:0:
226,98,110795,2,0,L|228:36,1,45
226,286,110953,1,0,0:0:0:0:
226,286,111032,1,0,0:0:0:0:
226,286,111111,2,0,L|228:347,1,45
335,68,111268,5,0,0:0:0:0:
335,68,111347,1,0,0:0:0:0:
335,68,111426,2,0,L|353:9,1,45
335,316,111584,1,0,0:0:0:0:
335,316,111663,1,0,0:0:0:0:
335,316,111742,2,0,L|353:374,1,45
448,192,111900,5,0,0:0:0:0:
192,192,112058,1,0,0:0:0:0:
214,192,112136,1,0,0:0:0:0:
237,192,112215,1,0,0:0:0:0:
259,192,112294,1,0,0:0:0:0:
282,192,112373,1,0,0:0:0:0:
304,192,112452,1,0,0:0:0:0:
327,192,112531,5,0,0:0:0:0:
327,192,112847,1,0,0:0:0:0:
102,77,113005,1,0,0:0:0:0:
360,192,113163,1,0,0:0:0:0:
102,307,113321,1,0,0:0:0:0:
393,192,113479,1,0,0:0:0:0:
32,192,113637,1,0,0:0:0:0:
426,192,113795,5,0,0:0:0:0:
256,262,113953,1,0,0:0:0:0:
236,250,114031,1,0,0:0:0:0:
221,234,114110,1,0,0:0:0:0:
212,214,114189,1,0,0:0:0:0:
208,191,114268,1,0,0:0:0:0:
212,169,114347,1,0,0:0:0:0:
222,149,114426,1,0,0:0:0:0:
237,132,114505,1,0,0:0:0:0:
256,121,114584,1,0,0:0:0:0:
327,343,114742,5,0,0:0:0:0:
282,340,114820,1,0,0:0:0:0:
237,337,114899,1,0,0:0:0:0:
192,335,114978,1,0,0:0:0:0:
147,332,115057,5,0,0:0:0:0:
98,309,115136,1,0,0:0:0:0:
75,262,115215,1,0,0:0:0:0:
87,210,115294,1,0,0:0:0:0:
129,178,115373,1,0,0:0:0:0:
170,145,115453,1,0,0:0:0:0:
182,93,115532,1,0,0:0:0:0:
159,46,115611,1,0,0:0:0:0:
109,24,115690,1,0,0:0:0:0:
57,36,115768,1,0,0:0:0:0:
29,82,115847,1,0,0:0:0:0:
35,135,115926,1,0,0:0:0:0:
74,171,116005,1,0,0:0:0:0:
129,178,116084,1,0,0:0:0:0:
182,184,116163,1,0,0:0:0:0:
222,220,116242,1,0,0:0:0:0:
234,272,116321,5,0,0:0:0:0:
220,324,116400,1,0,0:0:0:0:
167,340,116479,1,0,0:0:0:0:
118,316,116558,1,0,0:0:0:0:
107,264,116637,1,0,0:0:0:0:
132,216,116716,1,0,0:0:0:0:
185,208,116795,1,0,0:0:0:0:
234,229,116874,1,0,0:0:0:0:
287,231,116953,1,0,0:0:0:0:
337,210,117032,1,0,0:0:0:0:
364,163,117111,1,0,0:0:0:0:
369,109,117189,1,0,0:0:0:0:
343,61,117268,1,0,0:0:0:0:
289,51,117347,1,0,0:0:0:0:
250,89,117426,1,0,0:0:0:0:
251,143,117505,1,0,0:0:0:0:
294,174,117584,5,0,0:0:0:0:
345,167,117663,1,0,0:0:0:0:
394,189,117742,1,0,0:0:0:0:
422,236,117821,1,0,0:0:0:0:
421,290,117900,1,0,0:0:0:0:
391,334,117979,1,0,0:0:0:0:
341,357,118058,1,0,0:0:0:0:
288,347,118137,1,0,0:0:0:0:
248,310,118216,1,0,0:0:0:0:
234,258,118295,1,0,0:0:0:0:
220,206,118374,1,0,0:0:0:0:
180,169,118453,1,0,0:0:0:0:
127,159,118532,1,0,0:0:0:0:
77,182,118611,1,0,0:0:0:0:
47,226,118690,1,0,0:0:0:0:
46,280,118769,1,0,0:0:0:0:
72,326,118847,6,0,L|77:381,3,53.9999983520508
174,268,119163,2,0,L|179:213,3,53.9999983520508
241,357,119479,1,0,0:0:0:0:
264,370,119557,1,0,0:0:0:0:
290,377,119636,1,0,0:0:0:0:
317,376,119715,1,0,0:0:0:0:
342,368,119794,1,0,0:0:0:0:
365,353,119873,1,0,0:0:0:0:
382,332,119952,1,0,0:0:0:0:
393,307,120031,1,0,0:0:0:0:
396,281,120111,5,0,0:0:0:0:
391,217,120189,1,0,0:0:0:0:
349,169,120268,1,0,0:0:0:0:
287,157,120347,1,0,0:0:0:0:
230,186,120426,1,0,0:0:0:0:
173,214,120505,1,0,0:0:0:0:
110,202,120584,1,0,0:0:0:0:
68,154,120663,1,0,0:0:0:0:
64,91,120742,1,0,0:0:0:0:
98,36,120821,1,0,0:0:0:0:
161,21,120900,1,0,0:0:0:0:
222,41,120979,1,0,0:0:0:0:
251,98,121058,1,0,0:0:0:0:
246,162,121137,1,0,0:0:0:0:
265,223,121216,1,0,0:0:0:0:
317,261,121295,1,0,0:0:0:0:
380,272,121374,5,0,0:0:0:0:
442,254,121453,1,0,0:0:0:0:
462,192,121532,1,0,0:0:0:0:
444,129,121611,1,0,0:0:0:0:
386,101,121689,1,0,0:0:0:0:
325,124,121768,1,0,0:0:0:0:
302,184,121847,1,0,0:0:0:0:
321,245,121926,1,0,0:0:0:0:
309,308,122005,1,0,0:0:0:0:
248,330,122084,1,0,0:0:0:0:
186,310,122163,1,0,0:0:0:0:
164,248,122242,1,0,0:0:0:0:
185,186,122321,1,0,0:0:0:0:
178,121,122400,1,0,0:0:0:0:
128,79,122479,1,0,0:0:0:0:
63,85,122558,1,0,0:0:0:0:
23,136,122637,5,0,0:0:0:0:
24,200,122716,1,0,0:0:0:0:
68,247,122795,1,0,0:0:0:0:
132,248,122874,1,0,0:0:0:0:
185,211,122953,1,0,0:0:0:0:
238,174,123032,1,0,0:0:0:0:
302,175,123111,1,0,0:0:0:0:
346,222,123190,1,0,0:0:0:0:
347,286,123269,1,0,0:0:0:0:
304,333,123347,1,0,0:0:0:0:
239,326,123426,1,0,0:0:0:0:
210,267,123505,1,0,0:0:0:0:
231,205,123584,1,0,0:0:0:0:
293,187,123663,1,0,0:0:0:0:
335,137,123742,1,0,0:0:0:0:
329,72,123821,1,0,0:0:0:0:
281,27,123901,5,0,0:0:0:0:
254,28,123979,1,0,0:0:0:0:
227,30,124058,1,0,0:0:0:0:
200,32,124137,1,0,0:0:0:0:
174,79,124216,1,0,0:0:0:0:
147,77,124294,1,0,0:0:0:0:
120,75,124373,1,0,0:0:0:0:
93,74,124452,1,0,0:0:0:0:
71,23,124532,2,0,L|12:27,3,53.9999983520508
174,79,124847,1,0,0:0:0:0:
23,165,125005,1,0,0:0:0:0:
23,165,125084,1,0,0:0:0:0:
23,165,125163,5,0,0:0:0:0:
15,217,125241,1,0,0:0:0:0:
30,269,125320,1,0,0:0:0:0:
67,308,125399,1,0,0:0:0:0:
117,327,125478,1,0,0:0:0:0:
170,322,125557,1,0,0:0:0:0:
216,294,125636,1,0,0:0:0:0:
246,249,125715,1,0,0:0:0:0:
252,196,125794,1,0,0:0:0:0:
258,142,125874,1,0,0:0:0:0:
287,97,125953,1,0,0:0:0:0:
333,70,126032,1,0,0:0:0:0:
386,65,126111,1,0,0:0:0:0:
437,84,126190,1,0,0:0:0:0:
473,123,126269,1,0,0:0:0:0:
489,174,126348,1,0,0:0:0:0:
481,227,126426,5,0,0:0:0:0:
442,264,126505,1,0,0:0:0:0:
388,257,126584,1,0,0:0:0:0:
346,222,126663,1,0,0:0:0:0:
342,168,126742,1,0,0:0:0:0:
367,120,126821,1,0,0:0:0:0:
358,66,126900,1,0,0:0:0:0:
323,24,126979,1,0,0:0:0:0:
269,15,127058,1,0,0:0:0:0:
220,38,127137,1,0,0:0:0:0:
200,88,127216,1,0,0:0:0:0:
210,141,127295,1,0,0:0:0:0:
245,181,127374,1,0,0:0:0:0:
255,234,127453,1,0,0:0:0:0:
234,284,127532,1,0,0:0:0:0:
184,305,127611,1,0,0:0:0:0:
131,294,127689,5,0,0:0:0:0:
96,252,127768,1,0,0:0:0:0:
95,197,127847,1,0,0:0:0:0:
122,150,127926,1,0,0:0:0:0:
173,133,128005,1,0,0:0:0:0:
226,141,128084,1,0,0:0:0:0:
279,149,128163,1,0,0:0:0:0:
330,132,128242,1,0,0:0:0:0:
357,85,128321,1,0,0:0:0:0:
352,31,128400,1,0,0:0:0:0:
309,2,128479,1,0,0:0:0:0:
257,19,128558,1,0,0:0:0:0:
236,69,128637,1,0,0:0:0:0:
262,116,128716,1,0,0:0:0:0:
314,129,128795,1,0,0:0:0:0:
350,169,128874,1,0,0:0:0:0:
353,222,128953,6,0,L|347:289,3,53.9999983520508
258,347,129268,2,0,L|252:280,3,53.9999983520508
241,199,129584,1,0,0:0:0:0:
231,173,129662,1,0,0:0:0:0:
216,151,129741,1,0,0:0:0:0:
195,134,129820,1,0,0:0:0:0:
171,123,129899,1,0,0:0:0:0:
144,118,129978,1,0,0:0:0:0:
117,120,130057,1,0,0:0:0:0:
92,129,130136,1,0,0:0:0:0:
70,144,130216,6,0,P|57:170|51:203,1,53.9999983520508
109,324,130374,1,0,0:0:0:0:
161,334,130452,1,0,0:0:0:0:
211,316,130531,1,0,0:0:0:0:
245,274,130610,1,0,0:0:0:0:
252,221,130689,1,0,0:0:0:0:
231,172,130768,1,0,0:0:0:0:
210,122,130847,1,0,0:0:0:0:
217,70,130926,1,0,0:0:0:0:
250,28,131005,1,0,0:0:0:0:
301,10,131084,1,0,0:0:0:0:
353,20,131162,1,0,0:0:0:0:
383,65,131242,1,0,0:0:0:0:
377,118,131321,1,0,0:0:0:0:
333,150,131400,1,0,0:0:0:0:
279,147,131479,5,0,0:0:0:0:
240,108,131558,1,0,0:0:0:0:
220,57,131637,1,0,0:0:0:0:
169,36,131716,1,0,0:0:0:0:
121,60,131795,1,0,0:0:0:0:
107,112,131874,1,0,0:0:0:0:
134,159,131954,1,0,0:0:0:0:
184,175,132032,1,0,0:0:0:0:
237,194,132111,1,0,0:0:0:0:
266,240,132191,1,0,0:0:0:0:
251,291,132270,1,0,0:0:0:0:
205,320,132349,1,0,0:0:0:0:
154,305,132426,1,0,0:0:0:0:
129,257,132505,1,0,0:0:0:0:
140,204,132584,1,0,0:0:0:0:
187,178,132663,1,0,0:0:0:0:
240,169,132742,6,0,P|273:166|304:170,1,53.9999983520508
471,151,132900,1,0,0:0:0:0:
463,98,132978,1,0,0:0:0:0:
430,55,133057,1,0,0:0:0:0:
381,36,133136,1,0,0:0:0:0:
328,42,133215,1,0,0:0:0:0:
285,74,133294,1,0,0:0:0:0:
264,122,133373,1,0,0:0:0:0:
240,169,133453,1,0,0:0:0:0:
198,201,133532,1,0,0:0:0:0:
145,208,133611,1,0,0:0:0:0:
95,187,133690,1,0,0:0:0:0:
63,145,133769,1,0,0:0:0:0:
55,92,133847,1,0,0:0:0:0:
78,43,133926,1,0,0:0:0:0:
122,13,134005,6,0,L|197:22,3,53.9999983520508
249,111,134321,2,0,L|174:120,3,53.9999983520508
302,18,134637,2,0,L|377:27,3,53.9999983520508
399,123,134953,1,0,0:0:0:0:
464,31,135111,1,0,0:0:0:0:
494,201,135268,6,0,P|466:240|452:374,1,180
238,339,135742,1,0,0:0:0:0:
328,269,135900,2,0,P|281:231|230:227,1,90
135,256,136216,1,0,0:0:0:0:
178,135,136374,1,0,0:0:0:0:
14,240,136532,6,0,P|6:291|7:343,1,90
79,119,136847,2,0,P|48:78|10:47,1,90
135,256,137163,2,0,P|200:257|322:229,1,180
469,123,137795,6,0,P|451:165|437:305,1,180
383,44,138268,1,0,0:0:0:0:
354,161,138426,2,0,P|309:145|254:145,1,90
166,177,138742,1,0,0:0:0:0:
253,41,138900,1,0,0:0:0:0:
113,79,139058,6,0,P|71:120|93:260,1,180
140,318,139532,1,0,0:0:0:0:
251,188,139689,2,0,P|210:171|165:177,1,90
274,334,140005,2,0,P|318:339|359:322,1,90
467,233,140321,6,0,P|413:217|362:93,1,180
390,20,140795,1,0,0:0:0:0:
253,114,140953,2,0,P|204:126|145:127,1,90
49,78,141268,1,0,0:0:0:0:
133,3,141426,1,0,0:0:0:0:
42,186,141584,6,0,P|24:240|23:299,1,90
185,214,141900,2,0,P|179:169|164:127,1,90
129,319,142216,2,0,P|192:342|325:351,1,180
482,140,142847,6,0,P|392:145|307:173,1,180
403,46,143321,1,0,0:0:0:0:
285,35,143479,2,0,P|237:24|177:28,1,90
131,133,143795,2,0,P|175:133|219:122,1,90
45,60,144111,6,0,P|25:118|15:258,1,180
106,298,144584,1,0,0:0:0:0:
131,133,144742,2,0,P|181:159|228:169,1,90
258,161,144979,1,0,0:0:0:0:
258,161,145058,1,0,0:0:0:0:
119,28,145216,1,0,0:0:0:0:
224,273,145374,6,0,P|287:277|405:252,1,180
378,139,145847,1,0,0:0:0:0:
131,133,146005,2,0,P|102:174|90:241,1,90
258,161,146321,1,0,0:0:0:0:
214,65,146479,1,0,0:0:0:0:
224,273,146637,6,0,P|279:279|344:264,1,90
347,159,146953,2,0,P|302:154|257:160,1,90
436,238,147268,2,0,P|461:179|465:41,1,180
257,160,147900,6,0,P|259:249|290:333,1,180
393,358,148374,1,0,0:0:0:0:
188,311,148532,2,0,P|169:254|169:201,1,90
58,142,148847,2,0,P|53:186|37:228,1,90
154,99,149163,6,0,P|216:66|344:63,1,180
413,125,149637,1,0,0:0:0:0:
225,172,149795,2,0,P|275:188|326:223,1,90
464,264,150111,2,0,P|414:280|363:315,1,90
199,346,150426,6,0,P|223:283|219:150,1,180
156,88,150900,1,0,0:0:0:0:
23,261,151058,2,0,P|68:271|121:266,1,90
224,171,151374,1,0,0:0:0:0:
156,88,151532,1,0,0:0:0:0:
315,60,151689,6,0,P|365:60|420:75,1,90
351,273,152005,2,0,P|301:273|246:258,1,90
434,178,152321,2,0,P|462:224|481:364,1,180
111,268,152953,6,0,P|119:178|160:99,1,180
240,32,153426,1,0,0:0:0:0:
282,250,153584,2,0,P|263:201|260:152,1,90
384,22,153900,2,0,P|378:66|361:107,1,90
477,323,154216,6,0,P|463:279|472:126,1,180
361,107,154689,1,0,0:0:0:0:
259,164,154847,1,0,0:0:0:0:
257,52,155005,1,0,0:0:0:0:
226,19,155083,1,0,0:0:0:0:
183,10,155162,1,0,0:0:0:0:
142,27,155241,1,0,0:0:0:0:
119,65,155320,1,0,0:0:0:0:
122,109,155399,1,0,0:0:0:0:
149,143,155479,6,0,B|231:133|265:188|265:188|310:141|400:181|400:181|356:255|293:258|293:258|392:262|445:284|451:324|412:359|372:312,1,630
289,345,157847,1,0,0:0:0:0:
289,345,157926,1,0,0:0:0:0:
289,345,158005,5,0,0:0:0:0:
289,39,158321,1,0,0:0:0:0:
136,192,158637,1,0,0:0:0:0:
442,192,158953,1,0,0:0:0:0:
289,345,159268,6,0,P|207:343|116:298,1,180
103,285,159663,1,0,0:0:0:0:
103,285,159742,1,0,0:0:0:0:
121,165,159900,1,0,0:0:0:0:
226,215,160058,1,0,0:0:0:0:
241,104,160216,1,0,0:0:0:0:
227,86,160295,1,0,0:0:0:0:
206,77,160374,1,0,0:0:0:0:
336,183,160532,6,0,P|393:173|495:83,1,180
494,77,160926,1,0,0:0:0:0:
494,77,161005,1,0,0:0:0:0:
365,52,161163,2,0,P|306:48|269:35,1,90
257,27,161400,2,0,P|198:31|161:44,1,90
151,55,161637,1,0,0:0:0:0:
22,88,161795,6,0,P|41:136|44:271,1,180
33,281,162189,1,0,0:0:0:0:
33,281,162268,2,0,P|96:254|221:243,1,180
294,321,162742,1,0,0:0:0:0:
275,333,162821,1,0,0:0:0:0:
254,341,162900,1,0,0:0:0:0:
312,187,163058,6,0,L|363:199,1,45
482,230,163216,2,0,L|446:268,1,45
359,355,163374,2,0,L|343:304,1,45
332,170,163532,6,0,L|378:195,1,45
485,256,163690,2,0,L|441:283,1,45
334,345,163848,2,0,L|332:292,1,45
356,160,164005,5,0,0:0:0:0:
385,194,164083,1,0,0:0:0:0:
391,238,164162,1,0,0:0:0:0:
371,277,164241,1,0,0:0:0:0:
333,300,164321,6,0,L|263:294,1,45
217,171,164479,2,0,L|261:194,1,45
170,317,164637,2,0,L|155:261,1,45
69,208,164795,2,0,L|54:264,1,45
20,371,164953,6,0,L|75:361,1,45
202,281,165111,2,0,L|147:271,1,45
1,198,165268,2,0,L|58:183,1,45
175,183,165426,2,0,L|144:135,1,45
85,49,165584,6,0,L|76:110,1,45
256,191,165742,2,0,L|247:130,1,45
179,21,165900,2,0,L|217:68,1,45
344,149,166058,2,0,L|371:95,1,45
329,14,166216,6,0,L|378:28,1,45
510,116,166374,2,0,L|461:130,1,45
326,234,166532,2,0,L|371:264,1,45
477,286,166689,2,0,L|468:341,1,45
321,372,166847,6,0,P|275:353|216:347,1,90
222,328,167084,2,0,P|172:334|118:358,1,90
112,348,167321,1,0,0:0:0:0:
24,244,167479,6,0,P|41:186|39:143,1,90
24,141,167716,2,0,P|67:99|87:61,1,90
79,51,167953,1,0,0:0:0:0:
229,19,168111,6,0,P|246:61|246:119,1,90
188,212,168426,1,0,0:0:0:0:
173,195,168505,1,0,0:0:0:0:
166,173,168584,1,0,0:0:0:0:
311,191,168742,1,0,0:0:0:0:
236,312,168900,1,0,0:0:0:0:
214,319,168978,1,0,0:0:0:0:
192,321,169057,1,0,0:0:0:0:
170,319,169136,1,0,0:0:0:0:
148,312,169215,1,0,0:0:0:0:
129,301,169294,1,0,0:0:0:0:
112,286,169374,6,0,P|87:246|82:188,1,90
58,45,169689,2,0,L|42:97,1,45
132,122,169847,2,0,P|173:103|231:100,1,90
301,242,170163,2,0,P|256:237|215:218,1,90
201,200,170400,1,0,0:0:0:0:
201,200,170479,1,0,0:0:0:0:
391,137,170637,6,0,P|412:204|422:336,1,180
417,335,171032,1,0,0:0:0:0:
417,335,171111,2,0,P|362:304|229:297,1,180
155,354,171584,1,0,0:0:0:0:
134,363,171663,1,0,0:0:0:0:
111,364,171742,1,0,0:0:0:0:
43,273,171900,6,0,P|54:223|53:178,1,90
62,58,172216,1,0,0:0:0:0:
82,67,172295,1,0,0:0:0:0:
98,81,172374,1,0,0:0:0:0:
147,244,172532,2,0,P|170:198|181:154,1,90
220,41,172848,1,0,0:0:0:0:
237,55,172927,1,0,0:0:0:0:
249,72,173006,1,0,0:0:0:0:
254,242,173163,6,0,P|288:204|310:164,1,90
351,58,173479,1,0,0:0:0:0:
442,227,173637,2,0,P|426:178|403:139,1,90
220,41,173953,1,0,0:0:0:0:
239,51,174031,1,0,0:0:0:0:
261,59,174110,1,0,0:0:0:0:
283,63,174189,1,0,0:0:0:0:
305,65,174268,1,0,0:0:0:0:
327,63,174347,1,0,0:0:0:0:
349,58,174426,6,0,L|395:50,1,45
512,150,174584,2,0,L|466:142,1,45
346,198,174742,2,0,L|395:226,1,45
502,267,174900,2,0,L|481:314,1,45
379,376,175058,6,0,L|358:329,1,45
270,221,175216,2,0,L|249:268,1,45
213,376,175374,2,0,L|170:352,1,45
145,206,175532,2,0,L|111:239,1,45
13,342,175689,6,0,L|64:355,1,45
205,334,175847,2,0,L|159:344,1,45
69,248,176005,2,0,L|128:233,1,45
270,221,176163,2,0,L|224:184,1,45
163,90,176321,6,0,L|149:139,1,45
296,225,176479,2,0,L|282:176,1,45
259,28,176637,2,0,L|297:75,1,45
373,171,176795,2,0,L|397:123,1,45
508,23,176953,6,0,P|497:72|502:129,1,90
478,122,177189,2,0,P|478:166|468:210,1,90
481,229,177426,1,0,0:0:0:0:
383,315,177584,2,0,P|332:297|280:306,1,90
287,320,177821,2,0,P|236:338|184:329,1,90
179,326,178058,1,0,0:0:0:0:
70,262,178216,6,0,P|76:223|68:154,1,90
18,82,178532,1,0,0:0:0:0:
174,165,178689,2,0,P|191:113|192:58,1,90
286,23,179005,1,0,0:0:0:0:
300,40,179083,1,0,0:0:0:0:
318,54,179162,1,0,0:0:0:0:
338,63,179241,1,0,0:0:0:0:
360,69,179320,1,0,0:0:0:0:
382,70,179399,1,0,0:0:0:0:
412,74,179478,5,0,0:0:0:0:
412,74,179558,1,0,0:0:0:0:
412,74,179637,2,0,L|474:80,1,45
501,211,179795,1,0,0:0:0:0:
501,211,179875,1,0,0:0:0:0:
501,211,179954,2,0,L|439:217,1,45
326,159,180111,1,0,0:0:0:0:
326,159,180189,1,0,0:0:0:0:
326,159,180268,2,0,L|335:217,1,45
251,327,180426,1,0,0:0:0:0:
251,327,180504,1,0,0:0:0:0:
251,327,180583,2,0,L|260:269,1,45
187,181,180742,5,0,0:0:0:0:
153,210,180820,1,0,0:0:0:0:
110,222,180899,1,0,0:0:0:0:
66,214,180978,1,0,0:0:0:0:
29,189,181057,1,0,0:0:0:0:
6,151,181136,1,0,0:0:0:0:
1,106,181215,1,0,0:0:0:0:
16,64,181294,1,0,0:0:0:0:
47,32,181373,1,0,0:0:0:0:
89,16,181452,1,0,0:0:0:0:
134,20,181531,1,0,0:0:0:0:
173,41,181610,1,0,0:0:0:0:
199,78,181689,1,0,0:0:0:0:
225,114,181768,1,0,0:0:0:0:
264,135,181847,1,0,0:0:0:0:
308,139,181926,1,0,0:0:0:0:
350,123,182005,5,0,0:0:0:0:
350,123,182084,1,0,0:0:0:0:
350,123,182163,2,0,L|408:119,1,45
471,232,182321,1,0,0:0:0:0:
471,232,182400,1,0,0:0:0:0:
471,232,182479,2,0,L|413:228,1,45
304,234,182637,1,0,0:0:0:0:
304,234,182716,1,0,0:0:0:0:
304,234,182795,2,0,L|311:288,1,45
196,351,182953,1,0,0:0:0:0:
196,351,183032,1,0,0:0:0:0:
196,351,183111,2,0,L|203:297,1,45
125,200,183268,5,0,0:0:0:0:
88,174,183346,1,0,0:0:0:0:
69,134,183425,1,0,0:0:0:0:
73,89,183504,1,0,0:0:0:0:
99,53,183583,1,0,0:0:0:0:
139,34,183662,1,0,0:0:0:0:
183,38,183741,1,0,0:0:0:0:
220,63,183820,1,0,0:0:0:0:
238,104,183899,5,0,0:0:0:0:
237,126,183979,1,0,0:0:0:0:
235,148,184058,1,0,0:0:0:0:
233,171,184137,1,0,0:0:0:0:
232,193,184216,2,0,L|227:254,1,45
382,321,184374,2,0,L|377:260,1,45
354,132,184532,6,0,P|394:170|497:119,1,180
492,20,185005,1,0,0:0:0:0:
310,46,185163,2,0,P|273:80|264:134,1,90
292,234,185479,1,0,0:0:0:0:
354,132,185637,1,0,0:0:0:0:
200,219,185795,6,0,L|208:321,1,90
108,204,186111,2,0,L|116:102,1,90
292,234,186426,1,0,0:0:0:0:
16,189,186584,1,0,0:0:0:0:
17,166,186662,1,0,0:0:0:0:
19,144,186741,1,0,0:0:0:0:
21,121,186820,1,0,0:0:0:0:
23,99,186899,1,0,0:0:0:0:
24,76,186979,1,0,0:0:0:0:
33,61,187058,5,0,0:0:0:0:
33,61,187137,1,0,0:0:0:0:
33,61,187216,2,0,L|37:7,1,45
206,79,187374,1,0,0:0:0:0:
206,79,187453,1,0,0:0:0:0:
206,79,187532,2,0,L|210:133,1,45
89,228,187689,1,0,0:0:0:0:
89,228,187768,1,0,0:0:0:0:
89,228,187847,2,0,L|149:217,1,45
278,310,188005,1,0,0:0:0:0:
278,310,188084,1,0,0:0:0:0:
278,310,188163,2,0,L|218:299,1,45
323,181,188321,5,0,0:0:0:0:
357,153,188399,1,0,0:0:0:0:
401,143,188478,1,0,0:0:0:0:
444,152,188557,1,0,0:0:0:0:
480,180,188638,5,0,0:0:0:0:
444,178,188716,1,0,0:0:0:0:
409,187,188795,1,0,0:0:0:0:
377,203,188874,1,0,0:0:0:0:
360,235,188953,5,0,0:0:0:0:
386,228,189032,1,0,0:0:0:0:
412,229,189111,1,0,0:0:0:0:
437,235,189189,1,0,0:0:0:0:
459,250,189268,5,0,0:0:0:0:
441,253,189347,1,0,0:0:0:0:
425,262,189426,1,0,0:0:0:0:
412,274,189505,1,0,0:0:0:0:
402,289,189584,6,0,P|396:321|396:340,1,45
289,357,189742,1,0,0:0:0:0:
244,359,189820,1,0,0:0:0:0:
203,341,189899,1,0,0:0:0:0:
177,306,189978,1,0,0:0:0:0:
170,262,190057,1,0,0:0:0:0:
184,220,190136,1,0,0:0:0:0:
217,189,190215,1,0,0:0:0:0:
249,158,190295,1,0,0:0:0:0:
264,116,190374,1,0,0:0:0:0:
257,72,190453,1,0,0:0:0:0:
230,37,190532,1,0,0:0:0:0:
189,19,190611,1,0,0:0:0:0:
145,21,190689,1,0,0:0:0:0:
109,48,190768,1,0,0:0:0:0:
93,90,190847,6,0,P|88:124|91:151,1,45
91,254,191005,1,0,0:0:0:0:
126,281,191083,1,0,0:0:0:0:
170,288,191162,1,0,0:0:0:0:
212,275,191241,1,0,0:0:0:0:
243,243,191320,1,0,0:0:0:0:
256,200,191399,1,0,0:0:0:0:
248,157,191478,5,0,0:0:0:0:
290,182,191557,1,0,0:0:0:0:
316,224,191636,1,0,0:0:0:0:
318,273,191715,1,0,0:0:0:0:
298,317,191794,5,0,0:0:0:0:
342,286,191874,1,0,0:0:0:0:
369,240,191953,1,0,0:0:0:0:
373,186,192032,1,0,0:0:0:0:
355,136,192111,5,0,0:0:0:0:
396,177,192189,1,0,0:0:0:0:
418,231,192268,1,0,0:0:0:0:
416,289,192347,1,0,0:0:0:0:
390,341,192426,1,0,0:0:0:0:
342,374,192505,1,0,0:0:0:0:
283,378,192584,1,0,0:0:0:0:
231,350,192663,1,0,0:0:0:0:
193,304,192742,1,0,0:0:0:0:
181,246,192821,1,0,0:0:0:0:
144,200,192900,1,0,0:0:0:0:
89,177,192980,1,0,0:0:0:0:
32,193,193059,1,0,0:0:0:0:
3,244,193138,1,0,0:0:0:0:
20,300,193216,1,0,0:0:0:0:
71,328,193295,1,0,0:0:0:0:
127,312,193374,5,0,0:0:0:0:
156,260,193453,1,0,0:0:0:0:
139,204,193532,1,0,0:0:0:0:
89,177,193611,1,0,0:0:0:0:
39,150,193689,1,0,0:0:0:0:
22,94,193768,1,0,0:0:0:0:
51,42,193847,1,0,0:0:0:0:
107,26,193926,1,0,0:0:0:0:
157,53,194005,6,0,L|167:114,1,45
239,203,194163,2,0,L|249:142,1,45
334,51,194321,1,0,0:0:0:0:
337,73,194399,1,0,0:0:0:0:
341,95,194478,1,0,0:0:0:0:
344,117,194557,1,0,0:0:0:0:
348,139,194637,6,0,L|358:200,1,45
386,331,194795,1,0,0:0:0:0:
363,292,194873,1,0,0:0:0:0:
324,272,194952,1,0,0:0:0:0:
280,277,195031,1,0,0:0:0:0:
245,305,195111,2,0,L|235:366,1,45
135,384,195268,2,0,L|125:323,1,45
41,258,195426,5,0,0:0:0:0:
84,247,195504,1,0,0:0:0:0:
115,215,195583,1,0,0:0:0:0:
124,172,195662,1,0,0:0:0:0:
110,130,195742,2,0,L|98:66,1,45
210,25,195900,2,0,L|197:89,1,45
233,206,196058,5,0,0:0:0:0:
251,165,196136,1,0,0:0:0:0:
287,140,196215,1,0,0:0:0:0:
331,138,196294,1,0,0:0:0:0:
370,159,196374,2,0,L|381:216,1,45
475,284,196532,2,0,L|485:227,1,45
359,316,196689,5,0,0:0:0:0:
331,350,196767,1,0,0:0:0:0:
289,361,196846,1,0,0:0:0:0:
249,343,196925,1,0,0:0:0:0:
229,303,197005,2,0,L|224:235,1,45
243,73,197163,5,0,0:0:0:0:
280,97,197242,1,0,0:0:0:0:
304,135,197321,2,0,L|311:194,1,45
126,281,197479,1,0,0:0:0:0:
89,257,197558,1,0,0:0:0:0:
65,219,197637,2,0,L|58:160,1,45
358,49,197795,5,0,0:0:0:0:
387,81,197874,1,0,0:0:0:0:
400,124,197953,2,0,L|391:182,1,45
225,258,198111,1,0,0:0:0:0:
196,226,198190,1,0,0:0:0:0:
183,183,198269,2,0,L|191:124,1,45
485,112,198426,5,0,0:0:0:0:
512,162,198504,1,0,0:0:0:0:
507,219,198583,1,0,0:0:0:0:
469,263,198662,1,0,0:0:0:0:
413,277,198741,5,0,0:0:0:0:
437,234,198820,1,0,0:0:0:0:
436,185,198899,1,0,0:0:0:0:
411,143,198978,1,0,0:0:0:0:
368,120,199057,5,0,0:0:0:0:
383,157,199137,1,0,0:0:0:0:
380,197,199216,1,0,0:0:0:0:
360,232,199295,1,0,0:0:0:0:
328,255,199374,5,0,0:0:0:0:
334,224,199452,1,0,0:0:0:0:
328,194,199531,1,0,0:0:0:0:
310,168,199610,1,0,0:0:0:0:
284,151,199689,6,0,P|258:141|235:139,1,45
129,239,199847,1,0,0:0:0:0:
139,281,199925,1,0,0:0:0:0:
169,315,200004,1,0,0:0:0:0:
210,331,200083,1,0,0:0:0:0:
254,325,200162,1,0,0:0:0:0:
291,299,200241,1,0,0:0:0:0:
312,260,200320,1,0,0:0:0:0:
330,219,200400,1,0,0:0:0:0:
368,194,200479,1,0,0:0:0:0:
411,190,200558,1,0,0:0:0:0:
454,204,200637,1,0,0:0:0:0:
482,237,200716,1,0,0:0:0:0:
493,281,200794,1,0,0:0:0:0:
480,324,200874,1,0,0:0:0:0:
440,345,200953,5,0,0:0:0:0:
395,352,201032,1,0,0:0:0:0:
352,336,201111,1,0,0:0:0:0:
327,299,201189,1,0,0:0:0:0:
320,254,201268,1,0,0:0:0:0:
292,218,201347,1,0,0:0:0:0:
251,197,201426,1,0,0:0:0:0:
206,199,201505,1,0,0:0:0:0:
168,224,201584,5,0,0:0:0:0:
179,176,201663,1,0,0:0:0:0:
213,141,201742,1,0,0:0:0:0:
260,128,201821,1,0,0:0:0:0:
307,141,201900,5,0,0:0:0:0:
267,106,201978,1,0,0:0:0:0:
215,95,202057,1,0,0:0:0:0:
164,110,202136,1,0,0:0:0:0:
133,155,202215,5,0,0:0:0:0:
133,155,202295,1,0,0:0:0:0:
133,155,202374,2,0,L|124:220,1,45
379,229,202530,1,0,0:0:0:0:
379,229,202610,1,0,0:0:0:0:
379,229,202689,2,0,L|370:163,1,45
41,143,202847,5,0,0:0:0:0:
41,143,202927,1,0,0:0:0:0:
41,143,203006,2,0,L|32:208,1,45
471,241,203162,1,0,0:0:0:0:
471,241,203242,1,0,0:0:0:0:
471,241,203321,2,0,L|462:175,1,45
256,0,203479,5,0,0:0:0:0:
199,33,203557,1,0,0:0:0:0:
180,96,203636,1,0,0:0:0:0:
211,155,203715,1,0,0:0:0:0:
273,176,203794,5,0,0:0:0:0:
238,131,203874,1,0,0:0:0:0:
239,73,203953,1,0,0:0:0:0:
275,30,204032,1,0,0:0:0:0:
332,19,204111,5,0,0:0:0:0:
294,50,204189,1,0,0:0:0:0:
283,97,204268,1,0,0:0:0:0:
303,141,204347,1,0,0:0:0:0:
345,165,204426,5,0,0:0:0:0:
330,128,204505,1,0,0:0:0:0:
340,89,204584,1,0,0:0:0:0:
370,64,204663,1,0,0:0:0:0:
410,61,204742,6,0,P|439:67|456:77,1,45
471,182,204900,1,0,0:0:0:0:
476,225,204978,1,0,0:0:0:0:
455,265,205057,1,0,0:0:0:0:
416,285,205136,1,0,0:0:0:0:
372,279,205216,2,0,L|311:268,1,45
220,180,205374,2,0,L|281:168,1,45
226,309,205532,5,0,0:0:0:0:
181,306,205610,1,0,0:0:0:0:
141,286,205689,1,0,0:0:0:0:
112,252,205768,1,0,0:0:0:0:
99,209,205847,2,0,L|105:153,1,45
178,36,206005,2,0,L|183:92,1,45
264,171,206163,5,0,0:0:0:0:
269,126,206241,1,0,0:0:0:0:
297,92,206320,1,0,0:0:0:0:
338,76,206399,1,0,0:0:0:0:
382,84,206479,2,0,L|441:94,1,45
503,191,206637,2,0,L|444:200,1,45
333,231,206795,5,0,0:0:0:0:
367,258,206873,1,0,0:0:0:0:
377,301,206952,1,0,0:0:0:0:
359,341,207031,1,0,0:0:0:0:
319,361,207111,2,0,L|261:360,1,45
157,340,207268,5,0,0:0:0:0:
119,302,207346,1,0,0:0:0:0:
109,249,207425,1,0,0:0:0:0:
131,201,207504,1,0,0:0:0:0:
176,172,207583,1,0,0:0:0:0:
229,174,207662,1,0,0:0:0:0:
282,176,207742,1,0,0:0:0:0:
327,147,207821,1,0,0:0:0:0:
348,99,207900,1,0,0:0:0:0:
339,46,207979,1,0,0:0:0:0:
301,8,208057,1,0,0:0:0:0:
246,7,208137,1,0,0:0:0:0:
201,38,208216,1,0,0:0:0:0:
179,87,208295,1,0,0:0:0:0:
129,108,208374,1,0,0:0:0:0:
75,110,208453,1,0,0:0:0:0:
26,87,208532,6,0,P|16:63|14:41,1,45
179,87,208689,1,0,0:0:0:0:
221,119,208767,1,0,0:0:0:0:
237,170,208846,1,0,0:0:0:0:
221,220,208925,1,0,0:0:0:0:
178,253,209005,1,0,0:0:0:0:
124,254,209084,1,0,0:0:0:0:
79,223,209163,2,0,P|65:195|65:171,1,45
264,43,209321,5,0,0:0:0:0:
301,81,209399,1,0,0:0:0:0:
318,132,209478,1,0,0:0:0:0:
325,185,209557,1,0,0:0:0:0:
311,237,209636,1,0,0:0:0:0:
285,284,209715,1,0,0:0:0:0:
242,318,209795,6,0,P|210:338|128:340,1,90
19,285,210111,1,0,0:0:0:0:
32,267,210189,1,0,0:0:0:0:
50,254,210268,1,0,0:0:0:0:
144,197,210426,1,0,0:0:0:0:
59,126,210584,1,0,0:0:0:0:
164,62,210742,1,0,0:0:0:0:
185,68,210821,1,0,0:0:0:0:
203,81,210900,1,0,0:0:0:0:
261,192,211058,6,0,P|301:158|353:154,1,90
456,152,211374,1,0,0:0:0:0:
446,172,211453,1,0,0:0:0:0:
447,194,211532,1,0,0:0:0:0:
470,307,211689,1,0,0:0:0:0:
376,266,211847,1,0,0:0:0:0:
307,342,212005,1,0,0:0:0:0:
285,349,212084,1,0,0:0:0:0:
262,349,212163,1,0,0:0:0:0:
134,297,212321,5,0,0:0:0:0:
223,242,212479,1,0,0:0:0:0:
224,228,212557,1,0,0:0:0:0:
226,215,212636,1,0,0:0:0:0:
227,202,212715,1,0,0:0:0:0:
228,188,212794,1,0,0:0:0:0:
229,175,212873,1,0,0:0:0:0:
231,161,212952,1,0,0:0:0:0:
320,115,213111,1,0,0:0:0:0:
318,101,213189,1,0,0:0:0:0:
317,88,213268,1,0,0:0:0:0:
316,74,213347,1,0,0:0:0:0:
314,61,213426,1,0,0:0:0:0:
313,47,213505,1,0,0:0:0:0:
312,34,213584,5,0,0:0:0:0:
223,59,213742,1,0,0:0:0:0:
210,60,213821,1,0,0:0:0:0:
196,61,213900,1,0,0:0:0:0:
183,63,213979,1,0,0:0:0:0:
169,64,214058,1,0,0:0:0:0:
156,65,214137,1,0,0:0:0:0:
142,67,214215,1,0,0:0:0:0:
36,43,214374,1,0,0:0:0:0:
15,66,214452,1,0,0:0:0:0:
3,95,214531,1,0,0:0:0:0:
0,126,214610,1,0,0:0:0:0:
9,156,214689,1,0,0:0:0:0:
26,182,214768,1,0,0:0:0:0:
52,201,214847,6,0,P|89:218|151:211,1,90
242,158,215163,1,0,0:0:0:0:
236,179,215242,1,0,0:0:0:0:
238,201,215321,1,0,0:0:0:0:
327,287,215479,1,0,0:0:0:0:
359,142,215637,1,0,0:0:0:0:
446,226,215795,1,0,0:0:0:0:
459,243,215874,1,0,0:0:0:0:
464,264,215953,1,0,0:0:0:0:
340,374,216111,6,0,P|326:328|328:278,1,90
238,201,216426,1,0,0:0:0:0:
229,221,216505,1,0,0:0:0:0:
214,238,216584,1,0,0:0:0:0:
113,272,216742,1,0,0:0:0:0:
180,358,216900,1,0,0:0:0:0:
43,369,217058,1,0,0:0:0:0:
31,349,217137,1,0,0:0:0:0:
23,327,217216,1,0,0:0:0:0:
113,112,217374,5,0,0:0:0:0:
113,112,217453,1,0,0:0:0:0:
113,112,217532,2,0,L|164:119,1,45
113,272,217689,1,0,0:0:0:0:
113,272,217768,1,0,0:0:0:0:
113,272,217847,2,0,L|164:265,1,45
226,68,218005,5,0,0:0:0:0:
226,68,218084,1,0,0:0:0:0:
226,68,218163,2,0,L|273:87,1,45
226,316,218321,1,0,0:0:0:0:
226,316,218400,1,0,0:0:0:0:
226,316,218479,2,0,L|273:296,1,45
326,23,218637,5,0,0:0:0:0:
326,23,218716,1,0,0:0:0:0:
326,23,218795,2,0,L|366:54,1,45
326,361,218953,1,0,0:0:0:0:
326,361,219032,1,0,0:0:0:0:
326,361,219111,2,0,L|366:329,1,45
480,192,219268,5,0,0:0:0:0:
256,192,219426,1,0,0:0:0:0:
278,192,219504,1,0,0:0:0:0:
301,192,219583,1,0,0:0:0:0:
323,192,219662,1,0,0:0:0:0:
346,192,219741,1,0,0:0:0:0:
368,192,219820,1,0,0:0:0:0:
391,192,219899,5,0,0:0:0:0:
391,192,220216,1,0,0:0:0:0:
103,192,220374,1,0,0:0:0:0:
415,51,220532,1,0,0:0:0:0:
71,192,220689,1,0,0:0:0:0:
415,333,220847,1,0,0:0:0:0:
47,200,221005,1,0,0:0:0:0:
47,200,221084,1,0,0:0:0:0:
47,200,221163,5,0,0:0:0:0:
416,32,221400,1,0,0:0:0:0:
256,352,221637,1,0,0:0:0:0:
192,64,221795,5,0,0:0:0:0:
486,239,222032,1,0,0:0:0:0:
45,343,222268,1,0,0:0:0:0:
264,173,224953,6,0,B|217:153|163:180|163:180|273:96|432:128|432:128|361:143|348:216,1,506.250019311906
449,362,226216,6,0,B|454:320|442:264|395:232|343:209|254:235|236:329|236:329|220:277|174:258|130:259|84:295,1,506.250019311906
20,268,227479,6,0,B|26:308|9:351|9:351|94:273|42:192|42:192|97:136|77:40|77:40|65:89|21:119,1,506.250019311906
156,24,228742,6,0,B|174:82|157:146|157:146|192:83|258:56,1,236.250009012223
317,49,229374,1,0,0:0:0:0:
329,154,229532,1,0,0:0:0:0:
319,167,229611,1,0,0:0:0:0:
317,183,229689,1,0,0:0:0:0:
395,248,229847,1,0,0:0:0:0:
405,261,229926,1,0,0:0:0:0:
407,277,230005,6,0,P|373:322|250:321,1,180
196,251,230479,1,0,0:0:0:0:
317,183,230637,2,0,P|265:164|228:131,1,90
196,48,230953,1,0,0:0:0:0:
385,117,231111,6,0,P|408:153|405:219,1,90
255,301,231426,2,0,P|233:252|341:193,1,180
281,92,231900,2,0,P|230:81|186:54,1,90
51,189,232216,2,0,P|90:168|134:159,1,90
222,247,232532,5,0,0:0:0:0:
222,247,232611,1,0,0:0:0:0:
222,247,232689,2,0,L|217:302,1,45
342,176,232847,1,0,0:0:0:0:
342,176,232926,1,0,0:0:0:0:
342,176,233004,2,0,L|337:121,1,45
353,321,233163,1,0,0:0:0:0:
353,321,233242,1,0,0:0:0:0:
353,321,233321,2,0,L|408:330,1,45
498,217,233479,1,0,0:0:0:0:
498,217,233558,1,0,0:0:0:0:
498,217,233637,2,0,L|443:226,1,45
342,176,233795,6,0,L|337:121,1,45
217,50,233953,1,0,0:0:0:0:
164,55,234031,1,0,0:0:0:0:
123,89,234110,1,0,0:0:0:0:
111,141,234189,1,0,0:0:0:0:
130,190,234268,2,0,P|153:209|182:217,1,45
34,187,234426,1,0,0:0:0:0:
10,234,234504,1,0,0:0:0:0:
21,287,234583,1,0,0:0:0:0:
60,324,234662,1,0,0:0:0:0:
110,332,234741,2,0,P|137:321|159:300,1,45
166,214,234900,2,0,P|193:224|215:245,1,45
296,332,235058,5,0,0:0:0:0:
289,268,235136,1,0,0:0:0:0:
320,212,235215,1,0,0:0:0:0:
377,184,235294,1,0,0:0:0:0:
440,194,235373,1,0,0:0:0:0:
487,238,235452,1,0,0:0:0:0:
482,304,235532,1,0,0:0:0:0:
422,329,235611,1,0,0:0:0:0:
364,300,235689,1,0,0:0:0:0:
360,235,235768,1,0,0:0:0:0:
408,191,235847,1,0,0:0:0:0:
424,128,235926,1,0,0:0:0:0:
405,66,236005,1,0,0:0:0:0:
351,29,236084,1,0,0:0:0:0:
286,36,236163,1,0,0:0:0:0:
237,79,236242,1,0,0:0:0:0:
226,142,236321,5,0,0:0:0:0:
241,204,236400,1,0,0:0:0:0:
246,270,236479,1,0,0:0:0:0:
213,325,236558,1,0,0:0:0:0:
153,349,236637,1,0,0:0:0:0:
91,329,236716,1,0,0:0:0:0:
61,271,236795,1,0,0:0:0:0:
70,206,236874,1,0,0:0:0:0:
121,167,236953,1,0,0:0:0:0:
185,167,237032,1,0,0:0:0:0:
232,211,237111,1,0,0:0:0:0:
279,255,237189,1,0,0:0:0:0:
343,255,237268,1,0,0:0:0:0:
398,221,237347,1,0,0:0:0:0:
409,157,237426,1,0,0:0:0:0:
380,98,237505,1,0,0:0:0:0:
320,72,237584,5,0,0:0:0:0:
257,88,237663,1,0,0:0:0:0:
219,140,237742,1,0,0:0:0:0:
226,204,237821,1,0,0:0:0:0:
253,262,237900,1,0,0:0:0:0:
233,323,237979,1,0,0:0:0:0:
184,365,238058,1,0,0:0:0:0:
119,365,238137,1,0,0:0:0:0:
78,314,238216,1,0,0:0:0:0:
83,249,238295,1,0,0:0:0:0:
133,207,238374,1,0,0:0:0:0:
197,213,238453,1,0,0:0:0:0:
236,264,238532,1,0,0:0:0:0:
283,308,238611,1,0,0:0:0:0:
346,306,238689,1,0,0:0:0:0:
395,264,238768,1,0,0:0:0:0:
406,200,238847,6,0,L|411:130,3,53.9999983520508
310,70,239163,2,0,L|315:140,3,53.9999983520508
222,208,239479,2,0,L|227:138,1,53.9999983520508
126,78,239637,2,0,L|131:148,1,53.9999983520508
33,153,239795,1,0,0:0:0:0:
31,179,239873,1,0,0:0:0:0:
29,206,239952,1,0,0:0:0:0:
27,233,240031,1,0,0:0:0:0:
25,260,240111,6,0,L|19:317,1,53.9999983520508
112,343,240268,1,0,0:0:0:0:
174,329,240347,1,0,0:0:0:0:
216,281,240426,1,0,0:0:0:0:
221,218,240505,1,0,0:0:0:0:
225,154,240584,1,0,0:0:0:0:
267,106,240663,1,0,0:0:0:0:
329,93,240742,1,0,0:0:0:0:
387,120,240821,1,0,0:0:0:0:
411,179,240900,1,0,0:0:0:0:
392,241,240979,1,0,0:0:0:0:
331,263,241058,1,0,0:0:0:0:
267,248,241137,1,0,0:0:0:0:
238,189,241216,1,0,0:0:0:0:
186,149,241295,1,0,0:0:0:0:
120,145,241374,5,0,0:0:0:0:
70,176,241453,1,0,0:0:0:0:
51,233,241532,1,0,0:0:0:0:
73,287,241610,1,0,0:0:0:0:
126,316,241689,1,0,0:0:0:0:
184,303,241768,1,0,0:0:0:0:
221,256,241847,1,0,0:0:0:0:
218,197,241926,1,0,0:0:0:0:
178,153,242005,1,0,0:0:0:0:
138,109,242084,1,0,0:0:0:0:
135,50,242163,1,0,0:0:0:0:
172,3,242242,1,0,0:0:0:0:
236,0,242321,1,0,0:0:0:0:
288,38,242400,1,0,0:0:0:0:
296,102,242479,1,0,0:0:0:0:
328,157,242558,1,0,0:0:0:0:
391,169,242637,6,0,P|419:147|428:131,1,53.9999983520508
482,250,242795,1,0,0:0:0:0:
446,303,242873,1,0,0:0:0:0:
387,327,242952,1,0,0:0:0:0:
324,314,243031,1,0,0:0:0:0:
279,269,243110,1,0,0:0:0:0:
267,206,243189,1,0,0:0:0:0:
254,143,243268,1,0,0:0:0:0:
209,97,243347,1,0,0:0:0:0:
147,85,243426,1,0,0:0:0:0:
88,109,243505,1,0,0:0:0:0:
52,162,243583,5,0,0:0:0:0:
105,169,243662,1,0,0:0:0:0:
145,204,243741,1,0,0:0:0:0:
156,256,243820,1,0,0:0:0:0:
142,308,243900,6,0,P|124:325|99:339,1,53.9999983520508
241,311,244058,1,0,0:0:0:0:
288,286,244137,1,0,0:0:0:0:
314,239,244216,1,0,0:0:0:0:
306,187,244295,1,0,0:0:0:0:
275,143,244375,2,0,P|257:126|226:116,1,53.9999983520508
379,91,244532,5,0,0:0:0:0:
404,99,244610,1,0,0:0:0:0:
427,113,244689,1,0,0:0:0:0:
446,132,244768,1,0,0:0:0:0:
458,156,244847,1,0,0:0:0:0:
465,182,244926,1,0,0:0:0:0:
465,209,245005,1,0,0:0:0:0:
458,235,245084,1,0,0:0:0:0:
452,266,245163,5,0,0:0:0:0:
452,266,245242,1,0,0:0:0:0:
452,266,245321,2,0,L|459:340,1,53.9999983520508
353,215,245479,1,0,0:0:0:0:
353,215,245558,1,0,0:0:0:0:
353,215,245637,2,0,L|360:141,1,53.9999983520508
277,279,245795,1,0,0:0:0:0:
277,279,245874,1,0,0:0:0:0:
277,279,245953,2,0,L|284:353,1,53.9999983520508
178,228,246111,1,0,0:0:0:0:
178,228,246190,1,0,0:0:0:0:
178,228,246269,2,0,L|185:154,1,53.9999983520508
127,320,246426,5,0,0:0:0:0:
127,320,246505,1,0,0:0:0:0:
127,320,246584,2,0,L|64:309,1,53.9999983520508
5,236,246742,1,0,0:0:0:0:
5,236,246821,1,0,0:0:0:0:
5,236,246900,2,0,L|68:225,1,53.9999983520508
143,152,247058,1,0,0:0:0:0:
143,152,247137,1,0,0:0:0:0:
143,152,247216,2,0,L|80:141,1,53.9999983520508
21,68,247374,1,0,0:0:0:0:
21,68,247453,1,0,0:0:0:0:
21,68,247532,2,0,L|84:57,1,53.9999983520508
209,26,247689,5,0,0:0:0:0:
209,26,247768,1,0,0:0:0:0:
209,26,247847,2,0,L|212:94,1,53.9999983520508
319,142,248005,1,0,0:0:0:0:
319,142,248084,1,0,0:0:0:0:
319,142,248163,2,0,L|322:74,1,53.9999983520508
223,185,248321,1,0,0:0:0:0:
223,185,248400,1,0,0:0:0:0:
223,185,248479,2,0,L|226:253,1,53.9999983520508
333,301,248637,1,0,0:0:0:0:
333,301,248716,1,0,0:0:0:0:
333,301,248795,2,0,L|336:233,1,53.9999983520508
431,173,248953,5,0,0:0:0:0:
431,173,249032,1,0,0:0:0:0:
431,173,249111,2,0,L|498:184,1,53.9999983520508
483,293,249268,1,0,0:0:0:0:
483,293,249347,1,0,0:0:0:0:
483,293,249426,2,0,L|416:304,1,53.9999983520508
253,224,249584,1,0,0:0:0:0:
270,203,249663,1,0,0:0:0:0:
295,193,249742,1,0,0:0:0:0:
322,195,249821,1,0,0:0:0:0:
345,208,249900,1,0,0:0:0:0:
359,231,249979,1,0,0:0:0:0:
362,257,250058,1,0,0:0:0:0:
352,282,250137,1,0,0:0:0:0:
341,309,250215,5,0,0:0:0:0:
341,309,250295,1,0,0:0:0:0:
341,309,250374,2,0,P|300:321|256:322,1,80.9999975280763
330,17,250532,1,0,0:0:0:0:
330,17,250612,1,0,0:0:0:0:
330,17,250691,2,0,P|371:5|415:4,1,80.9999975280763
126,366,250847,1,0,0:0:0:0:
126,366,250927,1,0,0:0:0:0:
126,366,251006,2,0,P|84:355|45:334,1,80.9999975280763
437,97,251164,1,0,0:0:0:0:
437,97,251244,1,0,0:0:0:0:
437,97,251323,2,0,P|478:107|517:128,1,80.9999975280763
99,205,251479,5,0,0:0:0:0:
99,205,251558,1,0,0:0:0:0:
99,205,251637,2,0,L|89:99,1,80.9999975280763
452,244,251795,1,0,0:0:0:0:
452,244,251874,1,0,0:0:0:0:
452,244,251953,2,0,L|442:350,1,80.9999975280763
7,209,252111,1,0,0:0:0:0:
7,209,252190,1,0,0:0:0:0:
7,209,252269,2,0,L|-3:103,1,80.9999975280763
467,83,252426,1,0,0:0:0:0:
467,83,252505,1,0,0:0:0:0:
467,83,252584,2,0,L|457:189,1,80.9999975280763
115,325,252742,5,0,0:0:0:0:
115,325,252821,1,0,0:0:0:0:
115,325,252900,2,0,P|97:284|96:234,1,80.9999975280763
352,15,253058,1,0,0:0:0:0:
352,15,253137,1,0,0:0:0:0:
352,15,253216,2,0,P|370:56|371:106,1,80.9999975280763
0,257,253374,1,0,0:0:0:0:
0,257,253453,1,0,0:0:0:0:
0,257,253532,2,0,P|4:212|29:168,1,80.9999975280763
467,83,253689,1,0,0:0:0:0:
467,83,253768,1,0,0:0:0:0:
467,83,253847,2,0,P|462:127|437:171,1,80.9999975280763
256,384,254005,5,0,0:0:0:0:
203,374,254083,1,0,0:0:0:0:
163,339,254162,1,0,0:0:0:0:
148,288,254241,1,0,0:0:0:0:
163,237,254320,1,0,0:0:0:0:
202,201,254399,1,0,0:0:0:0:
256,192,254478,1,0,0:0:0:0:
309,182,254558,1,0,0:0:0:0:
348,146,254637,1,0,0:0:0:0:
363,95,254716,1,0,0:0:0:0:
348,44,254795,1,0,0:0:0:0:
308,9,254874,1,0,0:0:0:0:
256,0,254953,2,0,P|218:1|155:21,1,80.9999975280763
84,95,255111,1,0,0:0:0:0:
84,95,255189,1,0,0:0:0:0:
84,95,255268,5,0,0:0:0:0:
64,158,255346,1,0,0:0:0:0:
92,218,255425,1,0,0:0:0:0:
152,245,255504,1,0,0:0:0:0:
215,226,255583,1,0,0:0:0:0:
278,206,255663,1,0,0:0:0:0:
338,234,255742,1,0,0:0:0:0:
365,294,255821,1,0,0:0:0:0:
346,357,255899,1,0,0:0:0:0:
282,381,255979,1,0,0:0:0:0:
219,354,256058,1,0,0:0:0:0:
194,290,256137,1,0,0:0:0:0:
215,226,256216,1,0,0:0:0:0:
236,162,256295,1,0,0:0:0:0:
211,98,256374,1,0,0:0:0:0:
147,74,256453,1,0,0:0:0:0:
85,104,256533,5,0,0:0:0:0:
61,166,256611,1,0,0:0:0:0:
87,227,256689,1,0,0:0:0:0:
151,247,256768,1,0,0:0:0:0:
215,226,256847,1,0,0:0:0:0:
274,193,256926,1,0,0:0:0:0:
341,199,257005,1,0,0:0:0:0:
395,239,257084,1,0,0:0:0:0:
409,304,257163,1,0,0:0:0:0:
370,359,257242,1,0,0:0:0:0:
302,363,257321,1,0,0:0:0:0:
248,321,257400,1,0,0:0:0:0:
242,253,257479,1,0,0:0:0:0:
284,200,257558,1,0,0:0:0:0:
297,135,257637,1,0,0:0:0:0:
258,79,257716,1,0,0:0:0:0:
191,68,257795,5,0,0:0:0:0:
132,101,257874,1,0,0:0:0:0:
119,167,257953,1,0,0:0:0:0:
149,227,258032,1,0,0:0:0:0:
212,250,258111,1,0,0:0:0:0:
278,246,258189,1,0,0:0:0:0:
339,216,258268,1,0,0:0:0:0:
380,162,258347,1,0,0:0:0:0:
444,140,258426,1,0,0:0:0:0:
503,172,258505,1,0,0:0:0:0:
511,238,258584,1,0,0:0:0:0:
461,284,258663,1,0,0:0:0:0:
394,270,258742,1,0,0:0:0:0:
364,208,258821,1,0,0:0:0:0:
314,162,258900,1,0,0:0:0:0:
247,149,258979,1,0,0:0:0:0:
182,168,259058,5,0,0:0:0:0:
135,217,259137,1,0,0:0:0:0:
143,284,259216,1,0,0:0:0:0:
200,319,259295,1,0,0:0:0:0:
265,304,259374,1,0,0:0:0:0:
279,238,259453,1,0,0:0:0:0:
249,177,259532,1,0,0:0:0:0:
182,168,259611,1,0,0:0:0:0:
136,119,259689,6,0,L|129:45,1,67.5000025749208
248,0,259847,2,0,L|241:74,1,67.5000025749208
337,119,260005,1,0,0:0:0:0:
362,97,260083,1,0,0:0:0:0:
394,85,260162,1,0,0:0:0:0:
427,87,260241,1,0,0:0:0:0:
458,100,260321,6,0,P|483:134|494:181,1,67.5000025749208
456,276,260479,1,0,0:0:0:0:
405,318,260557,1,0,0:0:0:0:
339,320,260636,1,0,0:0:0:0:
286,280,260715,1,0,0:0:0:0:
271,215,260794,1,0,0:0:0:0:
255,150,260874,1,0,0:0:0:0:
202,110,260953,1,0,0:0:0:0:
136,111,261032,1,0,0:0:0:0:
86,154,261110,1,0,0:0:0:0:
80,221,261189,1,0,0:0:0:0:
124,271,261268,1,0,0:0:0:0:
190,281,261347,1,0,0:0:0:0:
243,240,261426,1,0,0:0:0:0:
296,199,261505,1,0,0:0:0:0:
362,209,261584,5,0,0:0:0:0:
406,259,261663,1,0,0:0:0:0:
401,326,261742,1,0,0:0:0:0:
344,363,261821,1,0,0:0:0:0:
277,351,261900,1,0,0:0:0:0:
243,292,261979,1,0,0:0:0:0:
254,225,262058,1,0,0:0:0:0:
252,157,262137,1,0,0:0:0:0:
226,94,262216,1,0,0:0:0:0:
167,62,262295,1,0,0:0:0:0:
101,76,262374,1,0,0:0:0:0:
59,129,262453,1,0,0:0:0:0:
61,197,262532,1,0,0:0:0:0:
107,247,262610,1,0,0:0:0:0:
173,256,262689,1,0,0:0:0:0:
231,221,262768,1,0,0:0:0:0:
252,157,262847,6,0,L|242:72,1,67.5000025749208
321,0,263005,1,0,0:0:0:0:
386,12,263083,1,0,0:0:0:0:
429,61,263162,1,0,0:0:0:0:
432,128,263241,1,0,0:0:0:0:
393,181,263320,1,0,0:0:0:0:
353,234,263400,1,0,0:0:0:0:
363,300,263479,1,0,0:0:0:0:
409,348,263558,1,0,0:0:0:0:
475,353,263636,1,0,0:0:0:0:
512,299,263716,1,0,0:0:0:0:
501,232,263795,1,0,0:0:0:0:
437,208,263874,1,0,0:0:0:0:
375,235,263953,1,0,0:0:0:0:
308,245,264032,1,0,0:0:0:0:
257,199,264111,6,0,L|249:124,3,67.5000025749208
162,25,264426,2,0,L|154:100,3,67.5000025749208
70,212,264742,2,0,L|62:137,3,67.5000025749208
122,355,265058,1,0,0:0:0:0:
141,291,265136,1,0,0:0:0:0:
196,254,265215,1,0,0:0:0:0:
262,259,265294,1,0,0:0:0:0:
311,303,265374,6,0,L|317:354,1,45
430,369,265532,1,0,0:0:0:0:
424,324,265610,1,0,0:0:0:0:
419,279,265689,1,0,0:0:0:0:
414,234,265768,1,0,0:0:0:0:
408,190,265847,2,0,L|402:145,1,45
312,56,266005,2,0,L|306:100,1,45
226,204,266163,1,0,0:0:0:0:
226,204,266242,1,0,0:0:0:0:
226,204,266321,2,0,L|220:159,1,45
130,70,266479,2,0,L|124:114,1,45
16,193,266637,6,0,L|74:203,1,45
180,280,266795,2,0,L|122:290,1,45
18,364,266953,1,0,0:0:0:0:
18,364,267032,1,0,0:0:0:0:
18,364,267111,2,0,L|76:374,1,45
177,261,267268,2,0,L|119:271,1,45
229,373,267426,1,0,0:0:0:0:
229,373,267504,1,0,0:0:0:0:
229,373,267584,2,0,L|273:380,1,45
316,259,267742,2,0,L|271:266,1,45
375,356,267900,6,0,L|419:363,1,45
469,268,268058,1,0,0:0:0:0:
491,229,268136,1,0,0:0:0:0:
490,185,268215,1,0,0:0:0:0:
467,147,268294,1,0,0:0:0:0:
427,127,268374,2,0,L|382:121,1,45
301,40,268532,2,0,L|346:34,1,45
297,162,268689,2,0,L|252:156,1,45
171,75,268847,1,0,0:0:0:0:
171,75,268926,1,0,0:0:0:0:
171,75,269005,2,0,L|216:69,1,45
103,171,269163,5,0,0:0:0:0:
96,214,269241,1,0,0:0:0:0:
111,256,269320,1,0,0:0:0:0:
145,285,269399,1,0,0:0:0:0:
189,294,269478,1,0,0:0:0:0:
231,280,269557,1,0,0:0:0:0:
261,247,269637,2,0,L|270:184,1,45
357,128,269795,2,0,L|366:190,1,45
458,203,269953,5,0,0:0:0:0:
454,225,270031,1,0,0:0:0:0:
451,247,270110,1,0,0:0:0:0:
448,269,270189,1,0,0:0:0:0:
444,292,270268,2,0,L|434:354,1,45
363,172,270426,6,0,L|353:109,1,45
264,55,270584,1,0,0:0:0:0:
233,22,270662,1,0,0:0:0:0:
190,13,270741,1,0,0:0:0:0:
150,32,270820,1,0,0:0:0:0:
128,70,270900,2,0,L|137:132,1,45
223,191,271058,2,0,L|232:128,1,45
35,148,271216,1,0,0:0:0:0:
35,148,271295,1,0,0:0:0:0:
35,148,271374,2,0,L|44:210,1,45
129,269,271532,2,0,L|138:206,1,45
22,328,271689,6,0,L|74:337,1,45
258,274,271847,2,0,L|206:283,1,45
163,373,272005,1,0,0:0:0:0:
163,373,272084,1,0,0:0:0:0:
163,373,272163,2,0,L|215:382,1,45
381,250,272321,2,0,L|329:259,1,45
305,365,272479,1,0,0:0:0:0:
305,365,272558,1,0,0:0:0:0:
305,365,272637,2,0,L|357:374,1,45
504,226,272795,2,0,L|452:235,1,45
238,144,272953,6,0,L|290:153,1,45
396,146,273111,1,0,0:0:0:0:
361,118,273189,1,0,0:0:0:0:
351,75,273268,1,0,0:0:0:0:
369,35,273347,1,0,0:0:0:0:
408,14,273426,1,0,0:0:0:0:
452,22,273505,1,0,0:0:0:0:
481,54,273584,6,0,L|474:228,1,161.999995056153
474,257,273821,2,0,B|428:217|428:217|309:240,1,161.999995056153
304,269,274058,2,0,L|203:261,1,80.9999975280763
148,104,274216,6,0,L|249:96,1,53.9999983520508
82,29,274374,1,0,0:0:0:0:
52,73,274452,1,0,0:0:0:0:
50,126,274531,1,0,0:0:0:0:
75,173,274610,1,0,0:0:0:0:
122,199,274689,2,0,L|223:191,1,53.9999983520508
50,126,274848,1,0,0:0:0:0:
20,170,274926,1,0,0:0:0:0:
18,223,275005,1,0,0:0:0:0:
43,270,275084,1,0,0:0:0:0:
90,296,275163,2,0,L|191:288,1,53.9999983520508
307,168,275321,2,0,L|206:160,1,53.9999983520508
294,342,275479,6,0,P|410:331|436:260,1,180
365,116,275716,2,0,P|316:221|365:279,1,180
488,210,275953,2,0,P|448:192|404:197,1,90
