osu file format v14

[General]
AudioFilename: audio.mp3
AudioLeadIn: 0
PreviewTime: 234353
Countdown: 1
SampleSet: None
StackLeniency: 0.2
Mode: 0
LetterboxInBreaks: 0
WidescreenStoryboard: 0

[Editor]
Bookmarks: 11294,16941,86118,285177
DistanceSpacing: 0.8
BeatDivisor: 4
GridSize: 16
TimelineZoom: 2.2

[Metadata]
Title:Beyond the Shine
TitleUnicode:Beyond the Shine
Artist:Ryu-5150
ArtistUnicode:Ryu-5150
Creator:deymdaniel
Version:Beyond
Source:
Tags:
BeatmapID:1881699
BeatmapSetID:901127

[Difficulty]
HPDrainRate:6
CircleSize:4.3
OverallDifficulty:8
ApproachRate:9.6
SliderMultiplier:2.3
SliderTickRate:1

[Events]
//Background and Video events
0,0,"free-fire-dragon-wallpapers-background-download-7680x4320.jpg",0,0
//Break Periods
2,23406,240197
//Storyboard Layer 0 (Background)
//Storyboard Layer 1 (Fail)
//Storyboard Layer 2 (Pass)
//Storyboard Layer 3 (Foreground)
//Storyboard Sound Samples

[TimingPoints]
-1411,352.941176470588,4,1,0,100,1,0
0,-100,4,3,0,65,0,0

[Colours]
Combo1 : 128,64,64
Combo2 : 128,0,0
Combo3 : 240,0,0
Combo4 : 83,83,83

[HitObjects]
35,59,0,5,8,0:0:0:0:
70,41,88,1,0,0:0:0:0:
110,41,177,1,0,0:0:0:0:
145,59,265,1,0,0:0:0:0:
164,94,353,1,0,0:0:0:0:
163,134,441,1,0,0:0:0:0:
193,106,530,5,8,0:0:0:0:
230,91,618,1,0,0:0:0:0:
270,94,706,1,0,0:0:0:0:
305,111,794,1,0,0:0:0:0:
331,141,883,1,0,0:0:0:0:
344,178,971,1,0,0:0:0:0:
347,167,1059,5,8,0:0:0:0:
350,156,1147,1,0,0:0:0:0:
353,145,1236,1,0,0:0:0:0:
357,134,1324,1,0,0:0:0:0:
421,171,1412,5,8,0:0:0:0:
423,182,1500,1,0,0:0:0:0:
425,193,1588,1,0,0:0:0:0:
427,204,1677,1,0,0:0:0:0:
429,215,1765,1,0,0:0:0:0:
431,226,1853,1,0,0:0:0:0:
361,252,1941,5,8,0:0:0:0:
371,272,2030,1,0,0:0:0:0:
386,288,2118,1,0,0:0:0:0:
405,299,2206,1,0,0:0:0:0:
427,304,2294,1,0,0:0:0:0:
450,301,2383,1,0,0:0:0:0:
470,291,2471,1,0,0:0:0:0:
487,276,2559,1,0,0:0:0:0:
498,256,2647,1,0,0:0:0:0:
502,233,2736,1,0,0:0:0:0:
462,239,2824,5,12,0:0:0:0:
422,245,2912,1,0,0:0:0:0:
382,251,3000,1,0,0:0:0:0:
342,258,3088,1,0,0:0:0:0:
301,264,3177,1,0,0:0:0:0:
261,271,3265,1,0,0:0:0:0:
290,244,3353,5,8,0:0:0:0:
329,236,3441,1,0,0:0:0:0:
367,249,3530,1,0,0:0:0:0:
394,278,3618,1,0,0:0:0:0:
403,316,3706,1,0,0:0:0:0:
392,354,3794,1,0,0:0:0:0:
381,314,3883,5,8,0:0:0:0:
372,274,3971,1,0,0:0:0:0:
363,234,4059,1,0,0:0:0:0:
352,195,4147,1,0,0:0:0:0:
373,229,4236,5,8,0:0:0:0:
401,256,4324,1,0,0:0:0:0:
440,265,4412,1,0,0:0:0:0:
484,254,4500,1,0,0:0:0:0:
506,220,4588,1,0,0:0:0:0:
510,179,4677,1,0,0:0:0:0:
469,178,4765,5,8,0:0:0:0:
431,161,4853,1,0,0:0:0:0:
415,124,4941,1,0,0:0:0:0:
429,89,5030,1,0,0:0:0:0:
419,44,5118,1,0,0:0:0:0:
384,22,5206,1,0,0:0:0:0:
345,11,5294,1,0,0:0:0:0:
304,27,5383,1,0,0:0:0:0:
275,56,5471,1,0,0:0:0:0:
270,95,5559,1,0,0:0:0:0:
287,131,5647,5,8,0:0:0:0:
293,90,5736,1,0,0:0:0:0:
275,56,5824,1,0,0:0:0:0:
239,37,5912,1,0,0:0:0:0:
199,41,6000,1,0,0:0:0:0:
166,64,6088,1,0,0:0:0:0:
205,74,6177,5,8,0:0:0:0:
243,84,6265,1,0,0:0:0:0:
281,94,6353,1,0,0:0:0:0:
319,104,6441,1,0,0:0:0:0:
358,114,6530,1,0,0:0:0:0:
396,126,6618,1,0,0:0:0:0:
371,94,6706,5,8,0:0:0:0:
331,84,6794,1,0,0:0:0:0:
292,95,6883,1,0,0:0:0:0:
259,118,6971,1,0,0:0:0:0:
292,95,7059,5,8,0:0:0:0:
331,84,7147,1,0,0:0:0:0:
371,94,7236,1,0,0:0:0:0:
396,126,7324,1,0,0:0:0:0:
411,163,7412,1,0,0:0:0:0:
402,202,7500,1,0,0:0:0:0:
429,172,7588,5,8,0:0:0:0:
469,166,7677,1,0,0:0:0:0:
501,188,7765,1,0,0:0:0:0:
511,226,7853,1,0,0:0:0:0:
497,263,7941,1,0,0:0:0:0:
466,286,8030,1,0,0:0:0:0:
426,276,8118,1,0,0:0:0:0:
398,247,8206,1,0,0:0:0:0:
398,206,8294,1,0,0:0:0:0:
423,174,8383,1,0,0:0:0:0:
389,196,8471,5,8,0:0:0:0:
348,196,8559,1,0,0:0:0:0:
310,181,8647,1,0,0:0:0:0:
288,146,8736,1,0,0:0:0:0:
282,106,8824,1,0,0:0:0:0:
297,69,8912,1,0,0:0:0:0:
316,104,9000,5,8,0:0:0:0:
300,141,9088,1,0,0:0:0:0:
276,173,9177,1,0,0:0:0:0:
242,194,9265,1,0,0:0:0:0:
202,200,9353,1,0,0:0:0:0:
163,189,9441,1,0,0:0:0:0:
167,199,9530,5,0,0:0:0:0:
168,210,9618,1,0,0:0:0:0:
170,221,9706,1,0,0:0:0:0:
172,232,9794,1,0,0:0:0:0:
227,292,9883,6,8,P|264:302|287:326,1,57.5
91,272,10059,2,0,L|78:341,3,57.5
255,224,10412,6,0,P|292:234|315:258,1,57.5,8|0,0:0|0:0,0:0:0:0:
101,215,10588,2,0,L|88:284,3,57.5
166,59,10941,5,0,0:0:0:0:
241,57,11030,1,0,0:0:0:0:
308,89,11118,1,0,0:0:0:0:
346,152,11206,1,0,0:0:0:0:
349,226,11294,1,12,0:0:0:0:
72,146,13941,6,0,L|62:207,1,57.5
30,348,14118,1,4,0:0:0:0:
488,228,15883,5,0,0:0:0:0:
391,152,16059,1,0,0:0:0:0:
388,175,16147,1,0,0:0:0:0:
385,198,16235,1,0,0:0:0:0:
382,221,16323,1,0,0:0:0:0:
379,245,16412,1,0,0:0:0:0:
376,268,16500,1,0,0:0:0:0:
258,304,16588,6,0,B|176:294|178:371|69:340,1,172.5
79,334,16941,2,0,L|85:267,1,57.5
105,105,17118,5,0,0:0:0:0:
125,63,17206,1,0,0:0:0:0:
161,35,17294,5,8,0:0:0:0:
205,22,17383,1,0,0:0:0:0:
250,26,17471,1,0,0:0:0:0:
290,46,17559,1,0,0:0:0:0:
322,77,17647,5,8,0:0:0:0:
340,119,17736,1,0,0:0:0:0:
344,164,17824,1,0,0:0:0:0:
328,207,17912,1,0,0:0:0:0:
300,243,18000,5,8,0:0:0:0:
291,288,18088,1,0,0:0:0:0:
306,331,18177,1,0,0:0:0:0:
339,361,18265,1,0,0:0:0:0:
382,375,18353,5,8,0:0:0:0:
427,367,18441,1,0,0:0:0:0:
463,338,18530,1,0,0:0:0:0:
480,295,18618,1,0,0:0:0:0:
472,249,18706,5,8,0:0:0:0:
438,217,18794,1,0,0:0:0:0:
395,199,18883,2,0,P|363:198|330:210,1,57.5
214,349,19059,2,0,P|218:320|231:295,1,57.5
395,199,19236,2,0,P|365:187|330:187,1,57.5
173,278,19412,2,0,P|186:252|207:233,1,57.5
395,199,19588,5,0,0:0:0:0:
438,217,19677,1,0,0:0:0:0:
472,249,19765,5,8,0:0:0:0:
480,295,19853,1,0,0:0:0:0:
463,338,19941,1,0,0:0:0:0:
427,367,20030,1,0,0:0:0:0:
382,375,20118,5,8,0:0:0:0:
339,361,20206,1,0,0:0:0:0:
306,331,20294,1,0,0:0:0:0:
291,288,20383,1,0,0:0:0:0:
300,243,20471,5,8,0:0:0:0:
328,207,20559,1,0,0:0:0:0:
328,252,20647,1,0,0:0:0:0:
299,288,20736,1,0,0:0:0:0:
260,312,20824,5,8,0:0:0:0:
214,316,20912,1,0,0:0:0:0:
172,297,21000,1,0,0:0:0:0:
144,260,21088,1,0,0:0:0:0:
137,214,21177,5,8,0:0:0:0:
153,171,21265,1,0,0:0:0:0:
191,146,21353,1,0,0:0:0:0:
235,135,21441,1,0,0:0:0:0:
280,145,21530,5,8,0:0:0:0:
315,174,21618,1,0,0:0:0:0:
338,213,21706,1,0,0:0:0:0:
376,238,21794,1,0,0:0:0:0:
422,239,21883,5,8,0:0:0:0:
425,255,21971,1,8,0:0:0:0:
427,272,22059,1,8,0:0:0:0:
429,288,22147,1,8,0:0:0:0:
432,305,22236,5,8,0:0:0:0:
442,260,22324,1,0,0:0:0:0:
453,215,22412,1,0,0:0:0:0:
463,170,22500,1,0,0:0:0:0:
474,125,22588,5,8,0:0:0:0:
468,78,22677,1,0,0:0:0:0:
436,44,22765,1,0,0:0:0:0:
394,24,22853,1,0,0:0:0:0:
348,24,22941,5,8,0:0:0:0:
302,35,23030,1,0,0:0:0:0:
268,66,23118,1,0,0:0:0:0:
257,110,23206,1,0,0:0:0:0:
205,160,240706,6,0,L|198:240,2,57.5
295,71,240971,2,0,L|338:137,2,57.5
300,160,241236,2,0,L|317:257,2,57.5
139,38,241500,1,0,0:0:0:0:
114,50,241588,1,0,0:0:0:0:
105,61,241677,1,0,0:0:0:0:
101,69,241765,1,0,0:0:0:0:
