osu file format v14

[General]
AudioFilename: audio.mp3
AudioLeadIn: 0
PreviewTime: 87536
Countdown: 1
SampleSet: Normal
StackLeniency: 0.7
Mode: 1
LetterboxInBreaks: 0
WidescreenStoryboard: 0

[Editor]
DistanceSpacing: 0.1
BeatDivisor: 4
GridSize: 32
TimelineZoom: 1

[Metadata]
Title:Battle Warrior
TitleUnicode:Battle Warrior
Artist:Ryu-5150
ArtistUnicode:Ryu-5150
Creator:TimmyAkmed
Version:Warrior Oni
Source:Touhou
Tags:Metal Power streams 5150 Ryu
BeatmapID:1524288
BeatmapSetID:721906

[Difficulty]
HPDrainRate:4
CircleSize:5
OverallDifficulty:6.5
ApproachRate:5
SliderMultiplier:1.4
SliderTickRate:1

[Events]
//Background and Video events
0,0,"ReimuBattleBG.jpg",0,0
//Break Periods
//Storyboard Layer 0 (Background)
//Storyboard Layer 1 (Fail)
//Storyboard Layer 2 (Pass)
//Storyboard Layer 3 (Foreground)
//Storyboard Sound Samples

[TimingPoints]
1436,300,4,1,0,70,1,0
20636,-98.0392156862745,4,1,0,70,0,0
38636,-90.9090909090909,4,1,0,70,0,0
39836,-97.0873786407767,4,1,0,70,0,0
39986,-100,4,1,0,70,0,0
59036,-98.0392156862745,4,1,0,70,0,0
68711,-95.2380952380952,4,1,0,70,0,0
78236,-98.0392156862745,4,1,0,70,0,0
85736,-105.263157894737,4,1,0,70,0,0
89036,-66.6666666666667,4,1,0,70,0,0
89486,-62.5,4,1,0,70,0,0
90236,-83.3333333333333,4,1,0,70,0,1
90386,-90.9090909090909,4,1,0,70,0,1
105836,-66.6666666666667,4,1,0,70,0,0
106436,-98.0392156862745,4,1,0,70,0,0
116636,-100,4,1,0,70,0,0
134786,-95.2380952380952,4,1,0,70,0,0
135086,-100,4,1,0,70,0,0
135836,-97.0873786407767,4,1,0,70,0,0
144086,-96.1538461538461,4,1,0,70,0,0
144161,-95.2380952380952,4,1,0,70,0,0
144236,-94.3396226415094,4,1,0,70,0,0
145436,-91.743119266055,4,1,0,70,0,0
145511,-90.9090909090909,4,1,0,70,0,0
155036,-97.0873786407767,4,1,0,70,0,0
161711,-98.0392156862745,4,1,0,70,0,0
161786,-99.009900990099,4,1,0,70,0,0
161861,-100,4,1,0,70,0,0
161936,-101.010101010101,4,1,0,70,0,0
162011,-102.040816326531,4,1,0,70,0,0
162086,-103.092783505155,4,1,0,70,0,0
162161,-104.166666666667,4,1,0,70,0,0
162236,-105.263157894737,4,1,0,70,0,0
165836,-66.6666666666667,4,1,0,70,0,0
166286,-62.5,4,1,0,70,0,0
166736,-66.6666666666667,4,1,0,70,0,0
167036,-100,4,1,0,70,0,1
167186,-90.9090909090909,4,1,0,70,0,1
182636,-66.6666666666667,4,1,0,70,0,0
183236,-100,4,1,0,70,0,0
183836,-100,4,1,0,70,0,0
188636,-111.111111111111,4,1,0,70,0,0
197036,-100,4,1,0,70,0,0
197636,-66.6666666666667,4,1,0,70,0,0
198236,-86.9565217391304,4,1,0,70,0,0
227036,-83.3333333333333,4,1,0,70,0,0
231536,-86.9565217391304,4,1,0,70,0,0
231836,-90.9090909090909,4,1,0,70,0,0
236336,-86.9565217391304,4,1,0,70,0,0
236636,-81.3008130081301,4,1,0,70,0,0
236786,-80,4,1,0,70,0,0
246236,-86.9565217391304,4,1,0,70,0,0
251036,-90.9090909090909,4,1,0,70,0,0
255536,-90.0900900900901,4,1,0,70,0,0
255611,-89.2857142857143,4,1,0,70,0,0
255686,-88.4955752212389,4,1,0,70,0,0
255761,-87.719298245614,4,1,0,70,0,0
255836,-86.9565217391304,4,1,0,70,0,0
260636,-100,4,1,0,70,0,0
263036,-105.263157894737,4,1,0,70,0,0
265436,-111.111111111111,4,1,0,70,0,0
269786,-108.695652173913,4,1,0,70,0,0
269861,-106.382978723404,4,1,0,70,0,0
269936,-104.166666666667,4,1,0,70,0,0
270011,-102.040816326531,4,1,0,70,0,0
270086,-100,4,1,0,70,0,0
270161,-98.0392156862745,4,1,0,70,0,0
270236,-95.2380952380952,4,1,0,70,0,0
277436,-100,4,1,0,70,0,0
279836,-100,4,1,0,70,0,0
280436,-83.3333333333333,4,1,0,70,0,0
281036,-66.6666666666667,4,1,0,70,0,0
281486,-62.5,4,1,0,70,0,0
282236,-83.3333333333333,4,1,0,70,0,1
282386,-90.9090909090909,4,1,0,70,0,1
291836,-86.9565217391304,4,1,0,70,0,1
298886,-84.7457627118644,4,1,0,70,0,1
300836,-87.719298245614,4,1,0,70,0,1
300936,-88.4955752212389,4,1,0,70,0,1
301036,-89.2857142857143,4,1,0,70,0,1
301136,-90.0900900900901,4,1,0,70,0,1
301236,-90.9090909090909,4,1,0,70,0,1
301336,-91.743119266055,4,1,0,70,0,1
301436,-86.9565217391304,4,1,0,70,0,1
309936,-87.719298245614,4,1,0,70,0,1
310036,-88.4955752212389,4,1,0,70,0,1
310136,-89.2857142857143,4,1,0,70,0,1
310236,-90.0900900900901,4,1,0,70,0,1
310336,-90.9090909090909,4,1,0,70,0,1
310436,-91.743119266055,4,1,0,70,0,1
310536,-92.5925925925926,4,1,0,70,0,1
310636,-93.4579439252336,4,1,0,70,0,1
310736,-94.3396226415094,4,1,0,70,0,1
310836,-95.2380952380952,4,1,0,70,0,1
310936,-96.1538461538461,4,1,0,70,0,1
311036,-86.9565217391304,4,1,0,70,0,1
317036,-66.6666666666667,4,1,0,70,0,1
317186,-86.9565217391304,4,1,0,70,0,1
320136,-84.0336134453781,4,1,0,70,0,1
320236,-84.7457627118644,4,1,0,70,0,1
320336,-85.4700854700855,4,1,0,70,0,1
320436,-86.2068965517241,4,1,0,70,0,1
320536,-86.9565217391304,4,1,0,70,0,1
320636,-81.9672131147541,4,1,0,70,0,1
321836,-76.9230769230769,4,1,0,70,0,0
323036,-66.6666666666667,4,1,0,70,0,0
333986,-40,4,1,0,70,0,0
334736,-40,4,1,0,70,0,0

[HitObjects]
288,96,1436,5,12,0:0:0:0:
288,224,1736,1,0,0:0:0:0:
288,192,1886,1,0,0:0:0:0:
288,224,2036,1,8,0:0:0:0:
256,224,2186,1,0,0:0:0:0:
288,224,2336,1,8,0:0:0:0:
256,160,2486,1,8,0:0:0:0:
288,224,2636,1,0,0:0:0:0:
352,256,2936,1,0,0:0:0:0:
352,256,3086,1,0,0:0:0:0:
352,256,3236,1,8,0:0:0:0:
384,256,3536,1,8,0:0:0:0:
384,256,3686,1,8,0:0:0:0:
384,256,3836,1,0,0:0:0:0:
320,224,4136,1,0,0:0:0:0:
320,224,4286,1,0,0:0:0:0:
320,224,4436,1,8,0:0:0:0:
320,224,4586,1,0,0:0:0:0:
320,224,4736,1,8,0:0:0:0:
320,224,4886,1,8,0:0:0:0:
320,224,5036,1,0,0:0:0:0:
320,224,5186,1,0,0:0:0:0:
320,224,5336,1,8,0:0:0:0:
320,224,5486,1,0,0:0:0:0:
320,224,5636,1,8,0:0:0:0:
320,224,5786,1,8,0:0:0:0:
320,224,5936,1,0,0:0:0:0:
320,224,6086,1,0,0:0:0:0:
320,224,6236,1,12,0:0:0:0:
288,192,6536,1,0,0:0:0:0:
288,192,6686,1,0,0:0:0:0:
288,192,6836,1,8,0:0:0:0:
416,288,7136,1,8,0:0:0:0:
416,288,7286,1,8,0:0:0:0:
416,288,7436,1,0,0:0:0:0:
416,288,7586,1,8,0:0:0:0:
416,288,7736,1,0,0:0:0:0:
416,288,7886,1,0,0:0:0:0:
416,288,8036,1,8,0:0:0:0:
416,288,8336,1,0,0:0:0:0:
416,288,8486,1,0,0:0:0:0:
384,288,8636,1,4,0:0:0:0:
288,192,8936,1,0,0:0:0:0:
288,192,9086,1,0,0:0:0:0:
320,192,9236,1,8,0:0:0:0:
160,160,9386,1,0,0:0:0:0:
160,160,9536,1,8,0:0:0:0:
160,160,9686,1,8,0:0:0:0:
160,160,9836,1,0,0:0:0:0:
160,160,9986,1,0,0:0:0:0:
160,160,10136,1,8,0:0:0:0:
160,160,10286,1,8,0:0:0:0:
192,160,10436,1,0,0:0:0:0:
192,160,10586,1,0,0:0:0:0:
160,160,10736,1,8,0:0:0:0:
192,160,10886,1,0,0:0:0:0:
192,160,11036,1,12,0:0:0:0:
256,224,11336,1,0,0:0:0:0:
256,224,11486,1,0,0:0:0:0:
256,224,11636,1,8,0:0:0:0:
256,224,11936,1,0,0:0:0:0:
256,224,12086,1,0,0:0:0:0:
256,192,12236,1,0,0:0:0:0:
320,256,12536,1,0,0:0:0:0:
320,256,12686,1,0,0:0:0:0:
320,256,12836,1,8,0:0:0:0:
320,256,13136,1,0,0:0:0:0:
320,256,13286,1,0,0:0:0:0:
352,192,13436,1,0,0:0:0:0:
320,288,13736,1,8,0:0:0:0:
320,288,13886,1,0,0:0:0:0:
320,288,14036,1,8,0:0:0:0:
320,288,14186,1,8,0:0:0:0:
320,288,14336,1,0,0:0:0:0:
320,288,14486,1,0,0:0:0:0:
320,288,14636,1,8,0:0:0:0:
320,288,14936,1,0,0:0:0:0:
320,288,15086,1,0,0:0:0:0:
320,288,15236,1,8,0:0:0:0:
288,192,15536,1,8,0:0:0:0:
320,288,15686,1,0,0:0:0:0:
288,192,15836,1,8,0:0:0:0:
288,192,15986,1,8,0:0:0:0:
288,192,16136,1,0,0:0:0:0:
288,192,16286,1,0,0:0:0:0:
288,192,16436,1,8,0:0:0:0:
96,192,16736,1,0,0:0:0:0:
96,192,16886,1,0,0:0:0:0:
96,192,17036,1,0,0:0:0:0:
288,256,17336,1,0,0:0:0:0:
288,256,17486,1,0,0:0:0:0:
288,256,17636,1,8,0:0:0:0:
288,256,17936,1,0,0:0:0:0:
384,256,18011,1,0,0:0:0:0:
384,256,18086,1,0,0:0:0:0:
384,256,18161,1,0,0:0:0:0:
384,256,18236,1,8,0:0:0:0:
320,288,18386,1,8,0:0:0:0:
320,288,18536,1,0,0:0:0:0:
320,288,18686,1,8,0:0:0:0:
320,288,18836,1,8,0:0:0:0:
320,288,18986,1,0,0:0:0:0:
320,288,19136,1,0,0:0:0:0:
320,288,19286,1,8,0:0:0:0:
256,160,19436,1,0,0:0:0:0:
256,160,19486,1,0,0:0:0:0:
256,160,19536,1,0,0:0:0:0:
256,160,19586,1,0,0:0:0:0:
160,192,19736,1,8,0:0:0:0:
160,192,19786,1,8,0:0:0:0:
352,288,19836,1,8,0:0:0:0:
288,192,19886,1,8,0:0:0:0:
352,288,20036,1,0,0:0:0:0:
192,192,20086,1,0,0:0:0:0:
352,288,20136,1,0,0:0:0:0:
256,160,20186,1,0,0:0:0:0:
352,288,20336,1,8,0:0:0:0:
192,192,20386,1,8,0:0:0:0:
416,288,20436,1,8,0:0:0:0:
224,160,20486,1,8,0:0:0:0:
352,288,20636,1,8,0:0:0:0:
256,160,20711,1,0,0:0:0:0:
256,160,20786,1,8,0:0:0:0:
256,160,20861,1,8,0:0:0:0:
256,160,20936,1,0,0:0:0:0:
256,160,21011,1,0,0:0:0:0:
256,160,21086,1,8,0:0:0:0:
224,160,21161,1,8,0:0:0:0:
224,160,21236,1,0,0:0:0:0:
224,160,21311,1,0,0:0:0:0:
224,160,21386,1,8,0:0:0:0:
224,160,21461,1,0,0:0:0:0:
224,160,21536,1,8,0:0:0:0:
224,160,21611,1,8,0:0:0:0:
224,160,21686,1,0,0:0:0:0:
224,160,21761,1,0,0:0:0:0:
224,160,21836,1,8,0:0:0:0:
224,160,21911,1,0,0:0:0:0:
224,160,21986,1,8,0:0:0:0:
224,160,22061,1,8,0:0:0:0:
224,160,22136,1,0,0:0:0:0:
224,160,22211,1,0,0:0:0:0:
224,160,22286,1,8,0:0:0:0:
224,160,22361,1,0,0:0:0:0:
224,160,22436,1,0,0:0:0:0:
224,160,22511,1,0,0:0:0:0:
224,160,22586,1,8,0:0:0:0:
224,160,22661,1,8,0:0:0:0:
224,160,22736,1,0,0:0:0:0:
224,160,22811,1,0,0:0:0:0:
224,160,22886,1,8,0:0:0:0:
224,160,22961,1,8,0:0:0:0:
224,160,23036,1,0,0:0:0:0:
224,160,23111,1,0,0:0:0:0:
224,160,23186,1,0,0:0:0:0:
224,160,23261,1,0,0:0:0:0:
224,160,23336,1,8,0:0:0:0:
224,160,23411,1,8,0:0:0:0:
224,160,23486,1,0,0:0:0:0:
224,160,23561,1,0,0:0:0:0:
224,160,23636,1,8,0:0:0:0:
320,224,23711,1,0,0:0:0:0:
320,224,23786,1,0,0:0:0:0:
320,224,23861,1,0,0:0:0:0:
288,224,23936,1,8,0:0:0:0:
288,224,24011,1,0,0:0:0:0:
256,192,24086,1,8,0:0:0:0:
288,224,24161,1,0,0:0:0:0:
288,224,24236,1,0,0:0:0:0:
288,224,24311,1,0,0:0:0:0:
288,192,24386,1,8,0:0:0:0:
288,224,24461,1,8,0:0:0:0:
288,224,24536,1,0,0:0:0:0:
288,224,24611,1,0,0:0:0:0:
288,192,24686,1,8,0:0:0:0:
288,224,24761,1,0,0:0:0:0:
288,224,24836,1,8,0:0:0:0:
288,224,24911,1,8,0:0:0:0:
288,192,24986,1,0,0:0:0:0:
288,224,25061,1,8,0:0:0:0:
288,224,25136,1,0,0:0:0:0:
288,224,25211,1,0,0:0:0:0:
384,256,25286,1,8,0:0:0:0:
384,256,25436,1,8,0:0:0:0:
128,192,25586,1,0,0:0:0:0:
192,192,25736,1,0,0:0:0:0:
192,192,25811,1,0,0:0:0:0:
192,192,25886,1,8,0:0:0:0:
128,192,26036,1,0,0:0:0:0:
192,192,26186,1,8,0:0:0:0:
192,192,26261,1,8,0:0:0:0:
192,192,26336,1,0,0:0:0:0:
192,192,26411,1,0,0:0:0:0:
192,192,26486,1,8,0:0:0:0:
192,192,26636,1,8,0:0:0:0:
192,192,26786,1,0,0:0:0:0:
192,192,26861,1,0,0:0:0:0:
192,192,26936,1,0,0:0:0:0:
192,192,27086,1,8,0:0:0:0:
192,192,27236,1,0,0:0:0:0:
256,192,27386,1,0,0:0:0:0:
256,192,27536,1,8,0:0:0:0:
256,192,27611,1,0,0:0:0:0:
256,192,27686,1,8,0:0:0:0:
256,192,27761,1,8,0:0:0:0:
256,192,27836,1,0,0:0:0:0:
256,192,27986,1,0,0:0:0:0:
256,192,28136,1,8,0:0:0:0:
256,192,28211,1,8,0:0:0:0:
256,192,28286,1,0,0:0:0:0:
256,192,28361,1,0,0:0:0:0:
256,192,28436,1,8,0:0:0:0:
256,192,28586,1,8,0:0:0:0:
256,192,28736,1,0,0:0:0:0:
256,192,28811,1,0,0:0:0:0:
256,192,28886,1,8,0:0:0:0:
256,192,29036,1,8,0:0:0:0:
256,192,29186,1,0,0:0:0:0:
256,192,29336,1,0,0:0:0:0:
256,192,29411,1,0,0:0:0:0:
256,192,29486,1,0,0:0:0:0:
256,192,29636,1,0,0:0:0:0:
256,192,29786,1,8,0:0:0:0:
288,256,29861,1,0,0:0:0:0:
288,256,29936,1,0,0:0:0:0:
288,256,30011,1,0,0:0:0:0:
288,256,30086,1,8,0:0:0:0:
288,256,30236,1,8,0:0:0:0:
160,160,30311,1,0,0:0:0:0:
192,160,30386,1,8,0:0:0:0:
192,160,30461,1,8,0:0:0:0:
352,256,30536,1,0,0:0:0:0:
352,256,30611,1,0,0:0:0:0:
352,256,30686,1,8,0:0:0:0:
352,256,30761,1,0,0:0:0:0:
352,256,30836,1,8,0:0:0:0:
352,256,30911,1,8,0:0:0:0:
352,256,30986,1,0,0:0:0:0:
352,256,31061,1,0,0:0:0:0:
352,256,31136,1,8,0:0:0:0:
352,256,31211,1,0,0:0:0:0:
352,256,31286,1,0,0:0:0:0:
352,256,31361,1,0,0:0:0:0:
352,256,31436,1,8,0:0:0:0:
352,256,31511,1,0,0:0:0:0:
352,256,31586,1,8,0:0:0:0:
352,256,31661,1,8,0:0:0:0:
352,256,31736,1,0,0:0:0:0:
352,256,31811,1,8,0:0:0:0:
352,256,31886,1,0,0:0:0:0:
352,256,31961,1,0,0:0:0:0:
352,256,32036,1,8,0:0:0:0:
352,256,32111,1,0,0:0:0:0:
352,256,32186,1,0,0:0:0:0:
352,256,32261,1,0,0:0:0:0:
352,256,32336,1,8,0:0:0:0:
416,352,32411,1,8,0:0:0:0:
416,352,32486,1,0,0:0:0:0:
416,352,32561,1,0,0:0:0:0:
416,352,32636,1,8,0:0:0:0:
416,352,32711,1,0,0:0:0:0:
416,352,32786,1,8,0:0:0:0:
288,256,32861,1,8,0:0:0:0:
288,256,32936,1,0,0:0:0:0:
288,256,33011,1,0,0:0:0:0:
288,256,33086,1,8,0:0:0:0:
288,256,33161,1,0,0:0:0:0:
288,256,33236,1,8,0:0:0:0:
288,256,33311,1,8,0:0:0:0:
288,256,33386,1,0,0:0:0:0:
288,256,33461,1,0,0:0:0:0:
288,256,33536,1,8,0:0:0:0:
288,256,33611,1,8,0:0:0:0:
288,256,33686,1,0,0:0:0:0:
288,256,33761,1,0,0:0:0:0:
288,256,33836,1,8,0:0:0:0:
288,256,33911,1,0,0:0:0:0:
288,256,33986,1,8,0:0:0:0:
288,256,34061,1,8,0:0:0:0:
288,256,34136,1,0,0:0:0:0:
288,256,34211,1,0,0:0:0:0:
288,256,34286,1,8,0:0:0:0:
288,256,34361,1,0,0:0:0:0:
288,256,34436,1,8,0:0:0:0:
288,256,34511,1,8,0:0:0:0:
288,256,34586,1,0,0:0:0:0:
288,256,34661,1,0,0:0:0:0:
288,256,34736,1,8,0:0:0:0:
288,256,34811,1,0,0:0:0:0:
448,352,34886,1,8,0:0:0:0:
448,320,35036,1,8,0:0:0:0:
256,256,35186,1,0,0:0:0:0:
256,256,35261,1,0,0:0:0:0:
256,256,35336,1,0,0:0:0:0:
256,256,35486,1,0,0:0:0:0:
256,256,35561,1,0,0:0:0:0:
256,256,35636,1,8,0:0:0:0:
256,256,35786,1,8,0:0:0:0:
256,256,35936,1,0,0:0:0:0:
256,256,36086,1,0,0:0:0:0:
256,256,36161,1,0,0:0:0:0:
256,256,36236,1,8,0:0:0:0:
256,256,36386,1,8,0:0:0:0:
256,256,36536,1,0,0:0:0:0:
256,256,36686,1,0,0:0:0:0:
256,256,36761,1,0,0:0:0:0:
256,256,36836,1,8,0:0:0:0:
256,256,36911,1,0,0:0:0:0:
256,256,36986,1,8,0:0:0:0:
256,256,37061,1,8,0:0:0:0:
256,256,37136,1,0,0:0:0:0:
256,256,37211,1,0,0:0:0:0:
256,256,37286,1,8,0:0:0:0:
256,256,37436,1,8,0:0:0:0:
160,192,37511,1,8,0:0:0:0:
160,192,37586,1,0,0:0:0:0:
160,192,37661,1,0,0:0:0:0:
320,256,37736,1,8,0:0:0:0:
320,256,37811,1,8,0:0:0:0:
320,256,37886,1,0,0:0:0:0:
320,256,37961,1,0,0:0:0:0:
320,256,38036,1,8,0:0:0:0:
320,256,38111,1,8,0:0:0:0:
320,256,38186,1,0,0:0:0:0:
320,256,38261,1,0,0:0:0:0:
320,256,38336,1,8,0:0:0:0:
320,256,38411,1,8,0:0:0:0:
320,256,38486,1,0,0:0:0:0:
320,256,38636,1,12,0:0:0:0:
256,192,38861,1,12,0:0:0:0:
224,160,39086,1,12,0:0:0:0:
224,160,39236,1,12,0:0:0:0:
224,160,39386,1,0,0:0:0:0:
224,160,39461,1,0,0:0:0:0:
224,160,39536,1,8,0:0:0:0:
128,192,39686,1,8,0:0:0:0:
128,192,39836,1,4,0:0:0:0:
128,160,39986,1,8,0:0:0:0:
128,160,40136,1,0,0:0:0:0:
128,160,40286,1,0,0:0:0:0:
128,160,40436,1,8,0:0:0:0:
128,160,40511,1,8,0:0:0:0:
128,160,40586,1,0,0:0:0:0:
128,160,40661,1,0,0:0:0:0:
128,160,40736,1,8,0:0:0:0:
128,160,40886,1,8,0:0:0:0:
128,160,41036,1,0,0:0:0:0:
320,224,41111,1,0,0:0:0:0:
224,192,41186,1,0,0:0:0:0:
128,160,41336,1,8,0:0:0:0:
320,224,41486,1,0,0:0:0:0:
160,160,41561,1,0,0:0:0:0:
320,0,41636,1,0,0:0:0:0:
256,224,41786,1,0,0:0:0:0:
320,256,41861,1,0,0:0:0:0:
256,224,41936,1,8,0:0:0:0:
256,224,42086,1,8,0:0:0:0:
256,224,42236,1,0,0:0:0:0:
288,224,42386,1,0,0:0:0:0:
288,224,42536,1,8,0:0:0:0:
320,256,42611,1,8,0:0:0:0:
320,256,42686,1,0,0:0:0:0:
320,256,42836,1,8,0:0:0:0:
320,256,42911,1,8,0:0:0:0:
320,256,42986,1,0,0:0:0:0:
128,224,43136,1,0,0:0:0:0:
128,224,43211,1,0,0:0:0:0:
128,224,43286,1,8,0:0:0:0:
128,224,43361,1,8,0:0:0:0:
128,224,43436,1,0,0:0:0:0:
192,192,43586,1,0,0:0:0:0:
224,192,43736,1,8,0:0:0:0:
224,192,43886,1,8,0:0:0:0:
224,192,44036,1,0,0:0:0:0:
224,192,44186,1,0,0:0:0:0:
224,192,44336,1,8,0:0:0:0:
288,224,44411,1,0,0:0:0:0:
288,224,44486,1,0,0:0:0:0:
288,224,44561,1,0,0:0:0:0:
288,224,44636,1,8,0:0:0:0:
320,256,44786,1,8,0:0:0:0:
320,256,44936,1,0,0:0:0:0:
320,224,45011,1,0,0:0:0:0:
320,224,45086,1,8,0:0:0:0:
320,224,45236,1,8,0:0:0:0:
320,224,45386,1,0,0:0:0:0:
320,224,45536,1,0,0:0:0:0:
320,224,45686,1,8,0:0:0:0:
320,224,45836,1,0,0:0:0:0:
320,256,45911,1,0,0:0:0:0:
320,256,45986,1,0,0:0:0:0:
320,256,46136,1,0,0:0:0:0:
320,256,46286,1,8,0:0:0:0:
320,288,46436,1,8,0:0:0:0:
320,288,46586,1,0,0:0:0:0:
320,256,46736,1,0,0:0:0:0:
320,256,46811,1,0,0:0:0:0:
320,256,46886,1,8,0:0:0:0:
320,256,47036,1,0,0:0:0:0:
288,224,47111,1,0,0:0:0:0:
288,224,47186,1,0,0:0:0:0:
288,224,47336,1,0,0:0:0:0:
288,224,47411,1,0,0:0:0:0:
288,224,47486,1,8,0:0:0:0:
320,256,47636,1,8,0:0:0:0:
320,256,47786,1,0,0:0:0:0:
320,256,47936,1,8,0:0:0:0:
320,256,48086,1,8,0:0:0:0:
320,256,48236,1,0,0:0:0:0:
288,288,48311,1,0,0:0:0:0:
288,288,48386,1,8,0:0:0:0:
288,288,48461,1,0,0:0:0:0:
288,288,48536,1,8,0:0:0:0:
288,288,48611,1,8,0:0:0:0:
288,288,48686,1,0,0:0:0:0:
288,288,48761,1,0,0:0:0:0:
288,288,48836,1,8,0:0:0:0:
224,224,48986,1,8,0:0:0:0:
224,224,49136,1,0,0:0:0:0:
256,256,49211,1,0,0:0:0:0:
256,256,49286,1,0,0:0:0:0:
352,288,49361,1,0,0:0:0:0:
256,224,49436,1,8,0:0:0:0:
352,288,49586,1,8,0:0:0:0:
352,288,49736,1,0,0:0:0:0:
352,288,49886,1,0,0:0:0:0:
352,256,50036,1,8,0:0:0:0:
352,288,50111,1,8,0:0:0:0:
352,288,50186,1,0,0:0:0:0:
320,256,50261,1,0,0:0:0:0:
352,288,50336,1,8,0:0:0:0:
352,288,50411,1,0,0:0:0:0:
352,288,50486,1,8,0:0:0:0:
352,288,50561,1,8,0:0:0:0:
352,288,50636,1,0,0:0:0:0:
192,160,50786,1,0,0:0:0:0:
192,160,50936,1,8,0:0:0:0:
192,160,51086,1,8,0:0:0:0:
192,160,51236,1,0,0:0:0:0:
192,160,51386,1,0,0:0:0:0:
192,160,51461,1,0,0:0:0:0:
192,160,51536,1,8,0:0:0:0:
192,160,51686,1,8,0:0:0:0:
192,160,51836,1,0,0:0:0:0:
192,160,51911,1,0,0:0:0:0:
192,160,51986,1,8,0:0:0:0:
224,160,52136,1,8,0:0:0:0:
224,160,52286,1,0,0:0:0:0:
128,160,52361,1,0,0:0:0:0:
64,160,52436,1,0,0:0:0:0:
128,128,52586,1,8,0:0:0:0:
128,128,52736,1,0,0:0:0:0:
128,128,52886,1,0,0:0:0:0:
320,224,52961,1,0,0:0:0:0:
128,128,53036,1,8,0:0:0:0:
320,224,53111,1,8,0:0:0:0:
320,192,53186,1,0,0:0:0:0:
320,192,53261,1,0,0:0:0:0:
320,192,53336,1,8,0:0:0:0:
256,192,53486,1,8,0:0:0:0:
256,224,53636,1,0,0:0:0:0:
256,224,53786,1,0,0:0:0:0:
224,192,53861,1,0,0:0:0:0:
256,224,53936,1,8,0:0:0:0:
192,192,54086,1,8,0:0:0:0:
192,192,54236,1,0,0:0:0:0:
128,224,54311,1,0,0:0:0:0:
160,192,54386,1,0,0:0:0:0:
128,192,54536,1,8,0:0:0:0:
160,192,54686,1,0,0:0:0:0:
160,192,54836,1,0,0:0:0:0:
160,192,54986,1,8,0:0:0:0:
160,192,55136,1,0,0:0:0:0:
160,192,55286,1,0,0:0:0:0:
160,192,55361,1,0,0:0:0:0:
160,192,55436,1,8,0:0:0:0:
128,160,55586,1,8,0:0:0:0:
192,192,55736,1,0,0:0:0:0:
192,192,55886,1,0,0:0:0:0:
224,256,55961,1,0,0:0:0:0:
192,192,56036,1,8,0:0:0:0:
192,192,56186,1,8,0:0:0:0:
192,192,56336,1,0,0:0:0:0:
224,256,56411,1,0,0:0:0:0:
224,256,56486,1,8,0:0:0:0:
224,256,56561,1,8,0:0:0:0:
224,256,56636,1,0,0:0:0:0:
192,288,56786,1,0,0:0:0:0:
192,288,56936,1,8,0:0:0:0:
192,288,57086,1,8,0:0:0:0:
192,288,57236,1,0,0:0:0:0:
224,288,57311,1,0,0:0:0:0:
192,288,57386,1,0,0:0:0:0:
224,288,57461,1,0,0:0:0:0:
192,288,57536,1,8,0:0:0:0:
224,288,57611,1,8,0:0:0:0:
224,288,57686,1,8,0:0:0:0:
224,288,57761,1,8,0:0:0:0:
224,288,57836,1,0,0:0:0:0:
320,256,57986,1,0,0:0:0:0:
320,256,58286,1,8,0:0:0:0:
320,256,58436,1,0,0:0:0:0:
320,256,58586,1,0,0:0:0:0:
320,256,58661,1,0,0:0:0:0:
320,256,58736,1,8,0:0:0:0:
320,256,58886,1,8,0:0:0:0:
320,256,59036,1,4,0:0:0:0:
224,256,59186,1,8,0:0:0:0:
192,256,59336,1,0,0:0:0:0:
192,256,59411,1,0,0:0:0:0:
192,256,59486,1,0,0:0:0:0:
192,256,59561,1,0,0:0:0:0:
192,256,59636,1,8,0:0:0:0:
192,256,59786,1,8,0:0:0:0:
192,256,59936,1,0,0:0:0:0:
192,256,60086,1,0,0:0:0:0:
192,256,60161,1,0,0:0:0:0:
192,256,60236,1,8,0:0:0:0:
192,256,60386,1,0,0:0:0:0:
192,256,60461,1,0,0:0:0:0:
192,256,60536,1,0,0:0:0:0:
192,256,60686,1,0,0:0:0:0:
192,256,60836,1,8,0:0:0:0:
192,256,60986,1,8,0:0:0:0:
192,256,61061,1,8,0:0:0:0:
192,256,61136,1,0,0:0:0:0:
192,256,61286,1,0,0:0:0:0:
192,256,61436,1,8,0:0:0:0:
192,160,61511,1,0,0:0:0:0:
192,256,61586,1,8,0:0:0:0:
192,256,61661,1,8,0:0:0:0:
192,256,61736,1,0,0:0:0:0:
192,256,61886,1,0,0:0:0:0:
192,256,62036,1,0,0:0:0:0:
192,256,62111,1,0,0:0:0:0:
192,256,62186,1,8,0:0:0:0:
192,256,62261,1,0,0:0:0:0:
192,256,62336,1,8,0:0:0:0:
192,256,62411,1,8,0:0:0:0:
192,256,62486,1,0,0:0:0:0:
192,256,62561,1,0,0:0:0:0:
192,256,62636,1,8,0:0:0:0:
256,256,62786,1,0,0:0:0:0:
256,256,62861,1,0,0:0:0:0:
256,256,62936,1,0,0:0:0:0:
416,288,63086,1,0,0:0:0:0:
416,288,63161,1,0,0:0:0:0:
416,288,63236,1,8,0:0:0:0:
416,288,63386,1,0,0:0:0:0:
416,288,63461,1,0,0:0:0:0:
416,288,63536,1,8,0:0:0:0:
416,288,63611,1,0,0:0:0:0:
416,288,63686,1,8,0:0:0:0:
416,288,63761,1,8,0:0:0:0:
416,288,63836,1,0,0:0:0:0:
384,320,63986,1,0,0:0:0:0:
416,288,64136,1,8,0:0:0:0:
416,288,64286,1,8,0:0:0:0:
384,288,64361,1,8,0:0:0:0:
384,288,64436,1,0,0:0:0:0:
384,288,64586,1,0,0:0:0:0:
352,256,64736,1,8,0:0:0:0:
352,256,64811,1,8,0:0:0:0:
352,256,64886,1,0,0:0:0:0:
352,256,64961,1,0,0:0:0:0:
352,256,65036,1,8,0:0:0:0:
352,288,65186,1,8,0:0:0:0:
352,288,65336,1,0,0:0:0:0:
448,320,65486,1,0,0:0:0:0:
480,320,65561,1,0,0:0:0:0:
448,288,65636,1,0,0:0:0:0:
352,288,65786,1,0,0:0:0:0:
352,288,65936,1,8,0:0:0:0:
320,288,66086,1,0,0:0:0:0:
320,288,66161,1,0,0:0:0:0:
320,288,66236,1,8,0:0:0:0:
320,288,66386,1,8,0:0:0:0:
320,288,66536,1,0,0:0:0:0:
320,288,66686,1,0,0:0:0:0:
320,288,66761,1,0,0:0:0:0:
320,288,66836,1,8,0:0:0:0:
320,288,66986,1,8,0:0:0:0:
320,288,67136,1,0,0:0:0:0:
320,288,67211,1,8,0:0:0:0:
320,288,67286,1,0,0:0:0:0:
320,288,67361,1,0,0:0:0:0:
320,288,67436,1,8,0:0:0:0:
192,192,67511,1,8,0:0:0:0:
320,288,67586,1,8,0:0:0:0:
320,288,67661,1,0,0:0:0:0:
320,288,67736,1,8,0:0:0:0:
320,192,67811,1,8,0:0:0:0:
320,288,67886,1,0,0:0:0:0:
320,288,67961,1,0,0:0:0:0:
320,288,68036,1,8,0:0:0:0:
320,288,68111,1,0,0:0:0:0:
320,288,68186,1,8,0:0:0:0:
320,288,68261,1,8,0:0:0:0:
320,288,68336,1,0,0:0:0:0:
320,288,68411,1,0,0:0:0:0:
320,288,68486,1,8,0:0:0:0:
320,288,68561,1,0,0:0:0:0:
320,288,68636,1,8,0:0:0:0:
448,288,68711,1,0,0:0:0:0:
448,288,68786,1,0,0:0:0:0:
352,224,68861,1,0,0:0:0:0:
352,224,68936,1,0,0:0:0:0:
352,224,69011,1,0,0:0:0:0:
352,224,69086,1,0,0:0:0:0:
352,224,69161,1,0,0:0:0:0:
352,224,69236,1,0,0:0:0:0:
384,256,69311,1,0,0:0:0:0:
384,288,69386,1,0,0:0:0:0:
384,256,69461,1,0,0:0:0:0:
384,288,69536,1,8,0:0:0:0:
384,256,69611,1,0,0:0:0:0:
384,288,69686,1,0,0:0:0:0:
384,256,69761,1,0,0:0:0:0:
384,288,69836,1,0,0:0:0:0:
384,256,69911,1,0,0:0:0:0:
384,288,69986,1,0,0:0:0:0:
384,288,70061,1,0,0:0:0:0:
448,288,70136,1,8,0:0:0:0:
384,288,70211,1,0,0:0:0:0:
384,288,70286,1,0,0:0:0:0:
384,288,70361,1,0,0:0:0:0:
384,288,70436,1,0,0:0:0:0:
384,288,70511,1,0,0:0:0:0:
384,288,70586,1,0,0:0:0:0:
384,288,70661,1,0,0:0:0:0:
448,288,70736,1,8,0:0:0:0:
352,288,70811,1,0,0:0:0:0:
352,288,70886,1,0,0:0:0:0:
352,288,70961,1,0,0:0:0:0:
352,288,71036,1,0,0:0:0:0:
352,288,71111,1,0,0:0:0:0:
352,288,71186,1,0,0:0:0:0:
352,288,71261,1,0,0:0:0:0:
352,224,71336,1,8,0:0:0:0:
352,288,71411,1,0,0:0:0:0:
352,288,71486,1,0,0:0:0:0:
352,288,71561,1,0,0:0:0:0:
352,288,71636,1,0,0:0:0:0:
352,288,71711,1,0,0:0:0:0:
352,288,71786,1,0,0:0:0:0:
352,288,71861,1,0,0:0:0:0:
352,224,71936,1,8,0:0:0:0:
352,288,72011,1,0,0:0:0:0:
352,288,72086,1,0,0:0:0:0:
352,288,72161,1,0,0:0:0:0:
352,288,72236,1,0,0:0:0:0:
352,288,72311,1,0,0:0:0:0:
352,288,72386,1,0,0:0:0:0:
352,288,72461,1,0,0:0:0:0:
352,224,72536,1,8,0:0:0:0:
352,288,72611,1,0,0:0:0:0:
352,288,72686,1,0,0:0:0:0:
352,288,72761,1,0,0:0:0:0:
352,288,72836,1,0,0:0:0:0:
352,288,72911,1,0,0:0:0:0:
352,288,72986,1,0,0:0:0:0:
352,288,73061,1,0,0:0:0:0:
352,224,73136,1,8,0:0:0:0:
352,288,73211,1,0,0:0:0:0:
352,288,73286,1,0,0:0:0:0:
352,288,73361,1,0,0:0:0:0:
352,288,73436,1,0,0:0:0:0:
352,288,73511,1,0,0:0:0:0:
352,288,73586,1,0,0:0:0:0:
352,288,73661,1,0,0:0:0:0:
352,224,73736,1,8,0:0:0:0:
352,288,73811,1,0,0:0:0:0:
352,288,73886,1,0,0:0:0:0:
352,288,73961,1,0,0:0:0:0:
352,288,74036,1,0,0:0:0:0:
352,320,74111,1,0,0:0:0:0:
352,288,74186,1,0,0:0:0:0:
352,320,74261,1,0,0:0:0:0:
352,224,74336,1,8,0:0:0:0:
352,288,74411,1,0,0:0:0:0:
352,288,74486,1,0,0:0:0:0:
352,288,74561,1,0,0:0:0:0:
352,288,74636,1,0,0:0:0:0:
352,288,74711,1,0,0:0:0:0:
352,288,74786,1,0,0:0:0:0:
352,288,74861,1,0,0:0:0:0:
352,224,74936,1,8,0:0:0:0:
352,288,75011,1,0,0:0:0:0:
352,320,75086,1,0,0:0:0:0:
352,320,75161,1,0,0:0:0:0:
352,288,75236,1,0,0:0:0:0:
352,320,75311,1,0,0:0:0:0:
352,288,75386,1,0,0:0:0:0:
352,320,75461,1,0,0:0:0:0:
352,224,75536,1,8,0:0:0:0:
352,288,75611,1,0,0:0:0:0:
352,288,75686,1,0,0:0:0:0:
352,288,75761,1,0,0:0:0:0:
352,288,75836,1,0,0:0:0:0:
352,288,75911,1,0,0:0:0:0:
352,288,75986,1,0,0:0:0:0:
352,288,76061,1,0,0:0:0:0:
352,192,76136,1,8,0:0:0:0:
352,288,76211,1,0,0:0:0:0:
352,288,76286,1,0,0:0:0:0:
352,288,76361,1,0,0:0:0:0:
352,288,76436,1,8,0:0:0:0:
352,288,76511,1,0,0:0:0:0:
352,288,76586,1,0,0:0:0:0:
352,288,76661,1,0,0:0:0:0:
352,192,76736,1,8,0:0:0:0:
416,256,76811,1,0,0:0:0:0:
416,256,76886,1,0,0:0:0:0:
416,256,76961,1,0,0:0:0:0:
416,256,77036,1,8,0:0:0:0:
416,256,77111,1,0,0:0:0:0:
416,256,77186,1,8,0:0:0:0:
416,256,77261,1,8,0:0:0:0:
416,256,77336,1,0,0:0:0:0:
416,256,77411,1,0,0:0:0:0:
416,256,77486,1,8,0:0:0:0:
416,256,77561,1,8,0:0:0:0:
416,288,77636,1,0,0:0:0:0:
416,256,77711,1,0,0:0:0:0:
416,288,77786,1,8,0:0:0:0:
416,288,77861,1,8,0:0:0:0:
416,256,77936,1,0,0:0:0:0:
416,288,78011,1,0,0:0:0:0:
352,256,78086,1,8,0:0:0:0:
352,256,78161,1,0,0:0:0:0:
352,256,78236,1,8,0:0:0:0:
224,192,78386,1,8,0:0:0:0:
224,224,78536,1,0,0:0:0:0:
224,224,78611,1,0,0:0:0:0:
224,224,78686,1,0,0:0:0:0:
224,224,78836,1,0,0:0:0:0:
224,224,78986,1,8,0:0:0:0:
224,224,79061,1,8,0:0:0:0:
224,224,79136,1,0,0:0:0:0:
224,224,79211,1,0,0:0:0:0:
224,224,79286,1,8,0:0:0:0:
224,224,79436,1,8,0:0:0:0:
224,224,79586,1,0,0:0:0:0:
224,224,79736,1,0,0:0:0:0:
224,224,79886,1,8,0:0:0:0:
224,224,80036,1,0,0:0:0:0:
224,224,80111,1,0,0:0:0:0:
224,224,80186,1,8,0:0:0:0:
224,224,80261,1,0,0:0:0:0:
224,224,80336,1,8,0:0:0:0:
224,224,80486,1,8,0:0:0:0:
224,224,80636,1,0,0:0:0:0:
224,224,80711,1,0,0:0:0:0:
224,224,80786,1,0,0:0:0:0:
224,224,80936,1,8,0:0:0:0:
224,224,81011,1,8,0:0:0:0:
224,224,81086,1,0,0:0:0:0:
224,224,81161,1,0,0:0:0:0:
224,224,81236,1,8,0:0:0:0:
256,224,81386,1,8,0:0:0:0:
256,224,81536,1,0,0:0:0:0:
256,224,81611,1,0,0:0:0:0:
256,224,81686,1,0,0:0:0:0:
256,224,81761,1,0,0:0:0:0:
256,224,81836,1,8,0:0:0:0:
256,224,81986,1,8,0:0:0:0:
256,224,82136,1,0,0:0:0:0:
256,224,82211,1,0,0:0:0:0:
256,224,82286,1,0,0:0:0:0:
256,224,82436,1,0,0:0:0:0:
256,224,82586,1,8,0:0:0:0:
256,224,82736,1,0,0:0:0:0:
256,224,82886,1,0,0:0:0:0:
256,224,83036,1,8,0:0:0:0:
256,224,83111,1,8,0:0:0:0:
256,224,83186,1,0,0:0:0:0:
256,224,83261,1,0,0:0:0:0:
256,224,83336,1,8,0:0:0:0:
256,224,83486,1,8,0:0:0:0:
256,224,83636,1,0,0:0:0:0:
256,224,83786,1,0,0:0:0:0:
256,224,83936,1,8,0:0:0:0:
256,224,84086,1,0,0:0:0:0:
256,224,84236,1,8,0:0:0:0:
288,192,84311,1,8,0:0:0:0:
256,224,84386,1,8,0:0:0:0:
256,224,84536,1,0,0:0:0:0:
256,224,84686,1,0,0:0:0:0:
256,224,84836,1,8,0:0:0:0:
384,224,84911,1,0,0:0:0:0:
384,224,84986,1,8,0:0:0:0:
384,224,85061,1,8,0:0:0:0:
384,224,85136,1,0,0:0:0:0:
384,224,85211,1,0,0:0:0:0:
384,224,85286,1,8,0:0:0:0:
384,224,85361,1,0,0:0:0:0:
384,224,85436,1,8,0:0:0:0:
288,192,85736,1,0,0:0:0:0:
288,192,86036,1,8,0:0:0:0:
256,192,86336,1,0,0:0:0:0:
256,192,86486,1,8,0:0:0:0:
256,192,86786,1,0,0:0:0:0:
96,192,87086,1,0,0:0:0:0:
96,192,87161,1,0,0:0:0:0:
96,192,87236,1,0,0:0:0:0:
96,192,87386,1,0,0:0:0:0:
96,192,87461,1,0,0:0:0:0:
96,192,87536,1,8,0:0:0:0:
96,192,87836,1,0,0:0:0:0:
96,160,87911,1,8,0:0:0:0:
96,192,87986,1,0,0:0:0:0:
96,192,88136,1,8,0:0:0:0:
96,192,88211,1,0,0:0:0:0:
96,192,88286,1,8,0:0:0:0:
96,192,88361,1,8,0:0:0:0:
96,192,88436,1,0,0:0:0:0:
96,192,88511,1,8,0:0:0:0:
96,192,88586,1,0,0:0:0:0:
96,192,88661,1,0,0:0:0:0:
96,192,88736,1,8,0:0:0:0:
96,192,88811,1,0,0:0:0:0:
96,192,88886,1,8,0:0:0:0:
96,192,89036,1,12,0:0:0:0:
96,192,89261,1,12,0:0:0:0:
96,192,89486,1,12,0:0:0:0:
96,192,89636,1,12,0:0:0:0:
192,256,90236,1,12,0:0:0:0:
224,256,90386,1,8,0:0:0:0:
224,256,90461,1,0,0:0:0:0:
224,256,90536,1,8,0:0:0:0:
224,256,90611,1,8,0:0:0:0:
224,256,90686,1,0,0:0:0:0:
224,256,90761,1,0,0:0:0:0:
224,256,90836,1,8,0:0:0:0:
224,256,90911,1,0,0:0:0:0:
224,256,90986,1,0,0:0:0:0:
224,256,91061,1,0,0:0:0:0:
224,256,91136,1,8,0:0:0:0:
320,288,91211,1,0,0:0:0:0:
320,288,91286,1,0,0:0:0:0:
320,288,91361,1,0,0:0:0:0:
320,288,91436,1,8,0:0:0:0:
320,288,91511,1,0,0:0:0:0:
320,288,91586,1,8,0:0:0:0:
320,288,91661,1,8,0:0:0:0:
320,288,91736,1,0,0:0:0:0:
320,288,91811,1,0,0:0:0:0:
320,288,91886,1,8,0:0:0:0:
320,288,91961,1,0,0:0:0:0:
320,288,92036,1,8,0:0:0:0:
320,288,92111,1,8,0:0:0:0:
320,288,92186,1,0,0:0:0:0:
320,288,92261,1,0,0:0:0:0:
320,288,92336,1,8,0:0:0:0:
320,288,92411,1,0,0:0:0:0:
320,288,92486,1,0,0:0:0:0:
320,288,92561,1,0,0:0:0:0:
320,288,92636,1,8,0:0:0:0:
320,288,92711,1,8,0:0:0:0:
320,288,92786,1,0,0:0:0:0:
320,288,92861,1,0,0:0:0:0:
320,288,92936,1,8,0:0:0:0:
320,288,93011,1,8,0:0:0:0:
320,288,93086,1,0,0:0:0:0:
320,288,93161,1,8,0:0:0:0:
320,288,93236,1,0,0:0:0:0:
320,288,93311,1,0,0:0:0:0:
320,288,93386,1,8,0:0:0:0:
320,288,93461,1,0,0:0:0:0:
320,288,93536,1,8,0:0:0:0:
320,288,93611,1,8,0:0:0:0:
320,288,93686,1,0,0:0:0:0:
320,288,93761,1,0,0:0:0:0:
320,288,93836,1,8,0:0:0:0:
320,288,93911,1,0,0:0:0:0:
320,288,93986,1,0,0:0:0:0:
320,288,94061,1,0,0:0:0:0:
320,288,94136,1,8,0:0:0:0:
320,288,94211,1,8,0:0:0:0:
320,288,94286,1,0,0:0:0:0:
320,288,94361,1,0,0:0:0:0:
320,288,94436,1,8,0:0:0:0:
320,288,94511,1,0,0:0:0:0:
320,288,94586,1,8,0:0:0:0:
320,288,94661,1,8,0:0:0:0:
320,288,94736,1,0,0:0:0:0:
320,288,94811,1,0,0:0:0:0:
320,288,94886,1,0,0:0:0:0:
320,288,94961,1,0,0:0:0:0:
320,288,95036,1,8,0:0:0:0:
320,288,95111,1,0,0:0:0:0:
320,288,95186,1,8,0:0:0:0:
320,288,95261,1,8,0:0:0:0:
320,288,95336,1,0,0:0:0:0:
320,288,95411,1,0,0:0:0:0:
320,288,95486,1,8,0:0:0:0:
320,288,95561,1,0,0:0:0:0:
320,288,95636,1,8,0:0:0:0:
320,288,95711,1,8,0:0:0:0:
320,288,95786,1,0,0:0:0:0:
320,288,95861,1,0,0:0:0:0:
320,288,95936,1,8,0:0:0:0:
320,288,96011,1,8,0:0:0:0:
320,288,96086,1,8,0:0:0:0:
320,288,96161,1,8,0:0:0:0:
320,288,96236,1,0,0:0:0:0:
320,288,96311,1,0,0:0:0:0:
320,288,96386,1,8,0:0:0:0:
320,288,96461,1,0,0:0:0:0:
320,288,96536,1,8,0:0:0:0:
320,288,96611,1,8,0:0:0:0:
320,288,96686,1,0,0:0:0:0:
320,288,96761,1,8,0:0:0:0:
320,288,96836,1,0,0:0:0:0:
320,288,96911,1,0,0:0:0:0:
320,288,96986,1,8,0:0:0:0:
320,288,97061,1,0,0:0:0:0:
320,288,97136,1,8,0:0:0:0:
320,288,97211,1,8,0:0:0:0:
320,288,97286,1,0,0:0:0:0:
320,288,97361,1,0,0:0:0:0:
320,288,97436,1,8,0:0:0:0:
320,288,97511,1,8,0:0:0:0:
320,288,97586,1,8,0:0:0:0:
320,288,97661,1,8,0:0:0:0:
320,288,97736,1,0,0:0:0:0:
320,288,97811,1,0,0:0:0:0:
320,288,97886,1,8,0:0:0:0:
320,288,97961,1,8,0:0:0:0:
320,288,98036,1,0,0:0:0:0:
320,288,98111,1,0,0:0:0:0:
320,288,98186,1,8,0:0:0:0:
320,288,98261,1,0,0:0:0:0:
320,288,98336,1,8,0:0:0:0:
320,288,98411,1,8,0:0:0:0:
320,288,98486,1,0,0:0:0:0:
320,288,98561,1,0,0:0:0:0:
320,288,98636,1,8,0:0:0:0:
160,192,98736,1,0,0:0:0:0:
160,192,98836,1,0,0:0:0:0:
160,192,98936,1,8,0:0:0:0:
160,192,99036,1,0,0:0:0:0:
160,192,99136,1,0,0:0:0:0:
160,192,99236,1,8,0:0:0:0:
160,192,99336,1,0,0:0:0:0:
160,192,99436,1,0,0:0:0:0:
160,192,99536,1,8,0:0:0:0:
160,192,99636,1,0,0:0:0:0:
160,192,99736,1,0,0:0:0:0:
320,192,99836,1,8,0:0:0:0:
320,192,99911,1,0,0:0:0:0:
320,192,99986,1,8,0:0:0:0:
320,192,100061,1,8,0:0:0:0:
320,192,100136,1,0,0:0:0:0:
320,192,100211,1,0,0:0:0:0:
320,192,100286,1,8,0:0:0:0:
320,192,100361,1,0,0:0:0:0:
320,192,100436,1,8,0:0:0:0:
320,192,100511,1,8,0:0:0:0:
320,192,100586,1,0,0:0:0:0:
320,192,100661,1,0,0:0:0:0:
320,192,100736,1,8,0:0:0:0:
320,192,100811,1,0,0:0:0:0:
320,192,100886,1,0,0:0:0:0:
320,192,100961,1,0,0:0:0:0:
320,192,101036,1,8,0:0:0:0:
416,320,101111,1,8,0:0:0:0:
416,288,101186,1,8,0:0:0:0:
416,288,101261,1,8,0:0:0:0:
416,288,101336,1,0,0:0:0:0:
352,256,101411,1,0,0:0:0:0:
352,256,101486,1,8,0:0:0:0:
352,256,101561,1,0,0:0:0:0:
352,256,101636,1,8,0:0:0:0:
352,256,101711,1,8,0:0:0:0:
352,256,101786,1,0,0:0:0:0:
352,256,101861,1,0,0:0:0:0:
352,256,101936,1,8,0:0:0:0:
352,256,102011,1,0,0:0:0:0:
352,256,102086,1,0,0:0:0:0:
352,256,102161,1,0,0:0:0:0:
352,256,102236,1,8,0:0:0:0:
352,256,102311,1,0,0:0:0:0:
352,256,102386,1,8,0:0:0:0:
352,256,102461,1,8,0:0:0:0:
352,256,102536,1,0,0:0:0:0:
352,256,102611,1,0,0:0:0:0:
352,256,102686,1,8,0:0:0:0:
352,256,102761,1,0,0:0:0:0:
352,256,102836,1,8,0:0:0:0:
352,320,102911,1,8,0:0:0:0:
352,320,102986,1,8,0:0:0:0:
352,320,103061,1,8,0:0:0:0:
384,288,103136,1,0,0:0:0:0:
384,288,103211,1,0,0:0:0:0:
384,288,103286,1,8,0:0:0:0:
384,288,103361,1,8,0:0:0:0:
384,288,103436,1,0,0:0:0:0:
384,288,103511,1,0,0:0:0:0:
384,288,103586,1,8,0:0:0:0:
384,288,103661,1,8,0:0:0:0:
384,288,103736,1,0,0:0:0:0:
352,320,103811,1,0,0:0:0:0:
352,320,103886,1,8,0:0:0:0:
352,320,103961,1,8,0:0:0:0:
352,320,104036,1,0,0:0:0:0:
352,320,104111,1,0,0:0:0:0:
352,320,104186,1,8,0:0:0:0:
352,320,104261,1,8,0:0:0:0:
352,320,104336,1,0,0:0:0:0:
224,192,104411,1,0,0:0:0:0:
224,192,104486,1,8,0:0:0:0:
224,192,104561,1,0,0:0:0:0:
384,288,104636,1,8,0:0:0:0:
192,192,104711,1,8,0:0:0:0:
256,192,104786,1,0,0:0:0:0:
256,192,104861,1,0,0:0:0:0:
256,192,104936,1,0,0:0:0:0:
256,192,105011,1,0,0:0:0:0:
384,288,105086,1,8,0:0:0:0:
256,192,105161,1,0,0:0:0:0:
256,192,105236,1,0,0:0:0:0:
256,192,105311,1,0,0:0:0:0:
256,192,105386,1,0,0:0:0:0:
256,192,105461,1,0,0:0:0:0:
256,192,105536,1,8,0:0:0:0:
256,192,105611,1,0,0:0:0:0:
256,192,105686,1,8,0:0:0:0:
384,288,105836,1,12,0:0:0:0:
160,192,105986,1,12,0:0:0:0:
160,192,106136,1,12,0:0:0:0:
384,192,106436,1,0,0:0:0:0:
384,224,106736,1,8,0:0:0:0:
288,224,107036,1,4,0:0:0:0:
256,192,107186,1,0,0:0:0:0:
256,192,107336,1,8,0:0:0:0:
256,192,107486,1,0,0:0:0:0:
256,192,107636,1,0,0:0:0:0:
256,192,107711,1,0,0:0:0:0:
256,192,107786,1,8,0:0:0:0:
256,192,107861,1,0,0:0:0:0:
256,192,107936,1,8,0:0:0:0:
256,192,108086,1,8,0:0:0:0:
256,192,108236,1,0,0:0:0:0:
256,192,108386,1,0,0:0:0:0:
256,192,108461,1,0,0:0:0:0:
256,192,108536,1,8,0:0:0:0:
256,192,108686,1,8,0:0:0:0:
256,192,108761,1,8,0:0:0:0:
256,192,108836,1,0,0:0:0:0:
256,192,108986,1,0,0:0:0:0:
256,192,109136,1,8,0:0:0:0:
256,192,109286,1,0,0:0:0:0:
256,192,109436,1,12,0:0:0:0:
128,224,109586,1,0,0:0:0:0:
128,224,109661,1,0,0:0:0:0:
128,224,109736,1,0,0:0:0:0:
128,224,109886,1,0,0:0:0:0:
128,224,109961,1,0,0:0:0:0:
128,224,110036,1,8,0:0:0:0:
128,224,110186,1,0,0:0:0:0:
128,224,110261,1,0,0:0:0:0:
128,224,110336,1,0,0:0:0:0:
128,224,110486,1,0,0:0:0:0:
128,224,110561,1,0,0:0:0:0:
128,224,110636,1,8,0:0:0:0:
128,224,110786,1,0,0:0:0:0:
128,224,110861,1,0,0:0:0:0:
128,224,110936,1,0,0:0:0:0:
128,224,111086,1,0,0:0:0:0:
128,224,111161,1,0,0:0:0:0:
128,224,111236,1,8,0:0:0:0:
128,224,111386,1,8,0:0:0:0:
128,224,111461,1,0,0:0:0:0:
128,224,111536,1,8,0:0:0:0:
128,224,111686,1,0,0:0:0:0:
128,224,111761,1,0,0:0:0:0:
128,224,111836,1,8,0:0:0:0:
128,224,111986,1,0,0:0:0:0:
128,224,112061,1,0,0:0:0:0:
128,224,112136,1,0,0:0:0:0:
128,224,112286,1,0,0:0:0:0:
128,224,112361,1,0,0:0:0:0:
128,224,112436,1,8,0:0:0:0:
256,192,112511,1,8,0:0:0:0:
128,224,112586,1,0,0:0:0:0:
128,224,112736,1,0,0:0:0:0:
128,224,112886,1,0,0:0:0:0:
128,224,112961,1,0,0:0:0:0:
128,224,113036,1,8,0:0:0:0:
192,128,113111,1,8,0:0:0:0:
128,224,113186,1,0,0:0:0:0:
128,224,113261,1,0,0:0:0:0:
128,224,113336,1,8,0:0:0:0:
128,224,113486,1,0,0:0:0:0:
128,224,113561,1,0,0:0:0:0:
128,224,113636,1,8,0:0:0:0:
384,288,113711,1,0,0:0:0:0:
128,224,113786,1,8,0:0:0:0:
128,224,113936,1,8,0:0:0:0:
256,128,114011,1,0,0:0:0:0:
128,192,114086,1,0,0:0:0:0:
160,192,114161,1,0,0:0:0:0:
128,192,114236,1,8,0:0:0:0:
192,224,114386,1,8,0:0:0:0:
192,224,114536,1,0,0:0:0:0:
192,224,114611,1,0,0:0:0:0:
192,224,114686,1,8,0:0:0:0:
192,224,114761,1,0,0:0:0:0:
192,224,114836,1,8,0:0:0:0:
192,224,114986,1,8,0:0:0:0:
192,224,115136,1,4,0:0:0:0:
96,160,115286,1,0,0:0:0:0:
96,160,115436,1,8,0:0:0:0:
192,224,115586,1,8,0:0:0:0:
192,224,115736,1,0,0:0:0:0:
192,256,115886,1,0,0:0:0:0:
192,256,116036,1,8,0:0:0:0:
192,256,116186,1,8,0:0:0:0:
192,256,116336,1,4,0:0:0:0:
192,224,116636,1,4,0:0:0:0:
160,192,116786,1,8,0:0:0:0:
160,192,116936,1,0,0:0:0:0:
160,192,117011,1,0,0:0:0:0:
160,192,117086,1,8,0:0:0:0:
160,192,117236,1,8,0:0:0:0:
160,192,117386,1,0,0:0:0:0:
160,192,117536,1,0,0:0:0:0:
160,192,117686,1,8,0:0:0:0:
160,192,117761,1,8,0:0:0:0:
160,192,117836,1,0,0:0:0:0:
160,192,117986,1,0,0:0:0:0:
192,224,118286,1,0,0:0:0:0:
192,224,118436,1,8,0:0:0:0:
416,288,118586,1,0,0:0:0:0:
416,288,118661,1,0,0:0:0:0:
416,288,118736,1,8,0:0:0:0:
416,288,118886,1,8,0:0:0:0:
320,224,119036,1,0,0:0:0:0:
320,288,119111,1,0,0:0:0:0:
320,288,119186,1,0,0:0:0:0:
320,288,119336,1,0,0:0:0:0:
320,288,119486,1,8,0:0:0:0:
320,288,119636,1,8,0:0:0:0:
320,288,119786,1,8,0:0:0:0:
288,224,119861,1,0,0:0:0:0:
320,288,119936,1,0,0:0:0:0:
320,288,120011,1,0,0:0:0:0:
320,288,120086,1,8,0:0:0:0:
320,224,120236,1,8,0:0:0:0:
320,224,120386,1,0,0:0:0:0:
256,224,120461,1,0,0:0:0:0:
256,224,120536,1,8,0:0:0:0:
256,224,120686,1,8,0:0:0:0:
256,224,120761,1,0,0:0:0:0:
256,224,120836,1,0,0:0:0:0:
288,256,120986,1,0,0:0:0:0:
288,256,121136,1,0,0:0:0:0:
288,256,121436,1,8,0:0:0:0:
288,256,121586,1,0,0:0:0:0:
288,256,121736,1,0,0:0:0:0:
192,224,121811,1,0,0:0:0:0:
288,256,121886,1,8,0:0:0:0:
192,224,121961,1,0,0:0:0:0:
288,256,122036,1,0,0:0:0:0:
288,256,122186,1,0,0:0:0:0:
288,256,122336,1,8,0:0:0:0:
288,256,122486,1,0,0:0:0:0:
288,256,122561,1,0,0:0:0:0:
288,256,122636,1,8,0:0:0:0:
320,256,122786,1,8,0:0:0:0:
320,256,122936,1,0,0:0:0:0:
320,256,123086,1,0,0:0:0:0:
320,256,123236,1,8,0:0:0:0:
320,256,123386,1,0,0:0:0:0:
320,256,123461,1,0,0:0:0:0:
320,256,123536,1,8,0:0:0:0:
320,256,123686,1,8,0:0:0:0:
320,256,123836,1,0,0:0:0:0:
320,256,123986,1,0,0:0:0:0:
320,256,124061,1,0,0:0:0:0:
320,288,124136,1,8,0:0:0:0:
320,288,124286,1,8,0:0:0:0:
320,288,124436,1,8,0:0:0:0:
320,288,124511,1,8,0:0:0:0:
320,288,124586,1,0,0:0:0:0:
320,288,124661,1,0,0:0:0:0:
320,288,124736,1,8,0:0:0:0:
320,288,124886,1,8,0:0:0:0:
320,288,125036,1,0,0:0:0:0:
320,288,125111,1,0,0:0:0:0:
320,288,125186,1,0,0:0:0:0:
320,288,125336,1,8,0:0:0:0:
320,288,125411,1,0,0:0:0:0:
320,288,125486,1,8,0:0:0:0:
320,288,125561,1,8,0:0:0:0:
320,288,125636,1,0,0:0:0:0:
320,288,125711,1,0,0:0:0:0:
320,288,125786,1,8,0:0:0:0:
320,288,125861,1,0,0:0:0:0:
320,288,125936,1,8,0:0:0:0:
320,288,126011,1,8,0:0:0:0:
320,288,126086,1,0,0:0:0:0:
320,288,126236,1,12,0:0:0:0:
256,192,126386,1,0,0:0:0:0:
256,192,126461,1,0,0:0:0:0:
256,192,126536,1,8,0:0:0:0:
256,192,126686,1,8,0:0:0:0:
256,192,126836,1,0,0:0:0:0:
256,224,126911,1,0,0:0:0:0:
256,224,126986,1,8,0:0:0:0:
256,224,127061,1,8,0:0:0:0:
256,224,127136,1,0,0:0:0:0:
256,224,127286,1,0,0:0:0:0:
256,224,127436,1,8,0:0:0:0:
128,192,127586,1,8,0:0:0:0:
128,192,127736,1,0,0:0:0:0:
128,192,127886,1,0,0:0:0:0:
128,192,128036,1,8,0:0:0:0:
128,192,128186,1,0,0:0:0:0:
128,192,128261,1,0,0:0:0:0:
128,192,128336,1,8,0:0:0:0:
128,192,128411,1,8,0:0:0:0:
288,160,128486,1,0,0:0:0:0:
192,192,128561,1,0,0:0:0:0:
288,160,128636,1,8,0:0:0:0:
192,192,128786,1,8,0:0:0:0:
192,192,128936,1,0,0:0:0:0:
192,192,129011,1,0,0:0:0:0:
192,192,129086,1,0,0:0:0:0:
192,192,129236,1,8,0:0:0:0:
192,192,129311,1,0,0:0:0:0:
192,192,129386,1,0,0:0:0:0:
192,192,129461,1,0,0:0:0:0:
192,192,129536,1,8,0:0:0:0:
192,192,129686,1,8,0:0:0:0:
192,192,129836,1,0,0:0:0:0:
192,192,129911,1,0,0:0:0:0:
192,192,129986,1,0,0:0:0:0:
192,192,130136,1,0,0:0:0:0:
192,192,130286,1,0,0:0:0:0:
192,192,130436,1,8,0:0:0:0:
192,192,130586,1,0,0:0:0:0:
320,160,130661,1,0,0:0:0:0:
32,160,130736,1,8,0:0:0:0:
192,192,130886,1,8,0:0:0:0:
192,192,131036,1,0,0:0:0:0:
160,224,131111,1,0,0:0:0:0:
32,160,131186,1,0,0:0:0:0:
160,224,131261,1,0,0:0:0:0:
192,224,131336,1,8,0:0:0:0:
192,224,131486,1,8,0:0:0:0:
192,224,131636,1,0,0:0:0:0:
192,256,131711,1,0,0:0:0:0:
192,256,131786,1,0,0:0:0:0:
192,256,131936,1,0,0:0:0:0:
192,256,132086,1,0,0:0:0:0:
192,256,132161,1,0,0:0:0:0:
192,224,132236,1,8,0:0:0:0:
224,224,132386,1,8,0:0:0:0:
224,224,132536,1,0,0:0:0:0:
224,224,132686,1,0,0:0:0:0:
224,224,132836,1,8,0:0:0:0:
224,192,132986,1,8,0:0:0:0:
256,192,133061,1,8,0:0:0:0:
256,192,133136,1,0,0:0:0:0:
256,192,133286,1,0,0:0:0:0:
256,192,133436,1,12,0:0:0:0:
128,224,133586,1,0,0:0:0:0:
128,224,133736,1,0,0:0:0:0:
128,224,133886,1,8,0:0:0:0:
128,224,134036,1,0,0:0:0:0:
192,224,134111,1,0,0:0:0:0:
128,224,134186,1,8,0:0:0:0:
192,224,134261,1,0,0:0:0:0:
128,224,134336,1,8,0:0:0:0:
192,224,134411,1,8,0:0:0:0:
128,224,134486,1,0,0:0:0:0:
192,224,134561,1,0,0:0:0:0:
128,224,134636,1,8,0:0:0:0:
320,256,134786,1,4,0:0:0:0:
320,256,135086,1,8,0:0:0:0:
320,256,135236,1,0,0:0:0:0:
320,256,135386,1,0,0:0:0:0:
320,256,135536,1,8,0:0:0:0:
320,256,135686,1,0,0:0:0:0:
320,256,135836,1,12,0:0:0:0:
256,192,135986,1,0,0:0:0:0:
256,192,136061,1,0,0:0:0:0:
256,192,136136,1,8,0:0:0:0:
384,256,136286,1,8,0:0:0:0:
384,256,136436,1,0,0:0:0:0:
384,256,136511,1,0,0:0:0:0:
384,256,136586,1,0,0:0:0:0:
384,256,136736,1,0,0:0:0:0:
256,192,136811,1,0,0:0:0:0:
256,192,136886,1,8,0:0:0:0:
256,192,136961,1,8,0:0:0:0:
256,192,137036,1,0,0:0:0:0:
256,192,137186,1,0,0:0:0:0:
256,224,137336,1,8,0:0:0:0:
192,192,137486,1,8,0:0:0:0:
192,192,137561,1,8,0:0:0:0:
192,192,137636,1,0,0:0:0:0:
192,192,137786,1,0,0:0:0:0:
192,192,137936,1,8,0:0:0:0:
192,192,138011,1,8,0:0:0:0:
192,192,138086,1,0,0:0:0:0:
192,192,138161,1,0,0:0:0:0:
192,192,138236,1,8,0:0:0:0:
192,192,138386,1,8,0:0:0:0:
192,192,138536,1,0,0:0:0:0:
192,192,138686,1,0,0:0:0:0:
192,192,138761,1,0,0:0:0:0:
192,192,138836,1,8,0:0:0:0:
192,224,138911,1,8,0:0:0:0:
192,224,138986,1,0,0:0:0:0:
224,192,139061,1,8,0:0:0:0:
224,192,139136,1,0,0:0:0:0:
224,192,139211,1,0,0:0:0:0:
224,192,139286,1,8,0:0:0:0:
224,192,139361,1,0,0:0:0:0:
224,192,139436,1,8,0:0:0:0:
64,192,139586,1,0,0:0:0:0:
96,192,139661,1,0,0:0:0:0:
64,192,139736,1,0,0:0:0:0:
96,192,139886,1,0,0:0:0:0:
96,192,139961,1,0,0:0:0:0:
96,192,140036,1,8,0:0:0:0:
128,224,140186,1,0,0:0:0:0:
128,192,140336,1,8,0:0:0:0:
128,192,140486,1,0,0:0:0:0:
128,192,140636,1,0,0:0:0:0:
128,192,140711,1,0,0:0:0:0:
128,192,140786,1,8,0:0:0:0:
128,192,140861,1,8,0:0:0:0:
128,192,140936,1,0,0:0:0:0:
160,224,141086,1,0,0:0:0:0:
160,224,141236,1,8,0:0:0:0:
160,224,141386,1,8,0:0:0:0:
160,224,141536,1,0,0:0:0:0:
160,224,141686,1,0,0:0:0:0:
160,224,141836,1,8,0:0:0:0:
160,224,141911,1,0,0:0:0:0:
192,256,141986,1,0,0:0:0:0:
192,224,142061,1,0,0:0:0:0:
192,256,142136,1,8,0:0:0:0:
64,128,142286,1,0,0:0:0:0:
96,160,142361,1,0,0:0:0:0:
96,128,142436,1,0,0:0:0:0:
96,160,142586,1,0,0:0:0:0:
96,160,142736,1,8,0:0:0:0:
96,160,142886,1,8,0:0:0:0:
96,128,143036,1,8,0:0:0:0:
96,128,143111,1,8,0:0:0:0:
96,128,143186,1,0,0:0:0:0:
96,128,143336,1,0,0:0:0:0:
96,128,143486,1,0,0:0:0:0:
96,128,143636,1,8,0:0:0:0:
96,128,143786,1,8,0:0:0:0:
96,128,143936,1,0,0:0:0:0:
96,128,144011,1,0,0:0:0:0:
96,128,144086,1,8,0:0:0:0:
96,128,144161,1,0,0:0:0:0:
96,128,144236,1,8,0:0:0:0:
96,128,144386,1,8,0:0:0:0:
192,160,144461,1,8,0:0:0:0:
64,160,144536,1,0,0:0:0:0:
192,160,144686,1,0,0:0:0:0:
192,160,144761,1,0,0:0:0:0:
192,160,144836,1,8,0:0:0:0:
288,128,144986,1,0,0:0:0:0:
288,128,145036,1,0,0:0:0:0:
288,128,145086,1,0,0:0:0:0:
288,128,145136,1,0,0:0:0:0:
448,320,145286,1,0,0:0:0:0:
192,160,145436,1,8,0:0:0:0:
128,192,145511,1,0,0:0:0:0:
192,192,145586,1,0,0:0:0:0:
160,192,145661,1,0,0:0:0:0:
192,192,145736,1,0,0:0:0:0:
160,192,145811,1,0,0:0:0:0:
192,192,145886,1,0,0:0:0:0:
160,192,145961,1,0,0:0:0:0:
192,192,146036,1,0,0:0:0:0:
160,192,146111,1,0,0:0:0:0:
160,192,146186,1,0,0:0:0:0:
160,192,146261,1,0,0:0:0:0:
160,160,146336,1,8,0:0:0:0:
160,192,146411,1,0,0:0:0:0:
160,192,146486,1,0,0:0:0:0:
160,192,146561,1,0,0:0:0:0:
160,192,146636,1,0,0:0:0:0:
160,192,146711,1,0,0:0:0:0:
160,192,146786,1,0,0:0:0:0:
160,192,146861,1,0,0:0:0:0:
160,160,146936,1,8,0:0:0:0:
160,192,147011,1,0,0:0:0:0:
160,192,147086,1,0,0:0:0:0:
160,192,147161,1,0,0:0:0:0:
160,192,147236,1,0,0:0:0:0:
160,192,147311,1,0,0:0:0:0:
160,192,147386,1,0,0:0:0:0:
160,192,147461,1,0,0:0:0:0:
160,160,147536,1,8,0:0:0:0:
160,192,147611,1,0,0:0:0:0:
160,192,147686,1,0,0:0:0:0:
160,192,147761,1,0,0:0:0:0:
160,192,147836,1,0,0:0:0:0:
160,192,147911,1,0,0:0:0:0:
160,192,147986,1,0,0:0:0:0:
160,192,148061,1,0,0:0:0:0:
160,192,148136,1,8,0:0:0:0:
160,192,148211,1,0,0:0:0:0:
160,192,148286,1,0,0:0:0:0:
160,192,148361,1,0,0:0:0:0:
160,192,148436,1,0,0:0:0:0:
160,192,148511,1,0,0:0:0:0:
160,192,148586,1,0,0:0:0:0:
160,192,148661,1,0,0:0:0:0:
160,160,148736,1,8,0:0:0:0:
160,192,148811,1,0,0:0:0:0:
160,192,148886,1,0,0:0:0:0:
160,192,148961,1,0,0:0:0:0:
160,192,149036,1,0,0:0:0:0:
160,192,149111,1,0,0:0:0:0:
160,192,149186,1,0,0:0:0:0:
160,192,149261,1,0,0:0:0:0:
160,160,149336,1,8,0:0:0:0:
160,192,149411,1,0,0:0:0:0:
160,192,149486,1,0,0:0:0:0:
160,192,149561,1,0,0:0:0:0:
160,192,149636,1,0,0:0:0:0:
160,192,149711,1,0,0:0:0:0:
160,192,149786,1,0,0:0:0:0:
160,192,149861,1,0,0:0:0:0:
160,160,149936,1,8,0:0:0:0:
160,192,150011,1,0,0:0:0:0:
160,192,150086,1,0,0:0:0:0:
160,192,150161,1,0,0:0:0:0:
160,192,150236,1,0,0:0:0:0:
160,192,150311,1,0,0:0:0:0:
160,192,150386,1,0,0:0:0:0:
160,192,150461,1,0,0:0:0:0:
160,160,150536,1,8,0:0:0:0:
160,192,150611,1,0,0:0:0:0:
160,192,150686,1,0,0:0:0:0:
160,192,150761,1,0,0:0:0:0:
160,192,150836,1,0,0:0:0:0:
160,192,150911,1,0,0:0:0:0:
160,192,150986,1,0,0:0:0:0:
160,192,151061,1,0,0:0:0:0:
160,160,151136,1,8,0:0:0:0:
160,192,151211,1,0,0:0:0:0:
160,192,151286,1,0,0:0:0:0:
160,192,151361,1,0,0:0:0:0:
160,192,151436,1,0,0:0:0:0:
160,192,151511,1,0,0:0:0:0:
160,192,151586,1,0,0:0:0:0:
160,192,151661,1,0,0:0:0:0:
160,160,151736,1,8,0:0:0:0:
160,192,151811,1,0,0:0:0:0:
160,192,151886,1,0,0:0:0:0:
160,192,151961,1,0,0:0:0:0:
160,192,152036,1,0,0:0:0:0:
160,192,152111,1,0,0:0:0:0:
160,192,152186,1,0,0:0:0:0:
160,192,152261,1,0,0:0:0:0:
160,160,152336,1,8,0:0:0:0:
160,192,152411,1,0,0:0:0:0:
160,192,152486,1,0,0:0:0:0:
160,192,152561,1,0,0:0:0:0:
160,192,152636,1,8,0:0:0:0:
160,192,152711,1,0,0:0:0:0:
160,192,152786,1,0,0:0:0:0:
160,192,152861,1,0,0:0:0:0:
160,160,152936,1,8,0:0:0:0:
160,192,153011,1,0,0:0:0:0:
160,192,153086,1,0,0:0:0:0:
160,192,153161,1,0,0:0:0:0:
160,192,153236,1,8,0:0:0:0:
320,192,153311,1,0,0:0:0:0:
320,192,153386,1,8,0:0:0:0:
320,192,153461,1,8,0:0:0:0:
288,192,153536,1,0,0:0:0:0:
288,192,153611,1,0,0:0:0:0:
288,192,153686,1,8,0:0:0:0:
288,192,153761,1,8,0:0:0:0:
288,192,153836,1,0,0:0:0:0:
160,192,153911,1,0,0:0:0:0:
288,192,153986,1,8,0:0:0:0:
288,192,154061,1,8,0:0:0:0:
288,192,154136,1,0,0:0:0:0:
288,192,154211,1,0,0:0:0:0:
288,192,154286,1,8,0:0:0:0:
288,192,154361,1,0,0:0:0:0:
288,192,154436,1,8,0:0:0:0:
288,192,154511,1,8,0:0:0:0:
288,192,154586,1,0,0:0:0:0:
288,192,154661,1,0,0:0:0:0:
288,192,154736,1,8,0:0:0:0:
288,192,154811,1,8,0:0:0:0:
288,192,154886,1,0,0:0:0:0:
352,256,155036,1,8,0:0:0:0:
224,192,155186,1,8,0:0:0:0:
224,224,155336,1,0,0:0:0:0:
224,224,155411,1,0,0:0:0:0:
224,224,155486,1,0,0:0:0:0:
224,224,155636,1,0,0:0:0:0:
320,160,155711,1,0,0:0:0:0:
224,224,155786,1,8,0:0:0:0:
224,224,155861,1,8,0:0:0:0:
224,224,155936,1,0,0:0:0:0:
224,224,156086,1,0,0:0:0:0:
224,224,156236,1,8,0:0:0:0:
384,192,156311,1,8,0:0:0:0:
224,224,156386,1,0,0:0:0:0:
224,224,156536,1,0,0:0:0:0:
224,224,156686,1,8,0:0:0:0:
224,224,156836,1,0,0:0:0:0:
224,224,156911,1,0,0:0:0:0:
224,224,156986,1,8,0:0:0:0:
224,224,157061,1,0,0:0:0:0:
224,224,157136,1,8,0:0:0:0:
224,224,157286,1,8,0:0:0:0:
192,160,157361,1,8,0:0:0:0:
224,224,157436,1,0,0:0:0:0:
224,224,157511,1,0,0:0:0:0:
224,224,157586,1,8,0:0:0:0:
224,224,157736,1,0,0:0:0:0:
224,224,157811,1,8,0:0:0:0:
224,224,157886,1,0,0:0:0:0:
224,224,157961,1,0,0:0:0:0:
224,224,158036,1,8,0:0:0:0:
256,224,158186,1,8,0:0:0:0:
256,224,158336,1,8,0:0:0:0:
256,224,158411,1,8,0:0:0:0:
256,224,158486,1,0,0:0:0:0:
256,224,158561,1,0,0:0:0:0:
256,224,158636,1,8,0:0:0:0:
256,224,158786,1,8,0:0:0:0:
256,224,158936,1,0,0:0:0:0:
256,224,159011,1,0,0:0:0:0:
256,224,159086,1,0,0:0:0:0:
256,224,159236,1,0,0:0:0:0:
256,224,159386,1,8,0:0:0:0:
256,224,159536,1,0,0:0:0:0:
256,224,159686,1,0,0:0:0:0:
256,224,159836,1,8,0:0:0:0:
256,224,159911,1,8,0:0:0:0:
256,224,159986,1,0,0:0:0:0:
256,224,160061,1,0,0:0:0:0:
256,224,160136,1,8,0:0:0:0:
256,224,160286,1,8,0:0:0:0:
256,224,160436,1,0,0:0:0:0:
256,224,160586,1,0,0:0:0:0:
256,224,160736,1,8,0:0:0:0:
256,224,160886,1,0,0:0:0:0:
256,224,161036,1,8,0:0:0:0:
288,192,161111,1,8,0:0:0:0:
256,224,161186,1,8,0:0:0:0:
256,224,161336,1,0,0:0:0:0:
256,224,161486,1,0,0:0:0:0:
256,224,161636,1,8,0:0:0:0:
384,224,161711,1,0,0:0:0:0:
384,224,161786,1,8,0:0:0:0:
384,224,161861,1,8,0:0:0:0:
384,224,161936,1,0,0:0:0:0:
384,224,162011,1,0,0:0:0:0:
384,224,162086,1,8,0:0:0:0:
384,224,162161,1,0,0:0:0:0:
384,224,162236,1,8,0:0:0:0:
288,192,162536,1,0,0:0:0:0:
288,192,162836,1,8,0:0:0:0:
256,192,163136,1,0,0:0:0:0:
256,192,163286,1,8,0:0:0:0:
160,192,163436,1,8,0:0:0:0:
256,192,163586,1,0,0:0:0:0:
96,192,163886,1,0,0:0:0:0:
96,192,163961,1,0,0:0:0:0:
96,192,164036,1,0,0:0:0:0:
96,192,164186,1,0,0:0:0:0:
96,192,164261,1,0,0:0:0:0:
96,192,164336,1,8,0:0:0:0:
96,192,164636,1,0,0:0:0:0:
96,192,164786,1,0,0:0:0:0:
96,192,164936,1,8,0:0:0:0:
96,192,165011,1,0,0:0:0:0:
96,192,165086,1,8,0:0:0:0:
96,192,165161,1,8,0:0:0:0:
96,192,165236,1,0,0:0:0:0:
96,192,165311,1,8,0:0:0:0:
96,192,165386,1,0,0:0:0:0:
96,192,165461,1,0,0:0:0:0:
96,192,165536,1,8,0:0:0:0:
96,192,165611,1,0,0:0:0:0:
96,192,165686,1,8,0:0:0:0:
96,192,165836,1,12,0:0:0:0:
96,192,166061,1,12,0:0:0:0:
96,192,166286,1,12,0:0:0:0:
96,192,166436,1,12,0:0:0:0:
160,192,166736,1,0,0:0:0:0:
192,256,167036,1,12,0:0:0:0:
224,256,167186,1,8,0:0:0:0:
224,256,167261,1,0,0:0:0:0:
224,256,167336,1,8,0:0:0:0:
224,256,167411,1,8,0:0:0:0:
224,256,167486,1,0,0:0:0:0:
224,256,167561,1,0,0:0:0:0:
224,256,167636,1,8,0:0:0:0:
224,256,167711,1,0,0:0:0:0:
224,256,167786,1,0,0:0:0:0:
224,256,167861,1,0,0:0:0:0:
224,256,167936,1,8,0:0:0:0:
320,288,168011,1,0,0:0:0:0:
320,288,168086,1,0,0:0:0:0:
320,288,168161,1,0,0:0:0:0:
320,288,168236,1,8,0:0:0:0:
320,288,168311,1,0,0:0:0:0:
320,288,168386,1,8,0:0:0:0:
320,288,168461,1,8,0:0:0:0:
320,288,168536,1,0,0:0:0:0:
320,288,168611,1,0,0:0:0:0:
320,288,168686,1,8,0:0:0:0:
320,288,168761,1,0,0:0:0:0:
320,288,168836,1,8,0:0:0:0:
320,288,168911,1,8,0:0:0:0:
320,288,168986,1,0,0:0:0:0:
320,288,169061,1,0,0:0:0:0:
320,288,169136,1,8,0:0:0:0:
320,288,169211,1,0,0:0:0:0:
320,288,169286,1,0,0:0:0:0:
320,288,169361,1,0,0:0:0:0:
320,288,169436,1,8,0:0:0:0:
320,288,169511,1,8,0:0:0:0:
320,288,169586,1,0,0:0:0:0:
320,288,169661,1,0,0:0:0:0:
320,288,169736,1,8,0:0:0:0:
320,288,169811,1,8,0:0:0:0:
320,288,169886,1,0,0:0:0:0:
320,288,169961,1,8,0:0:0:0:
320,288,170036,1,0,0:0:0:0:
320,288,170111,1,0,0:0:0:0:
320,288,170186,1,8,0:0:0:0:
320,288,170261,1,0,0:0:0:0:
320,288,170336,1,8,0:0:0:0:
320,288,170411,1,8,0:0:0:0:
320,288,170486,1,0,0:0:0:0:
320,288,170561,1,0,0:0:0:0:
320,288,170636,1,8,0:0:0:0:
320,288,170711,1,0,0:0:0:0:
320,288,170786,1,0,0:0:0:0:
320,288,170861,1,0,0:0:0:0:
320,288,170936,1,8,0:0:0:0:
320,288,171011,1,8,0:0:0:0:
320,288,171086,1,0,0:0:0:0:
320,288,171161,1,0,0:0:0:0:
320,288,171236,1,8,0:0:0:0:
320,288,171311,1,0,0:0:0:0:
320,288,171386,1,8,0:0:0:0:
320,288,171461,1,8,0:0:0:0:
320,288,171536,1,0,0:0:0:0:
320,288,171611,1,0,0:0:0:0:
320,288,171686,1,0,0:0:0:0:
320,288,171761,1,0,0:0:0:0:
320,288,171836,1,8,0:0:0:0:
320,288,171911,1,0,0:0:0:0:
320,288,171986,1,8,0:0:0:0:
320,288,172061,1,8,0:0:0:0:
320,288,172136,1,0,0:0:0:0:
320,288,172211,1,0,0:0:0:0:
320,288,172286,1,8,0:0:0:0:
320,288,172361,1,0,0:0:0:0:
320,288,172436,1,8,0:0:0:0:
320,288,172511,1,8,0:0:0:0:
320,288,172586,1,0,0:0:0:0:
320,288,172661,1,0,0:0:0:0:
320,288,172736,1,8,0:0:0:0:
320,288,172811,1,8,0:0:0:0:
320,288,172886,1,8,0:0:0:0:
320,288,172961,1,8,0:0:0:0:
320,288,173036,1,0,0:0:0:0:
320,288,173111,1,0,0:0:0:0:
320,288,173186,1,8,0:0:0:0:
320,288,173261,1,0,0:0:0:0:
320,288,173336,1,8,0:0:0:0:
320,288,173411,1,8,0:0:0:0:
320,288,173486,1,0,0:0:0:0:
320,288,173561,1,8,0:0:0:0:
320,288,173636,1,0,0:0:0:0:
320,288,173711,1,0,0:0:0:0:
320,288,173786,1,8,0:0:0:0:
320,288,173861,1,0,0:0:0:0:
320,288,173936,1,8,0:0:0:0:
320,288,174011,1,8,0:0:0:0:
320,288,174086,1,0,0:0:0:0:
320,288,174161,1,0,0:0:0:0:
320,288,174236,1,8,0:0:0:0:
320,288,174311,1,8,0:0:0:0:
320,288,174386,1,8,0:0:0:0:
320,288,174461,1,8,0:0:0:0:
320,288,174536,1,0,0:0:0:0:
320,288,174611,1,0,0:0:0:0:
320,288,174686,1,8,0:0:0:0:
320,288,174761,1,8,0:0:0:0:
320,288,174836,1,0,0:0:0:0:
320,288,174911,1,0,0:0:0:0:
320,288,174986,1,8,0:0:0:0:
320,288,175061,1,0,0:0:0:0:
320,288,175136,1,8,0:0:0:0:
320,288,175211,1,8,0:0:0:0:
320,288,175286,1,0,0:0:0:0:
320,288,175361,1,0,0:0:0:0:
320,288,175436,1,8,0:0:0:0:
160,192,175536,1,0,0:0:0:0:
160,192,175636,1,0,0:0:0:0:
160,192,175736,1,8,0:0:0:0:
160,192,175836,1,0,0:0:0:0:
160,192,175936,1,0,0:0:0:0:
160,192,176036,1,8,0:0:0:0:
160,192,176136,1,0,0:0:0:0:
160,192,176236,1,0,0:0:0:0:
160,192,176336,1,8,0:0:0:0:
160,192,176436,1,0,0:0:0:0:
160,192,176536,1,0,0:0:0:0:
320,192,176636,1,8,0:0:0:0:
320,192,176711,1,0,0:0:0:0:
320,192,176786,1,8,0:0:0:0:
320,192,176861,1,8,0:0:0:0:
320,192,176936,1,0,0:0:0:0:
320,192,177011,1,0,0:0:0:0:
320,192,177086,1,8,0:0:0:0:
320,192,177161,1,0,0:0:0:0:
320,192,177236,1,8,0:0:0:0:
320,192,177311,1,8,0:0:0:0:
320,192,177386,1,0,0:0:0:0:
320,192,177461,1,0,0:0:0:0:
320,192,177536,1,8,0:0:0:0:
320,192,177611,1,0,0:0:0:0:
320,192,177686,1,0,0:0:0:0:
320,192,177761,1,0,0:0:0:0:
320,192,177836,1,8,0:0:0:0:
416,320,177911,1,8,0:0:0:0:
416,288,177986,1,8,0:0:0:0:
416,288,178061,1,8,0:0:0:0:
416,288,178136,1,0,0:0:0:0:
352,256,178211,1,0,0:0:0:0:
352,256,178286,1,8,0:0:0:0:
352,256,178361,1,0,0:0:0:0:
352,256,178436,1,8,0:0:0:0:
352,256,178511,1,8,0:0:0:0:
352,256,178586,1,0,0:0:0:0:
352,256,178661,1,0,0:0:0:0:
352,256,178736,1,8,0:0:0:0:
352,256,178811,1,0,0:0:0:0:
352,256,178886,1,0,0:0:0:0:
352,256,178961,1,0,0:0:0:0:
352,256,179036,1,8,0:0:0:0:
352,256,179111,1,0,0:0:0:0:
352,256,179186,1,8,0:0:0:0:
352,256,179261,1,8,0:0:0:0:
352,256,179336,1,0,0:0:0:0:
352,256,179411,1,0,0:0:0:0:
352,256,179486,1,8,0:0:0:0:
352,256,179561,1,0,0:0:0:0:
352,256,179636,1,8,0:0:0:0:
352,320,179711,1,8,0:0:0:0:
352,320,179786,1,8,0:0:0:0:
352,320,179861,1,8,0:0:0:0:
384,288,179936,1,0,0:0:0:0:
384,288,180011,1,0,0:0:0:0:
384,288,180086,1,8,0:0:0:0:
384,288,180161,1,8,0:0:0:0:
384,288,180236,1,0,0:0:0:0:
384,288,180311,1,0,0:0:0:0:
384,288,180386,1,8,0:0:0:0:
384,288,180461,1,8,0:0:0:0:
384,288,180536,1,0,0:0:0:0:
352,320,180611,1,0,0:0:0:0:
352,320,180686,1,8,0:0:0:0:
352,320,180761,1,8,0:0:0:0:
352,320,180836,1,0,0:0:0:0:
352,320,180911,1,0,0:0:0:0:
352,320,180986,1,8,0:0:0:0:
352,320,181061,1,8,0:0:0:0:
352,320,181136,1,0,0:0:0:0:
224,192,181211,1,0,0:0:0:0:
224,192,181286,1,8,0:0:0:0:
224,192,181361,1,0,0:0:0:0:
384,288,181436,1,8,0:0:0:0:
192,192,181511,1,8,0:0:0:0:
256,192,181586,1,0,0:0:0:0:
256,192,181661,1,0,0:0:0:0:
256,192,181736,1,0,0:0:0:0:
256,192,181811,1,0,0:0:0:0:
384,288,181886,1,8,0:0:0:0:
256,192,181961,1,0,0:0:0:0:
256,192,182036,1,0,0:0:0:0:
256,192,182111,1,0,0:0:0:0:
256,192,182186,1,0,0:0:0:0:
256,192,182261,1,0,0:0:0:0:
256,192,182336,1,8,0:0:0:0:
256,192,182411,1,0,0:0:0:0:
256,192,182486,1,8,0:0:0:0:
384,288,182636,1,12,0:0:0:0:
160,192,182786,1,12,0:0:0:0:
160,192,182936,1,12,0:0:0:0:
128,160,183236,1,0,0:0:0:0:
128,160,183536,1,8,0:0:0:0:
128,160,183836,1,8,0:0:0:0:
288,256,183911,1,0,0:0:0:0:
256,224,183986,1,8,0:0:0:0:
512,320,184061,1,0,0:0:0:0:
192,160,184136,1,8,0:0:0:0:
480,320,184586,1,8,0:0:0:0:
480,320,184886,1,0,0:0:0:0:
480,320,185186,1,8,0:0:0:0:
480,320,185486,1,0,0:0:0:0:
480,320,185636,1,0,0:0:0:0:
480,320,185786,1,0,0:0:0:0:
512,320,185936,1,12,0:0:0:0:
320,192,186236,1,0,0:0:0:0:
320,192,186386,1,0,0:0:0:0:
320,192,186536,1,8,0:0:0:0:
320,192,186986,1,8,0:0:0:0:
320,192,187286,1,0,0:0:0:0:
320,192,187586,1,0,0:0:0:0:
320,192,187736,1,0,0:0:0:0:
320,192,187886,1,0,0:0:0:0:
320,192,188036,1,8,0:0:0:0:
320,192,188111,1,8,0:0:0:0:
320,192,188186,1,8,0:0:0:0:
320,192,188261,1,8,0:0:0:0:
320,192,188336,1,0,0:0:0:0:
416,256,188636,1,4,0:0:0:0:
352,224,188786,1,8,0:0:0:0:
192,192,189086,1,0,0:0:0:0:
192,192,189236,1,8,0:0:0:0:
192,192,189536,1,8,0:0:0:0:
192,192,189686,1,0,0:0:0:0:
192,192,189836,1,0,0:0:0:0:
64,160,189986,1,0,0:0:0:0:
64,160,190136,1,8,0:0:0:0:
64,160,190436,1,8,0:0:0:0:
64,160,190736,1,0,0:0:0:0:
64,160,190886,1,0,0:0:0:0:
64,160,191036,1,8,0:0:0:0:
64,160,191186,1,0,0:0:0:0:
448,352,191336,1,8,0:0:0:0:
64,160,191636,1,8,0:0:0:0:
448,352,191936,1,0,0:0:0:0:
448,352,192086,1,0,0:0:0:0:
448,352,192236,1,0,0:0:0:0:
448,352,192386,1,8,0:0:0:0:
448,352,192536,1,0,0:0:0:0:
448,352,192836,1,8,0:0:0:0:
160,224,192986,1,8,0:0:0:0:
160,224,193136,1,0,0:0:0:0:
160,224,193286,1,0,0:0:0:0:
448,352,193436,1,8,0:0:0:0:
224,192,193586,1,0,0:0:0:0:
224,192,193661,1,0,0:0:0:0:
224,192,193736,1,0,0:0:0:0:
224,192,193886,1,0,0:0:0:0:
224,192,194036,1,8,0:0:0:0:
224,192,194186,1,0,0:0:0:0:
224,192,194261,1,0,0:0:0:0:
224,192,194336,1,0,0:0:0:0:
224,192,194486,1,0,0:0:0:0:
224,192,194636,1,8,0:0:0:0:
224,160,194786,1,0,0:0:0:0:
256,160,194861,1,0,0:0:0:0:
256,160,194936,1,0,0:0:0:0:
256,160,195086,1,0,0:0:0:0:
256,160,195236,1,8,0:0:0:0:
256,160,195386,1,0,0:0:0:0:
256,160,195461,1,0,0:0:0:0:
256,160,195536,1,0,0:0:0:0:
256,160,195686,1,0,0:0:0:0:
256,160,195836,1,8,0:0:0:0:
256,192,195986,1,0,0:0:0:0:
288,192,196136,1,0,0:0:0:0:
288,192,196286,1,8,0:0:0:0:
288,192,196436,1,0,0:0:0:0:
288,192,196586,1,0,0:0:0:0:
288,192,196736,1,8,0:0:0:0:
288,192,196886,1,0,0:0:0:0:
288,192,197036,1,8,0:0:0:0:
256,224,197111,1,8,0:0:0:0:
256,224,197186,1,0,0:0:0:0:
256,224,197261,1,0,0:0:0:0:
256,224,197336,1,8,0:0:0:0:
256,224,197411,1,8,0:0:0:0:
256,224,197486,1,8,0:0:0:0:
256,224,197636,1,4,0:0:0:0:
256,224,197786,1,4,0:0:0:0:
256,224,197936,1,4,0:0:0:0:
192,288,198236,1,8,0:0:0:0:
192,288,198311,1,0,0:0:0:0:
192,288,198386,1,8,0:0:0:0:
192,288,198461,1,8,0:0:0:0:
192,288,198536,1,0,0:0:0:0:
192,288,198611,1,0,0:0:0:0:
192,288,198686,1,8,0:0:0:0:
192,288,198761,1,0,0:0:0:0:
192,288,198836,1,8,0:0:0:0:
192,288,198911,1,8,0:0:0:0:
192,288,198986,1,0,0:0:0:0:
192,288,199061,1,0,0:0:0:0:
192,288,199136,1,8,0:0:0:0:
192,288,199211,1,0,0:0:0:0:
192,288,199286,1,0,0:0:0:0:
192,288,199361,1,0,0:0:0:0:
192,288,199436,1,8,0:0:0:0:
192,288,199511,1,0,0:0:0:0:
192,288,199586,1,8,0:0:0:0:
192,288,199661,1,8,0:0:0:0:
192,288,199736,1,0,0:0:0:0:
192,288,199811,1,0,0:0:0:0:
192,288,199886,1,8,0:0:0:0:
192,288,199961,1,0,0:0:0:0:
192,288,200036,1,8,0:0:0:0:
192,288,200111,1,8,0:0:0:0:
192,288,200186,1,0,0:0:0:0:
192,288,200261,1,8,0:0:0:0:
192,288,200336,1,0,0:0:0:0:
192,288,200411,1,0,0:0:0:0:
192,288,200486,1,8,0:0:0:0:
192,288,200561,1,0,0:0:0:0:
192,288,200636,1,8,0:0:0:0:
192,288,200711,1,8,0:0:0:0:
192,288,200786,1,0,0:0:0:0:
192,288,200861,1,0,0:0:0:0:
192,288,200936,1,8,0:0:0:0:
192,288,201011,1,0,0:0:0:0:
192,288,201086,1,0,0:0:0:0:
192,288,201161,1,0,0:0:0:0:
192,288,201236,1,8,0:0:0:0:
192,288,201311,1,8,0:0:0:0:
192,288,201386,1,0,0:0:0:0:
192,288,201461,1,0,0:0:0:0:
192,288,201536,1,8,0:0:0:0:
192,288,201611,1,0,0:0:0:0:
192,288,201686,1,0,0:0:0:0:
192,288,201761,1,0,0:0:0:0:
192,288,201836,1,8,0:0:0:0:
192,288,201911,1,8,0:0:0:0:
192,288,201986,1,0,0:0:0:0:
192,288,202061,1,0,0:0:0:0:
192,288,202136,1,8,0:0:0:0:
192,288,202211,1,0,0:0:0:0:
192,288,202286,1,8,0:0:0:0:
192,288,202361,1,8,0:0:0:0:
192,288,202436,1,0,0:0:0:0:
192,288,202511,1,0,0:0:0:0:
192,288,202586,1,0,0:0:0:0:
192,288,202661,1,0,0:0:0:0:
192,288,202736,1,8,0:0:0:0:
192,288,202811,1,0,0:0:0:0:
192,288,202886,1,8,0:0:0:0:
192,288,202961,1,8,0:0:0:0:
192,288,203036,1,0,0:0:0:0:
192,288,203111,1,0,0:0:0:0:
192,288,203186,1,8,0:0:0:0:
192,288,203261,1,8,0:0:0:0:
192,288,203336,1,0,0:0:0:0:
192,288,203411,1,0,0:0:0:0:
192,288,203486,1,8,0:0:0:0:
192,288,203561,1,0,0:0:0:0:
192,288,203636,1,8,0:0:0:0:
192,288,203711,1,0,0:0:0:0:
192,288,203786,1,8,0:0:0:0:
192,288,203861,1,8,0:0:0:0:
192,288,203936,1,0,0:0:0:0:
192,288,204011,1,0,0:0:0:0:
192,288,204086,1,8,0:0:0:0:
192,288,204161,1,0,0:0:0:0:
192,288,204236,1,8,0:0:0:0:
192,288,204311,1,8,0:0:0:0:
192,288,204386,1,0,0:0:0:0:
192,288,204461,1,0,0:0:0:0:
192,288,204536,1,8,0:0:0:0:
192,288,204611,1,8,0:0:0:0:
192,288,204686,1,0,0:0:0:0:
192,288,204761,1,0,0:0:0:0:
192,288,204836,1,8,0:0:0:0:
192,288,204911,1,0,0:0:0:0:
192,288,204986,1,0,0:0:0:0:
192,288,205061,1,0,0:0:0:0:
192,288,205136,1,8,0:0:0:0:
192,288,205211,1,8,0:0:0:0:
192,288,205286,1,0,0:0:0:0:
192,288,205361,1,0,0:0:0:0:
192,288,205436,1,8,0:0:0:0:
192,288,205511,1,0,0:0:0:0:
192,288,205586,1,8,0:0:0:0:
192,288,205661,1,8,0:0:0:0:
192,288,205736,1,0,0:0:0:0:
192,288,205811,1,0,0:0:0:0:
192,288,205886,1,8,0:0:0:0:
192,288,205961,1,0,0:0:0:0:
192,288,206036,1,8,0:0:0:0:
192,288,206111,1,8,0:0:0:0:
192,288,206186,1,0,0:0:0:0:
192,288,206261,1,0,0:0:0:0:
192,288,206336,1,8,0:0:0:0:
192,288,206411,1,0,0:0:0:0:
192,288,206486,1,0,0:0:0:0:
192,288,206561,1,0,0:0:0:0:
192,288,206636,1,8,0:0:0:0:
192,288,206711,1,0,0:0:0:0:
192,288,206786,1,8,0:0:0:0:
192,288,206861,1,8,0:0:0:0:
192,288,206936,1,0,0:0:0:0:
192,288,207011,1,0,0:0:0:0:
192,288,207086,1,8,0:0:0:0:
192,288,207161,1,8,0:0:0:0:
192,288,207236,1,0,0:0:0:0:
192,288,207311,1,8,0:0:0:0:
192,288,207386,1,0,0:0:0:0:
192,288,207461,1,0,0:0:0:0:
192,288,207536,1,8,0:0:0:0:
192,288,207611,1,0,0:0:0:0:
192,288,207686,1,8,0:0:0:0:
192,288,207836,1,8,0:0:0:0:
192,288,207911,1,0,0:0:0:0:
192,288,207986,1,8,0:0:0:0:
192,288,208061,1,8,0:0:0:0:
192,288,208136,1,0,0:0:0:0:
192,288,208211,1,0,0:0:0:0:
192,288,208286,1,8,0:0:0:0:
192,288,208361,1,0,0:0:0:0:
192,288,208436,1,8,0:0:0:0:
192,288,208511,1,8,0:0:0:0:
192,288,208586,1,0,0:0:0:0:
192,288,208661,1,0,0:0:0:0:
192,288,208736,1,8,0:0:0:0:
192,288,208811,1,0,0:0:0:0:
192,288,208886,1,0,0:0:0:0:
192,288,208961,1,0,0:0:0:0:
192,288,209036,1,8,0:0:0:0:
192,288,209111,1,0,0:0:0:0:
192,288,209186,1,8,0:0:0:0:
192,288,209261,1,8,0:0:0:0:
192,288,209336,1,0,0:0:0:0:
192,288,209411,1,0,0:0:0:0:
192,288,209486,1,8,0:0:0:0:
192,288,209561,1,0,0:0:0:0:
192,288,209636,1,8,0:0:0:0:
192,288,209711,1,8,0:0:0:0:
192,288,209786,1,0,0:0:0:0:
192,288,209861,1,8,0:0:0:0:
192,288,209936,1,0,0:0:0:0:
192,288,210011,1,0,0:0:0:0:
192,288,210086,1,8,0:0:0:0:
192,288,210161,1,0,0:0:0:0:
192,288,210236,1,8,0:0:0:0:
192,288,210311,1,8,0:0:0:0:
192,288,210386,1,0,0:0:0:0:
192,288,210461,1,0,0:0:0:0:
192,288,210536,1,8,0:0:0:0:
192,288,210611,1,0,0:0:0:0:
192,288,210686,1,0,0:0:0:0:
192,288,210761,1,0,0:0:0:0:
192,288,210836,1,8,0:0:0:0:
192,288,210911,1,8,0:0:0:0:
192,288,210986,1,0,0:0:0:0:
192,288,211061,1,0,0:0:0:0:
192,288,211136,1,8,0:0:0:0:
192,288,211211,1,0,0:0:0:0:
192,288,211286,1,0,0:0:0:0:
192,288,211361,1,0,0:0:0:0:
192,288,211436,1,8,0:0:0:0:
192,288,211511,1,8,0:0:0:0:
192,288,211586,1,0,0:0:0:0:
192,288,211661,1,0,0:0:0:0:
192,288,211736,1,8,0:0:0:0:
192,288,211811,1,0,0:0:0:0:
192,288,211886,1,8,0:0:0:0:
192,288,211961,1,8,0:0:0:0:
192,288,212036,1,0,0:0:0:0:
288,192,212136,1,8,0:0:0:0:
288,192,212236,1,8,0:0:0:0:
288,192,212336,1,0,0:0:0:0:
288,192,212436,1,8,0:0:0:0:
288,192,212536,1,8,0:0:0:0:
224,160,212636,1,0,0:0:0:0:
256,192,212711,1,0,0:0:0:0:
256,192,212786,1,8,0:0:0:0:
256,192,212861,1,0,0:0:0:0:
192,288,212936,1,8,0:0:0:0:
192,288,213011,1,8,0:0:0:0:
192,288,213086,1,0,0:0:0:0:
192,288,213161,1,0,0:0:0:0:
192,288,213236,1,8,0:0:0:0:
192,288,213311,1,0,0:0:0:0:
192,288,213386,1,8,0:0:0:0:
192,288,213461,1,8,0:0:0:0:
192,288,213536,1,0,0:0:0:0:
192,288,213611,1,0,0:0:0:0:
192,288,213686,1,8,0:0:0:0:
192,288,213761,1,0,0:0:0:0:
192,288,213836,1,8,0:0:0:0:
192,288,213911,1,8,0:0:0:0:
192,288,213986,1,0,0:0:0:0:
192,288,214061,1,0,0:0:0:0:
192,288,214136,1,8,0:0:0:0:
192,288,214211,1,8,0:0:0:0:
192,288,214286,1,0,0:0:0:0:
192,288,214361,1,0,0:0:0:0:
192,288,214436,1,8,0:0:0:0:
192,288,214511,1,0,0:0:0:0:
192,288,214586,1,0,0:0:0:0:
192,288,214661,1,0,0:0:0:0:
192,288,214736,1,8,0:0:0:0:
192,288,214811,1,8,0:0:0:0:
192,288,214886,1,0,0:0:0:0:
192,288,214961,1,0,0:0:0:0:
192,288,215036,1,8,0:0:0:0:
192,288,215111,1,0,0:0:0:0:
192,288,215186,1,8,0:0:0:0:
192,288,215261,1,8,0:0:0:0:
192,288,215336,1,0,0:0:0:0:
192,288,215411,1,0,0:0:0:0:
192,288,215486,1,8,0:0:0:0:
192,288,215561,1,0,0:0:0:0:
192,288,215636,1,8,0:0:0:0:
192,288,215711,1,8,0:0:0:0:
192,288,215786,1,0,0:0:0:0:
192,288,215861,1,0,0:0:0:0:
192,288,215936,1,8,0:0:0:0:
192,288,216011,1,0,0:0:0:0:
192,288,216086,1,0,0:0:0:0:
192,288,216161,1,0,0:0:0:0:
192,288,216236,1,8,0:0:0:0:
192,288,216311,1,0,0:0:0:0:
192,288,216386,1,8,0:0:0:0:
192,288,216461,1,8,0:0:0:0:
192,288,216536,1,0,0:0:0:0:
192,288,216611,1,0,0:0:0:0:
192,288,216686,1,8,0:0:0:0:
192,288,216761,1,8,0:0:0:0:
192,288,216836,1,0,0:0:0:0:
192,288,216911,1,8,0:0:0:0:
192,288,216986,1,0,0:0:0:0:
192,288,217061,1,0,0:0:0:0:
192,288,217136,1,8,0:0:0:0:
192,288,217211,1,8,0:0:0:0:
192,288,217286,1,0,0:0:0:0:
160,192,217361,1,0,0:0:0:0:
160,192,217436,1,8,0:0:0:0:
288,192,217511,1,0,0:0:0:0:
288,192,217586,1,0,0:0:0:0:
288,192,217661,1,0,0:0:0:0:
288,192,217736,1,0,0:0:0:0:
288,192,217811,1,0,0:0:0:0:
288,192,217886,1,0,0:0:0:0:
288,192,217961,1,0,0:0:0:0:
288,192,218036,1,0,0:0:0:0:
288,192,218111,1,0,0:0:0:0:
288,192,218186,1,0,0:0:0:0:
288,192,218261,1,0,0:0:0:0:
256,160,218336,1,8,0:0:0:0:
288,192,218411,1,0,0:0:0:0:
288,192,218486,1,0,0:0:0:0:
288,192,218561,1,0,0:0:0:0:
288,192,218636,1,0,0:0:0:0:
288,192,218711,1,0,0:0:0:0:
288,192,218786,1,0,0:0:0:0:
288,192,218861,1,0,0:0:0:0:
256,192,218936,1,8,0:0:0:0:
288,192,219011,1,0,0:0:0:0:
288,192,219086,1,0,0:0:0:0:
288,192,219161,1,0,0:0:0:0:
288,192,219236,1,0,0:0:0:0:
288,192,219311,1,0,0:0:0:0:
288,192,219386,1,0,0:0:0:0:
288,192,219461,1,0,0:0:0:0:
256,192,219536,1,8,0:0:0:0:
288,192,219611,1,0,0:0:0:0:
288,192,219686,1,0,0:0:0:0:
288,192,219761,1,0,0:0:0:0:
288,192,219836,1,0,0:0:0:0:
288,192,219911,1,0,0:0:0:0:
288,192,219986,1,0,0:0:0:0:
288,192,220061,1,0,0:0:0:0:
256,192,220136,1,8,0:0:0:0:
288,192,220211,1,0,0:0:0:0:
288,192,220286,1,0,0:0:0:0:
288,192,220361,1,0,0:0:0:0:
288,192,220436,1,0,0:0:0:0:
288,192,220511,1,0,0:0:0:0:
288,192,220586,1,0,0:0:0:0:
288,192,220661,1,0,0:0:0:0:
288,192,220736,1,8,0:0:0:0:
288,192,220811,1,0,0:0:0:0:
288,192,220886,1,0,0:0:0:0:
288,192,220961,1,0,0:0:0:0:
288,192,221036,1,0,0:0:0:0:
288,192,221111,1,0,0:0:0:0:
288,192,221186,1,0,0:0:0:0:
288,192,221261,1,0,0:0:0:0:
256,192,221336,1,8,0:0:0:0:
288,192,221411,1,0,0:0:0:0:
288,192,221486,1,0,0:0:0:0:
288,192,221561,1,0,0:0:0:0:
288,192,221636,1,0,0:0:0:0:
288,192,221711,1,0,0:0:0:0:
288,192,221786,1,0,0:0:0:0:
288,192,221861,1,0,0:0:0:0:
256,192,221936,1,8,0:0:0:0:
288,192,222011,1,0,0:0:0:0:
288,192,222086,1,0,0:0:0:0:
288,192,222161,1,0,0:0:0:0:
288,192,222236,1,0,0:0:0:0:
288,192,222311,1,0,0:0:0:0:
288,192,222386,1,0,0:0:0:0:
288,192,222461,1,0,0:0:0:0:
256,192,222536,1,8,0:0:0:0:
288,192,222611,1,0,0:0:0:0:
288,192,222686,1,0,0:0:0:0:
288,192,222761,1,0,0:0:0:0:
288,192,222836,1,0,0:0:0:0:
288,192,222911,1,0,0:0:0:0:
288,192,222986,1,0,0:0:0:0:
288,192,223061,1,0,0:0:0:0:
256,192,223136,1,8,0:0:0:0:
288,192,223211,1,0,0:0:0:0:
288,192,223286,1,0,0:0:0:0:
288,192,223361,1,0,0:0:0:0:
288,192,223436,1,0,0:0:0:0:
288,192,223511,1,0,0:0:0:0:
288,192,223586,1,0,0:0:0:0:
288,192,223661,1,0,0:0:0:0:
256,192,223736,1,8,0:0:0:0:
288,192,223811,1,0,0:0:0:0:
288,192,223886,1,0,0:0:0:0:
288,192,223961,1,0,0:0:0:0:
288,192,224036,1,0,0:0:0:0:
320,192,224111,1,0,0:0:0:0:
320,192,224186,1,0,0:0:0:0:
320,192,224261,1,0,0:0:0:0:
256,192,224336,1,8,0:0:0:0:
320,192,224411,1,0,0:0:0:0:
320,192,224486,1,0,0:0:0:0:
320,160,224561,1,0,0:0:0:0:
320,160,224636,1,0,0:0:0:0:
320,160,224711,1,0,0:0:0:0:
320,160,224786,1,0,0:0:0:0:
320,160,224861,1,0,0:0:0:0:
256,192,224936,1,8,0:0:0:0:
320,160,225011,1,0,0:0:0:0:
320,160,225086,1,0,0:0:0:0:
320,160,225161,1,0,0:0:0:0:
320,160,225236,1,0,0:0:0:0:
320,160,225311,1,0,0:0:0:0:
320,160,225386,1,0,0:0:0:0:
320,160,225461,1,0,0:0:0:0:
256,192,225536,1,8,0:0:0:0:
320,160,225611,1,0,0:0:0:0:
320,160,225686,1,0,0:0:0:0:
320,160,225761,1,0,0:0:0:0:
320,160,225836,1,8,0:0:0:0:
320,160,225911,1,8,0:0:0:0:
320,160,225986,1,0,0:0:0:0:
320,160,226061,1,0,0:0:0:0:
256,192,226136,1,8,0:0:0:0:
320,192,226211,1,8,0:0:0:0:
320,192,226286,1,0,0:0:0:0:
320,192,226361,1,0,0:0:0:0:
320,160,226436,1,8,0:0:0:0:
320,160,226511,1,8,0:0:0:0:
320,160,226586,1,0,0:0:0:0:
320,160,226661,1,0,0:0:0:0:
256,192,226736,1,8,0:0:0:0:
320,160,226811,1,0,0:0:0:0:
320,160,226886,1,0,0:0:0:0:
320,160,226961,1,0,0:0:0:0:
256,192,227036,1,8,0:0:0:0:
192,160,227111,1,0,0:0:0:0:
288,288,227186,1,8,0:0:0:0:
288,288,227261,1,0,0:0:0:0:
288,288,227336,1,8,0:0:0:0:
288,288,227411,1,0,0:0:0:0:
288,288,227486,1,8,0:0:0:0:
288,288,227561,1,8,0:0:0:0:
288,288,227636,1,0,0:0:0:0:
288,288,227711,1,0,0:0:0:0:
288,288,227786,1,8,0:0:0:0:
288,288,227861,1,0,0:0:0:0:
288,288,227936,1,0,0:0:0:0:
288,288,228011,1,0,0:0:0:0:
288,288,228086,1,8,0:0:0:0:
288,288,228161,1,0,0:0:0:0:
288,288,228236,1,8,0:0:0:0:
288,288,228311,1,8,0:0:0:0:
288,288,228386,1,0,0:0:0:0:
288,288,228461,1,0,0:0:0:0:
288,288,228536,1,8,0:0:0:0:
288,288,228611,1,8,0:0:0:0:
288,288,228686,1,0,0:0:0:0:
288,288,228761,1,0,0:0:0:0:
288,288,228836,1,0,0:0:0:0:
288,288,228911,1,0,0:0:0:0:
288,288,228986,1,8,0:0:0:0:
288,288,229061,1,0,0:0:0:0:
288,288,229136,1,8,0:0:0:0:
288,288,229211,1,8,0:0:0:0:
288,288,229286,1,0,0:0:0:0:
288,288,229361,1,0,0:0:0:0:
288,288,229436,1,8,0:0:0:0:
288,288,229511,1,8,0:0:0:0:
288,288,229586,1,0,0:0:0:0:
288,288,229661,1,0,0:0:0:0:
288,288,229736,1,8,0:0:0:0:
288,288,229811,1,0,0:0:0:0:
288,288,229886,1,8,0:0:0:0:
288,288,229961,1,8,0:0:0:0:
288,288,230036,1,0,0:0:0:0:
288,288,230111,1,0,0:0:0:0:
288,288,230186,1,8,0:0:0:0:
288,288,230261,1,0,0:0:0:0:
288,288,230336,1,0,0:0:0:0:
288,288,230411,1,0,0:0:0:0:
288,288,230486,1,8,0:0:0:0:
288,288,230561,1,8,0:0:0:0:
288,288,230636,1,0,0:0:0:0:
288,288,230711,1,0,0:0:0:0:
288,288,230786,1,8,0:0:0:0:
288,288,230861,1,0,0:0:0:0:
288,288,230936,1,8,0:0:0:0:
288,288,231011,1,8,0:0:0:0:
288,288,231086,1,0,0:0:0:0:
288,288,231161,1,0,0:0:0:0:
288,288,231236,1,8,0:0:0:0:
352,288,231311,1,0,0:0:0:0:
352,288,231386,1,8,0:0:0:0:
352,288,231536,1,8,0:0:0:0:
352,288,231611,1,8,0:0:0:0:
384,352,231686,1,8,0:0:0:0:
352,224,231836,1,8,0:0:0:0:
160,160,231911,1,0,0:0:0:0:
160,160,231986,1,8,0:0:0:0:
160,160,232061,1,8,0:0:0:0:
160,160,232136,1,0,0:0:0:0:
160,160,232211,1,0,0:0:0:0:
160,160,232286,1,8,0:0:0:0:
160,160,232361,1,0,0:0:0:0:
160,160,232436,1,8,0:0:0:0:
160,160,232511,1,8,0:0:0:0:
160,160,232586,1,0,0:0:0:0:
160,160,232661,1,0,0:0:0:0:
160,160,232736,1,8,0:0:0:0:
160,160,232811,1,0,0:0:0:0:
160,160,232886,1,0,0:0:0:0:
160,160,232961,1,8,0:0:0:0:
160,160,233036,1,0,0:0:0:0:
96,160,233111,1,0,0:0:0:0:
96,160,233186,1,8,0:0:0:0:
96,160,233261,1,8,0:0:0:0:
96,160,233336,1,0,0:0:0:0:
96,160,233411,1,0,0:0:0:0:
96,160,233486,1,8,0:0:0:0:
96,160,233561,1,0,0:0:0:0:
96,160,233636,1,8,0:0:0:0:
96,160,233711,1,8,0:0:0:0:
96,160,233786,1,0,0:0:0:0:
96,160,233861,1,0,0:0:0:0:
96,160,233936,1,8,0:0:0:0:
96,160,234011,1,0,0:0:0:0:
96,160,234086,1,8,0:0:0:0:
96,160,234161,1,8,0:0:0:0:
96,160,234236,1,8,0:0:0:0:
96,160,234311,1,0,0:0:0:0:
96,160,234386,1,0,0:0:0:0:
96,160,234461,1,0,0:0:0:0:
96,160,234536,1,8,0:0:0:0:
96,160,234611,1,0,0:0:0:0:
96,160,234686,1,8,0:0:0:0:
96,160,234761,1,8,0:0:0:0:
96,160,234836,1,0,0:0:0:0:
96,160,234911,1,0,0:0:0:0:
96,160,234986,1,8,0:0:0:0:
96,160,235061,1,8,0:0:0:0:
96,160,235136,1,0,0:0:0:0:
96,160,235211,1,8,0:0:0:0:
96,160,235286,1,8,0:0:0:0:
96,160,235361,1,0,0:0:0:0:
96,160,235436,1,8,0:0:0:0:
96,160,235511,1,8,0:0:0:0:
96,160,235586,1,0,0:0:0:0:
96,160,235661,1,0,0:0:0:0:
96,160,235736,1,8,0:0:0:0:
96,160,235811,1,0,0:0:0:0:
96,160,235886,1,8,0:0:0:0:
96,160,235961,1,8,0:0:0:0:
96,160,236036,1,0,0:0:0:0:
160,192,236336,1,4,0:0:0:0:
192,192,236636,1,4,0:0:0:0:
256,224,236786,1,8,0:0:0:0:
256,224,236861,1,0,0:0:0:0:
256,224,236936,1,8,0:0:0:0:
256,224,237011,1,8,0:0:0:0:
256,224,237086,1,0,0:0:0:0:
256,224,237161,1,0,0:0:0:0:
256,224,237236,1,8,0:0:0:0:
256,224,237311,1,0,0:0:0:0:
256,224,237386,1,8,0:0:0:0:
256,224,237461,1,8,0:0:0:0:
256,224,237536,1,0,0:0:0:0:
256,224,237611,1,0,0:0:0:0:
256,224,237686,1,8,0:0:0:0:
256,224,237761,1,0,0:0:0:0:
256,224,237836,1,8,0:0:0:0:
256,224,237911,1,0,0:0:0:0:
256,224,237986,1,0,0:0:0:0:
256,224,238061,1,0,0:0:0:0:
256,224,238136,1,8,0:0:0:0:
256,224,238211,1,8,0:0:0:0:
256,224,238286,1,0,0:0:0:0:
256,224,238361,1,8,0:0:0:0:
256,224,238436,1,0,0:0:0:0:
256,224,238511,1,0,0:0:0:0:
256,224,238586,1,8,0:0:0:0:
256,224,238661,1,0,0:0:0:0:
256,224,238736,1,8,0:0:0:0:
256,224,238811,1,8,0:0:0:0:
256,224,238886,1,0,0:0:0:0:
256,224,238961,1,0,0:0:0:0:
256,224,239036,1,8,0:0:0:0:
320,256,239111,1,0,0:0:0:0:
320,256,239186,1,0,0:0:0:0:
320,256,239261,1,0,0:0:0:0:
320,224,239336,1,8,0:0:0:0:
320,224,239411,1,0,0:0:0:0:
320,224,239486,1,0,0:0:0:0:
320,224,239561,1,0,0:0:0:0:
320,224,239636,1,8,0:0:0:0:
320,224,239711,1,0,0:0:0:0:
320,224,239786,1,0,0:0:0:0:
320,224,239861,1,0,0:0:0:0:
320,224,239936,1,8,0:0:0:0:
384,288,240011,1,8,0:0:0:0:
384,288,240086,1,0,0:0:0:0:
384,288,240161,1,0,0:0:0:0:
384,288,240236,1,8,0:0:0:0:
384,288,240311,1,0,0:0:0:0:
384,288,240386,1,8,0:0:0:0:
384,288,240461,1,8,0:0:0:0:
384,288,240536,1,0,0:0:0:0:
384,288,240611,1,0,0:0:0:0:
384,288,240686,1,8,0:0:0:0:
384,288,240761,1,0,0:0:0:0:
384,288,240836,1,8,0:0:0:0:
384,288,240911,1,8,0:0:0:0:
384,288,240986,1,0,0:0:0:0:
384,288,241061,1,0,0:0:0:0:
384,288,241136,1,8,0:0:0:0:
384,288,241211,1,0,0:0:0:0:
384,288,241286,1,0,0:0:0:0:
384,288,241361,1,0,0:0:0:0:
384,288,241436,1,8,0:0:0:0:
384,288,241511,1,0,0:0:0:0:
384,288,241586,1,8,0:0:0:0:
384,288,241661,1,8,0:0:0:0:
384,288,241736,1,0,0:0:0:0:
384,288,241811,1,0,0:0:0:0:
384,288,241886,1,8,0:0:0:0:
384,288,241961,1,0,0:0:0:0:
384,288,242036,1,0,0:0:0:0:
384,288,242111,1,8,0:0:0:0:
384,288,242186,1,0,0:0:0:0:
384,288,242261,1,0,0:0:0:0:
384,288,242336,1,8,0:0:0:0:
384,288,242411,1,0,0:0:0:0:
384,288,242486,1,8,0:0:0:0:
384,288,242561,1,8,0:0:0:0:
384,288,242636,1,0,0:0:0:0:
384,288,242711,1,0,0:0:0:0:
384,288,242786,1,8,0:0:0:0:
384,288,242861,1,0,0:0:0:0:
384,288,242936,1,8,0:0:0:0:
384,288,243011,1,8,0:0:0:0:
384,288,243086,1,0,0:0:0:0:
384,288,243161,1,0,0:0:0:0:
384,288,243236,1,8,0:0:0:0:
384,288,243311,1,0,0:0:0:0:
384,288,243386,1,0,0:0:0:0:
384,288,243461,1,0,0:0:0:0:
384,288,243536,1,8,0:0:0:0:
384,288,243611,1,0,0:0:0:0:
384,288,243686,1,8,0:0:0:0:
384,288,243761,1,8,0:0:0:0:
384,288,243836,1,0,0:0:0:0:
384,288,243911,1,8,0:0:0:0:
384,288,243986,1,0,0:0:0:0:
384,288,244061,1,0,0:0:0:0:
384,288,244136,1,8,0:0:0:0:
384,288,244211,1,0,0:0:0:0:
384,288,244286,1,8,0:0:0:0:
384,288,244361,1,8,0:0:0:0:
384,288,244436,1,0,0:0:0:0:
384,288,244511,1,0,0:0:0:0:
384,288,244586,1,8,0:0:0:0:
384,288,244661,1,0,0:0:0:0:
384,288,244736,1,0,0:0:0:0:
384,288,244811,1,0,0:0:0:0:
384,288,244886,1,8,0:0:0:0:
384,288,244961,1,0,0:0:0:0:
384,288,245036,1,8,0:0:0:0:
384,288,245111,1,8,0:0:0:0:
384,288,245186,1,0,0:0:0:0:
384,288,245261,1,0,0:0:0:0:
384,288,245336,1,8,0:0:0:0:
384,288,245411,1,0,0:0:0:0:
384,288,245486,1,8,0:0:0:0:
384,288,245561,1,0,0:0:0:0:
384,288,245636,1,8,0:0:0:0:
384,288,245711,1,8,0:0:0:0:
384,288,245786,1,0,0:0:0:0:
384,288,245861,1,8,0:0:0:0:
384,288,245936,1,0,0:0:0:0:
384,288,246011,1,0,0:0:0:0:
384,288,246086,1,8,0:0:0:0:
384,288,246236,1,4,0:0:0:0:
288,192,246386,1,8,0:0:0:0:
288,192,246461,1,0,0:0:0:0:
288,192,246536,1,8,0:0:0:0:
288,192,246611,1,0,0:0:0:0:
320,288,246686,1,8,0:0:0:0:
320,288,246761,1,0,0:0:0:0:
320,288,246836,1,8,0:0:0:0:
320,288,246911,1,0,0:0:0:0:
320,288,246986,1,8,0:0:0:0:
320,288,247061,1,0,0:0:0:0:
320,288,247136,1,8,0:0:0:0:
320,288,247211,1,0,0:0:0:0:
320,288,247286,1,8,0:0:0:0:
320,288,247361,1,8,0:0:0:0:
320,288,247436,1,8,0:0:0:0:
320,288,247511,1,0,0:0:0:0:
320,288,247586,1,8,0:0:0:0:
320,288,247661,1,0,0:0:0:0:
320,288,247736,1,8,0:0:0:0:
320,288,247811,1,0,0:0:0:0:
320,288,247886,1,8,0:0:0:0:
320,288,247961,1,8,0:0:0:0:
320,288,248036,1,0,0:0:0:0:
256,224,248111,1,0,0:0:0:0:
256,224,248186,1,8,0:0:0:0:
256,224,248261,1,0,0:0:0:0:
256,224,248336,1,8,0:0:0:0:
256,224,248411,1,0,0:0:0:0:
256,224,248486,1,8,0:0:0:0:
256,224,248561,1,8,0:0:0:0:
288,160,248636,1,0,0:0:0:0:
288,160,248711,1,0,0:0:0:0:
288,160,248786,1,8,0:0:0:0:
288,160,248861,1,0,0:0:0:0:
288,160,248936,1,8,0:0:0:0:
288,160,249011,1,8,0:0:0:0:
288,160,249086,1,0,0:0:0:0:
288,160,249161,1,0,0:0:0:0:
288,160,249236,1,8,0:0:0:0:
416,384,249311,1,8,0:0:0:0:
416,384,249386,1,8,0:0:0:0:
416,384,249461,1,8,0:0:0:0:
416,384,249536,1,0,0:0:0:0:
416,384,249611,1,0,0:0:0:0:
416,384,249686,1,0,0:0:0:0:
416,384,249761,1,0,0:0:0:0:
416,384,249836,1,8,0:0:0:0:
416,384,249911,1,0,0:0:0:0:
96,192,249986,1,8,0:0:0:0:
96,192,250061,1,8,0:0:0:0:
96,192,250136,1,0,0:0:0:0:
96,192,250211,1,0,0:0:0:0:
96,192,250286,1,8,0:0:0:0:
96,192,250361,1,0,0:0:0:0:
96,192,250436,1,8,0:0:0:0:
96,192,250511,1,8,0:0:0:0:
96,192,250586,1,0,0:0:0:0:
96,192,250661,1,0,0:0:0:0:
96,192,250736,1,8,0:0:0:0:
96,192,250811,1,0,0:0:0:0:
96,192,250886,1,0,0:0:0:0:
96,192,250961,1,0,0:0:0:0:
96,192,251036,1,8,0:0:0:0:
224,160,251111,1,0,0:0:0:0:
224,160,251186,1,0,0:0:0:0:
224,160,251261,1,0,0:0:0:0:
224,160,251336,1,0,0:0:0:0:
224,160,251411,1,0,0:0:0:0:
224,160,251486,1,0,0:0:0:0:
224,160,251561,1,0,0:0:0:0:
224,160,251636,1,0,0:0:0:0:
224,160,251711,1,0,0:0:0:0:
224,160,251786,1,0,0:0:0:0:
224,160,251861,1,0,0:0:0:0:
320,288,251936,1,8,0:0:0:0:
224,160,252011,1,0,0:0:0:0:
224,160,252086,1,0,0:0:0:0:
224,160,252161,1,0,0:0:0:0:
256,160,252236,1,8,0:0:0:0:
224,160,252311,1,0,0:0:0:0:
224,160,252386,1,0,0:0:0:0:
224,160,252461,1,0,0:0:0:0:
224,160,252536,1,0,0:0:0:0:
224,160,252611,1,0,0:0:0:0:
256,160,252686,1,8,0:0:0:0:
224,160,252761,1,0,0:0:0:0:
224,160,252836,1,0,0:0:0:0:
224,160,252911,1,0,0:0:0:0:
224,160,252986,1,0,0:0:0:0:
224,160,253061,1,0,0:0:0:0:
256,160,253136,1,8,0:0:0:0:
224,160,253211,1,0,0:0:0:0:
224,160,253286,1,0,0:0:0:0:
224,160,253361,1,0,0:0:0:0:
256,160,253436,1,8,0:0:0:0:
224,160,253511,1,0,0:0:0:0:
224,160,253586,1,0,0:0:0:0:
224,160,253661,1,0,0:0:0:0:
224,160,253736,1,0,0:0:0:0:
224,160,253811,1,0,0:0:0:0:
224,160,253886,1,8,0:0:0:0:
224,160,253961,1,0,0:0:0:0:
224,160,254036,1,0,0:0:0:0:
224,160,254111,1,0,0:0:0:0:
224,160,254186,1,0,0:0:0:0:
224,160,254261,1,0,0:0:0:0:
256,160,254336,1,8,0:0:0:0:
224,160,254411,1,0,0:0:0:0:
224,160,254486,1,0,0:0:0:0:
224,160,254561,1,0,0:0:0:0:
224,160,254636,1,8,0:0:0:0:
224,160,254711,1,0,0:0:0:0:
224,160,254786,1,0,0:0:0:0:
224,160,254861,1,0,0:0:0:0:
224,160,254936,1,0,0:0:0:0:
224,160,255011,1,0,0:0:0:0:
224,160,255086,1,0,0:0:0:0:
224,160,255161,1,0,0:0:0:0:
256,160,255236,1,8,0:0:0:0:
224,160,255311,1,0,0:0:0:0:
192,160,255386,1,0,0:0:0:0:
192,160,255461,1,0,0:0:0:0:
256,160,255536,1,8,0:0:0:0:
192,160,255611,1,0,0:0:0:0:
192,160,255686,1,0,0:0:0:0:
192,160,255761,1,0,0:0:0:0:
256,160,255836,1,8,0:0:0:0:
256,160,255911,1,0,0:0:0:0:
256,192,255986,1,8,0:0:0:0:
224,224,256061,1,0,0:0:0:0:
256,256,256136,1,8,0:0:0:0:
256,256,256211,1,0,0:0:0:0:
256,256,256286,1,8,0:0:0:0:
256,256,256361,1,0,0:0:0:0:
256,256,256436,1,8,0:0:0:0:
256,256,256511,1,0,0:0:0:0:
256,256,256586,1,8,0:0:0:0:
256,256,256661,1,0,0:0:0:0:
256,256,256736,1,8,0:0:0:0:
256,256,256811,1,8,0:0:0:0:
256,256,256886,1,8,0:0:0:0:
256,256,256961,1,0,0:0:0:0:
256,256,257036,1,8,0:0:0:0:
192,192,257111,1,0,0:0:0:0:
192,192,257186,1,8,0:0:0:0:
192,192,257261,1,0,0:0:0:0:
192,192,257336,1,8,0:0:0:0:
192,192,257411,1,8,0:0:0:0:
192,192,257486,1,0,0:0:0:0:
192,192,257561,1,0,0:0:0:0:
192,192,257636,1,8,0:0:0:0:
192,192,257711,1,0,0:0:0:0:
192,192,257786,1,8,0:0:0:0:
192,192,257861,1,8,0:0:0:0:
192,192,257936,1,0,0:0:0:0:
192,192,258011,1,0,0:0:0:0:
192,192,258086,1,8,0:0:0:0:
192,192,258161,1,0,0:0:0:0:
192,192,258236,1,8,0:0:0:0:
192,192,258311,1,8,0:0:0:0:
192,192,258386,1,0,0:0:0:0:
192,192,258461,1,0,0:0:0:0:
192,192,258536,1,8,0:0:0:0:
384,288,258611,1,8,0:0:0:0:
384,288,258686,1,0,0:0:0:0:
384,288,258761,1,8,0:0:0:0:
384,288,258836,1,0,0:0:0:0:
384,288,258911,1,0,0:0:0:0:
384,288,258986,1,8,0:0:0:0:
384,288,259061,1,0,0:0:0:0:
384,288,259136,1,8,0:0:0:0:
384,288,259211,1,8,0:0:0:0:
384,288,259286,1,0,0:0:0:0:
384,288,259361,1,0,0:0:0:0:
384,288,259436,1,8,0:0:0:0:
320,192,259536,1,0,0:0:0:0:
320,192,259636,1,0,0:0:0:0:
320,192,259736,1,8,0:0:0:0:
320,192,259836,1,0,0:0:0:0:
320,192,259936,1,0,0:0:0:0:
384,288,260036,1,8,0:0:0:0:
384,288,260111,1,8,0:0:0:0:
384,288,260186,1,0,0:0:0:0:
384,288,260261,1,0,0:0:0:0:
384,288,260336,1,8,0:0:0:0:
384,288,260411,1,8,0:0:0:0:
384,288,260486,1,0,0:0:0:0:
384,288,260561,1,0,0:0:0:0:
384,288,260636,1,12,0:0:0:0:
224,224,261086,1,0,0:0:0:0:
224,224,261236,1,8,0:0:0:0:
256,224,261836,1,8,0:0:0:0:
256,224,262286,1,0,0:0:0:0:
256,224,262436,1,8,0:0:0:0:
256,224,262586,1,0,0:0:0:0:
256,224,262736,1,0,0:0:0:0:
256,224,262886,1,0,0:0:0:0:
256,224,263036,1,12,0:0:0:0:
256,224,263486,1,8,0:0:0:0:
256,224,263636,1,0,0:0:0:0:
224,192,264236,1,8,0:0:0:0:
256,224,264836,1,8,0:0:0:0:
256,224,264986,1,8,0:0:0:0:
256,224,265136,1,8,0:0:0:0:
256,224,265286,1,8,0:0:0:0:
256,224,265436,1,4,0:0:0:0:
224,224,265886,1,0,0:0:0:0:
256,320,266336,1,0,0:0:0:0:
256,320,266636,1,12,0:0:0:0:
160,128,266936,1,0,0:0:0:0:
160,128,267236,1,0,0:0:0:0:
320,224,267536,1,0,0:0:0:0:
320,224,267836,1,0,0:0:0:0:
64,192,268286,1,0,0:0:0:0:
96,192,268361,1,0,0:0:0:0:
96,192,268436,1,8,0:0:0:0:
96,224,268736,1,8,0:0:0:0:
416,320,268886,1,0,0:0:0:0:
416,320,269036,1,0,0:0:0:0:
416,320,269186,1,0,0:0:0:0:
416,320,269261,1,0,0:0:0:0:
416,320,269336,1,8,0:0:0:0:
416,320,269486,1,8,0:0:0:0:
416,320,269561,1,0,0:0:0:0:
416,320,269636,1,0,0:0:0:0:
416,320,269786,1,0,0:0:0:0:
416,320,269861,1,0,0:0:0:0:
416,320,269936,1,8,0:0:0:0:
416,320,270011,1,0,0:0:0:0:
416,320,270086,1,0,0:0:0:0:
416,320,270161,1,0,0:0:0:0:
416,320,270236,1,8,0:0:0:0:
416,320,270386,1,8,0:0:0:0:
416,320,270536,1,0,0:0:0:0:
416,320,270611,1,0,0:0:0:0:
416,320,270686,1,8,0:0:0:0:
416,320,270836,1,8,0:0:0:0:
416,320,270986,1,0,0:0:0:0:
416,320,271136,1,0,0:0:0:0:
416,320,271286,1,8,0:0:0:0:
416,320,271436,1,0,0:0:0:0:
416,320,271511,1,0,0:0:0:0:
416,320,271586,1,8,0:0:0:0:
416,320,271661,1,8,0:0:0:0:
416,320,271736,1,0,0:0:0:0:
416,320,271886,1,0,0:0:0:0:
416,320,272036,1,8,0:0:0:0:
416,320,272111,1,8,0:0:0:0:
416,320,272186,1,0,0:0:0:0:
416,320,272261,1,0,0:0:0:0:
416,320,272336,1,8,0:0:0:0:
416,320,272486,1,8,0:0:0:0:
416,320,272636,1,0,0:0:0:0:
416,320,272786,1,8,0:0:0:0:
416,320,272936,1,0,0:0:0:0:
416,320,273011,1,0,0:0:0:0:
416,320,273086,1,8,0:0:0:0:
416,320,273161,1,8,0:0:0:0:
416,320,273236,1,0,0:0:0:0:
416,320,273386,1,0,0:0:0:0:
416,320,273536,1,8,0:0:0:0:
416,320,273611,1,0,0:0:0:0:
416,320,273686,1,8,0:0:0:0:
416,320,273761,1,8,0:0:0:0:
416,320,273836,1,0,0:0:0:0:
416,320,273986,1,0,0:0:0:0:
416,320,274136,1,8,0:0:0:0:
416,320,274211,1,8,0:0:0:0:
416,320,274286,1,0,0:0:0:0:
416,320,274436,1,0,0:0:0:0:
256,256,274511,1,0,0:0:0:0:
256,256,274586,1,8,0:0:0:0:
416,320,274736,1,8,0:0:0:0:
416,320,274811,1,0,0:0:0:0:
416,320,274886,1,0,0:0:0:0:
416,320,274961,1,0,0:0:0:0:
416,320,275036,1,8,0:0:0:0:
416,288,275186,1,0,0:0:0:0:
416,288,275261,1,0,0:0:0:0:
416,288,275336,1,0,0:0:0:0:
416,288,275486,1,0,0:0:0:0:
416,288,275561,1,0,0:0:0:0:
416,288,275636,1,8,0:0:0:0:
416,288,275786,1,0,0:0:0:0:
416,288,275861,1,0,0:0:0:0:
416,288,275936,1,0,0:0:0:0:
416,288,276086,1,0,0:0:0:0:
384,288,276161,1,0,0:0:0:0:
384,288,276236,1,8,0:0:0:0:
384,288,276386,1,0,0:0:0:0:
384,288,276461,1,0,0:0:0:0:
384,288,276536,1,0,0:0:0:0:
384,288,276686,1,0,0:0:0:0:
384,288,276761,1,0,0:0:0:0:
384,288,276836,1,8,0:0:0:0:
384,288,276911,1,0,0:0:0:0:
384,288,276986,1,8,0:0:0:0:
384,288,277061,1,8,0:0:0:0:
384,288,277136,1,0,0:0:0:0:
384,288,277211,1,8,0:0:0:0:
384,288,277286,1,0,0:0:0:0:
384,288,277361,1,0,0:0:0:0:
384,288,277436,1,8,0:0:0:0:
256,192,277886,1,8,0:0:0:0:
256,192,278036,1,0,0:0:0:0:
384,320,278336,1,0,0:0:0:0:
384,320,278486,1,8,0:0:0:0:
160,192,278636,1,8,0:0:0:0:
160,192,278711,1,8,0:0:0:0:
128,224,278786,1,0,0:0:0:0:
128,224,279086,1,0,0:0:0:0:
128,224,279161,1,0,0:0:0:0:
128,224,279236,1,0,0:0:0:0:
128,224,279311,1,0,0:0:0:0:
128,224,279386,1,8,0:0:0:0:
128,224,279461,1,8,0:0:0:0:
128,224,279536,1,8,0:0:0:0:
128,224,279611,1,8,0:0:0:0:
128,224,279686,1,0,0:0:0:0:
128,224,279761,1,0,0:0:0:0:
128,224,279836,1,8,0:0:0:0:
384,256,279986,1,8,0:0:0:0:
384,256,280136,1,0,0:0:0:0:
384,256,280211,1,0,0:0:0:0:
384,256,280286,1,8,0:0:0:0:
384,256,280436,1,8,0:0:0:0:
384,256,280511,1,0,0:0:0:0:
384,256,280586,1,8,0:0:0:0:
384,256,280661,1,0,0:0:0:0:
384,256,280736,1,8,0:0:0:0:
384,256,280811,1,0,0:0:0:0:
384,256,280886,1,8,0:0:0:0:
320,256,281036,1,4,0:0:0:0:
320,256,281261,1,4,0:0:0:0:
320,256,281486,1,4,0:0:0:0:
320,256,281636,1,4,0:0:0:0:
192,256,282236,1,12,0:0:0:0:
224,256,282386,1,8,0:0:0:0:
224,256,282461,1,0,0:0:0:0:
224,256,282536,1,8,0:0:0:0:
224,256,282611,1,8,0:0:0:0:
224,256,282686,1,0,0:0:0:0:
224,256,282761,1,0,0:0:0:0:
224,256,282836,1,8,0:0:0:0:
224,256,282911,1,0,0:0:0:0:
224,256,282986,1,0,0:0:0:0:
224,256,283061,1,0,0:0:0:0:
224,256,283136,1,8,0:0:0:0:
320,288,283211,1,0,0:0:0:0:
320,288,283286,1,0,0:0:0:0:
320,288,283361,1,0,0:0:0:0:
320,288,283436,1,8,0:0:0:0:
320,288,283511,1,0,0:0:0:0:
320,288,283586,1,8,0:0:0:0:
320,288,283661,1,8,0:0:0:0:
320,288,283736,1,0,0:0:0:0:
320,288,283811,1,0,0:0:0:0:
320,288,283886,1,8,0:0:0:0:
320,288,283961,1,0,0:0:0:0:
320,288,284036,1,8,0:0:0:0:
320,288,284111,1,8,0:0:0:0:
320,288,284186,1,0,0:0:0:0:
320,288,284261,1,0,0:0:0:0:
320,288,284336,1,8,0:0:0:0:
320,288,284411,1,0,0:0:0:0:
320,288,284486,1,0,0:0:0:0:
320,288,284561,1,0,0:0:0:0:
320,288,284636,1,8,0:0:0:0:
320,288,284711,1,8,0:0:0:0:
320,288,284786,1,0,0:0:0:0:
320,288,284861,1,0,0:0:0:0:
320,288,284936,1,8,0:0:0:0:
320,288,285011,1,8,0:0:0:0:
320,288,285086,1,0,0:0:0:0:
320,288,285161,1,8,0:0:0:0:
320,288,285236,1,0,0:0:0:0:
320,288,285311,1,0,0:0:0:0:
320,288,285386,1,8,0:0:0:0:
320,288,285461,1,0,0:0:0:0:
320,288,285536,1,8,0:0:0:0:
320,288,285611,1,8,0:0:0:0:
320,288,285686,1,0,0:0:0:0:
320,288,285761,1,0,0:0:0:0:
320,288,285836,1,8,0:0:0:0:
320,288,285911,1,0,0:0:0:0:
320,288,285986,1,0,0:0:0:0:
320,288,286061,1,0,0:0:0:0:
320,288,286136,1,8,0:0:0:0:
320,288,286211,1,8,0:0:0:0:
320,288,286286,1,0,0:0:0:0:
320,288,286361,1,0,0:0:0:0:
320,288,286436,1,8,0:0:0:0:
320,288,286511,1,0,0:0:0:0:
320,288,286586,1,8,0:0:0:0:
320,288,286661,1,8,0:0:0:0:
320,288,286736,1,0,0:0:0:0:
320,288,286811,1,0,0:0:0:0:
320,288,286886,1,0,0:0:0:0:
320,288,286961,1,0,0:0:0:0:
320,288,287036,1,8,0:0:0:0:
320,288,287111,1,0,0:0:0:0:
320,288,287186,1,8,0:0:0:0:
320,288,287261,1,8,0:0:0:0:
320,288,287336,1,0,0:0:0:0:
320,288,287411,1,0,0:0:0:0:
320,288,287486,1,8,0:0:0:0:
320,288,287561,1,0,0:0:0:0:
320,288,287636,1,8,0:0:0:0:
320,288,287711,1,8,0:0:0:0:
320,288,287786,1,0,0:0:0:0:
320,288,287861,1,0,0:0:0:0:
320,288,287936,1,8,0:0:0:0:
320,288,288011,1,8,0:0:0:0:
320,288,288086,1,8,0:0:0:0:
320,288,288161,1,8,0:0:0:0:
320,288,288236,1,0,0:0:0:0:
320,288,288311,1,0,0:0:0:0:
320,288,288386,1,8,0:0:0:0:
320,288,288461,1,0,0:0:0:0:
320,288,288536,1,8,0:0:0:0:
320,288,288611,1,8,0:0:0:0:
320,288,288686,1,0,0:0:0:0:
320,288,288761,1,8,0:0:0:0:
320,288,288836,1,0,0:0:0:0:
320,288,288911,1,0,0:0:0:0:
320,288,288986,1,8,0:0:0:0:
320,288,289061,1,0,0:0:0:0:
320,288,289136,1,8,0:0:0:0:
320,288,289211,1,8,0:0:0:0:
320,288,289286,1,0,0:0:0:0:
320,288,289361,1,0,0:0:0:0:
320,288,289436,1,8,0:0:0:0:
320,288,289511,1,8,0:0:0:0:
320,288,289586,1,8,0:0:0:0:
320,288,289661,1,8,0:0:0:0:
320,288,289736,1,0,0:0:0:0:
320,288,289811,1,0,0:0:0:0:
320,288,289886,1,8,0:0:0:0:
320,288,289961,1,8,0:0:0:0:
320,288,290036,1,0,0:0:0:0:
320,288,290111,1,0,0:0:0:0:
320,288,290186,1,8,0:0:0:0:
320,288,290261,1,0,0:0:0:0:
320,288,290336,1,8,0:0:0:0:
320,288,290411,1,8,0:0:0:0:
320,288,290486,1,0,0:0:0:0:
320,288,290561,1,0,0:0:0:0:
320,288,290636,1,8,0:0:0:0:
160,192,290736,1,0,0:0:0:0:
160,192,290836,1,0,0:0:0:0:
160,192,290936,1,8,0:0:0:0:
160,192,291036,1,0,0:0:0:0:
160,192,291136,1,0,0:0:0:0:
160,192,291236,1,8,0:0:0:0:
160,192,291336,1,0,0:0:0:0:
160,192,291436,1,0,0:0:0:0:
160,192,291536,1,8,0:0:0:0:
160,192,291636,1,0,0:0:0:0:
160,192,291736,1,0,0:0:0:0:
320,192,291836,1,8,0:0:0:0:
320,192,291911,1,0,0:0:0:0:
320,192,291986,1,8,0:0:0:0:
320,192,292061,1,8,0:0:0:0:
320,192,292136,1,0,0:0:0:0:
320,192,292211,1,0,0:0:0:0:
320,192,292286,1,8,0:0:0:0:
320,192,292361,1,0,0:0:0:0:
320,192,292436,1,8,0:0:0:0:
320,192,292511,1,8,0:0:0:0:
320,192,292586,1,0,0:0:0:0:
320,192,292661,1,0,0:0:0:0:
320,192,292736,1,8,0:0:0:0:
320,192,292811,1,0,0:0:0:0:
320,192,292886,1,0,0:0:0:0:
320,192,292961,1,0,0:0:0:0:
320,192,293036,1,8,0:0:0:0:
416,320,293111,1,8,0:0:0:0:
416,288,293186,1,8,0:0:0:0:
416,288,293261,1,8,0:0:0:0:
416,288,293336,1,0,0:0:0:0:
352,256,293411,1,0,0:0:0:0:
352,256,293486,1,8,0:0:0:0:
352,256,293561,1,0,0:0:0:0:
352,256,293636,1,8,0:0:0:0:
352,256,293711,1,8,0:0:0:0:
352,256,293786,1,0,0:0:0:0:
352,256,293861,1,0,0:0:0:0:
352,256,293936,1,8,0:0:0:0:
352,256,294011,1,0,0:0:0:0:
352,256,294086,1,0,0:0:0:0:
352,256,294161,1,0,0:0:0:0:
352,256,294236,1,8,0:0:0:0:
352,256,294311,1,0,0:0:0:0:
352,256,294386,1,8,0:0:0:0:
352,256,294461,1,8,0:0:0:0:
352,256,294536,1,0,0:0:0:0:
352,256,294611,1,0,0:0:0:0:
352,256,294686,1,8,0:0:0:0:
352,256,294761,1,0,0:0:0:0:
352,256,294836,1,8,0:0:0:0:
352,320,294911,1,8,0:0:0:0:
352,320,294986,1,8,0:0:0:0:
352,320,295061,1,8,0:0:0:0:
384,288,295136,1,0,0:0:0:0:
384,288,295211,1,0,0:0:0:0:
384,288,295286,1,8,0:0:0:0:
384,288,295361,1,8,0:0:0:0:
384,288,295436,1,0,0:0:0:0:
384,288,295511,1,0,0:0:0:0:
384,288,295586,1,8,0:0:0:0:
384,288,295661,1,8,0:0:0:0:
384,288,295736,1,0,0:0:0:0:
352,320,295811,1,0,0:0:0:0:
352,320,295886,1,8,0:0:0:0:
352,320,295961,1,8,0:0:0:0:
352,320,296036,1,0,0:0:0:0:
352,320,296111,1,0,0:0:0:0:
352,320,296186,1,8,0:0:0:0:
352,320,296261,1,8,0:0:0:0:
352,320,296336,1,0,0:0:0:0:
224,192,296411,1,0,0:0:0:0:
224,192,296486,1,8,0:0:0:0:
224,192,296561,1,0,0:0:0:0:
384,288,296636,1,8,0:0:0:0:
192,192,296711,1,8,0:0:0:0:
256,192,296786,1,0,0:0:0:0:
256,192,296861,1,0,0:0:0:0:
256,192,296936,1,0,0:0:0:0:
256,192,297011,1,0,0:0:0:0:
384,288,297086,1,8,0:0:0:0:
256,192,297161,1,0,0:0:0:0:
256,192,297236,1,0,0:0:0:0:
256,192,297311,1,0,0:0:0:0:
256,192,297386,1,0,0:0:0:0:
256,192,297461,1,0,0:0:0:0:
256,192,297536,1,8,0:0:0:0:
256,192,297611,1,0,0:0:0:0:
256,192,297686,1,8,0:0:0:0:
384,288,297836,1,12,0:0:0:0:
192,224,297986,1,0,0:0:0:0:
192,224,298061,1,0,0:0:0:0:
192,224,298136,1,0,0:0:0:0:
192,224,298286,1,8,0:0:0:0:
288,288,298436,1,8,0:0:0:0:
288,288,298511,1,8,0:0:0:0:
384,288,298586,1,0,0:0:0:0:
288,320,298661,1,0,0:0:0:0:
128,160,298736,1,8,0:0:0:0:
384,288,298886,1,8,0:0:0:0:
320,320,298961,1,0,0:0:0:0:
288,288,299036,1,8,0:0:0:0:
288,288,299111,1,8,0:0:0:0:
288,288,299186,1,0,0:0:0:0:
512,320,299261,1,0,0:0:0:0:
192,160,299336,1,8,0:0:0:0:
320,288,299411,1,8,0:0:0:0:
96,224,299486,1,0,0:0:0:0:
96,224,299561,1,8,0:0:0:0:
96,224,299636,1,0,0:0:0:0:
96,224,299711,1,0,0:0:0:0:
96,224,299786,1,8,0:0:0:0:
96,224,299861,1,0,0:0:0:0:
96,224,299936,1,8,0:0:0:0:
96,224,300011,1,8,0:0:0:0:
96,224,300086,1,0,0:0:0:0:
96,224,300161,1,0,0:0:0:0:
96,224,300236,1,8,0:0:0:0:
224,320,300311,1,8,0:0:0:0:
224,320,300386,1,0,0:0:0:0:
224,320,300461,1,8,0:0:0:0:
224,320,300536,1,0,0:0:0:0:
224,320,300611,1,0,0:0:0:0:
224,320,300686,1,8,0:0:0:0:
224,320,300836,1,8,0:0:0:0:
224,320,300936,1,0,0:0:0:0:
160,192,301036,1,0,0:0:0:0:
224,320,301136,1,8,0:0:0:0:
256,352,301236,1,0,0:0:0:0:
96,192,301336,1,0,0:0:0:0:
192,256,301436,1,12,0:0:0:0:
224,256,301586,1,8,0:0:0:0:
224,256,301661,1,0,0:0:0:0:
224,256,301736,1,8,0:0:0:0:
224,256,301811,1,8,0:0:0:0:
224,256,301886,1,0,0:0:0:0:
224,256,301961,1,0,0:0:0:0:
224,256,302036,1,8,0:0:0:0:
224,256,302111,1,0,0:0:0:0:
224,256,302186,1,0,0:0:0:0:
224,256,302261,1,0,0:0:0:0:
224,256,302336,1,8,0:0:0:0:
320,288,302411,1,0,0:0:0:0:
320,288,302486,1,0,0:0:0:0:
320,288,302561,1,0,0:0:0:0:
320,288,302636,1,8,0:0:0:0:
320,288,302711,1,0,0:0:0:0:
320,288,302786,1,8,0:0:0:0:
320,288,302861,1,8,0:0:0:0:
320,288,302936,1,0,0:0:0:0:
320,288,303011,1,0,0:0:0:0:
320,288,303086,1,8,0:0:0:0:
320,288,303161,1,0,0:0:0:0:
320,288,303236,1,8,0:0:0:0:
320,288,303311,1,8,0:0:0:0:
320,288,303386,1,0,0:0:0:0:
320,288,303461,1,0,0:0:0:0:
320,288,303536,1,8,0:0:0:0:
320,288,303611,1,0,0:0:0:0:
320,288,303686,1,0,0:0:0:0:
320,288,303761,1,0,0:0:0:0:
320,288,303836,1,8,0:0:0:0:
320,288,303911,1,8,0:0:0:0:
320,288,303986,1,0,0:0:0:0:
320,288,304061,1,0,0:0:0:0:
320,288,304136,1,8,0:0:0:0:
320,288,304211,1,8,0:0:0:0:
320,288,304286,1,0,0:0:0:0:
320,288,304361,1,8,0:0:0:0:
320,288,304436,1,0,0:0:0:0:
320,288,304511,1,0,0:0:0:0:
320,288,304586,1,8,0:0:0:0:
320,288,304661,1,0,0:0:0:0:
320,288,304736,1,8,0:0:0:0:
320,288,304811,1,8,0:0:0:0:
320,288,304886,1,0,0:0:0:0:
320,288,304961,1,0,0:0:0:0:
320,288,305036,1,8,0:0:0:0:
320,288,305111,1,0,0:0:0:0:
320,288,305186,1,0,0:0:0:0:
320,288,305261,1,0,0:0:0:0:
320,288,305336,1,8,0:0:0:0:
320,288,305411,1,8,0:0:0:0:
320,288,305486,1,0,0:0:0:0:
320,288,305561,1,0,0:0:0:0:
320,288,305636,1,8,0:0:0:0:
320,288,305711,1,0,0:0:0:0:
320,288,305786,1,8,0:0:0:0:
320,288,305861,1,8,0:0:0:0:
320,288,305936,1,0,0:0:0:0:
320,288,306011,1,0,0:0:0:0:
320,288,306086,1,0,0:0:0:0:
320,288,306161,1,0,0:0:0:0:
320,288,306236,1,8,0:0:0:0:
320,288,306311,1,0,0:0:0:0:
320,288,306386,1,8,0:0:0:0:
320,288,306461,1,8,0:0:0:0:
320,288,306536,1,0,0:0:0:0:
320,288,306611,1,0,0:0:0:0:
320,288,306686,1,8,0:0:0:0:
320,288,306761,1,0,0:0:0:0:
320,288,306836,1,8,0:0:0:0:
320,288,306911,1,8,0:0:0:0:
320,288,306986,1,0,0:0:0:0:
320,288,307061,1,0,0:0:0:0:
320,288,307136,1,8,0:0:0:0:
320,288,307211,1,8,0:0:0:0:
320,288,307286,1,8,0:0:0:0:
320,288,307361,1,8,0:0:0:0:
320,288,307436,1,0,0:0:0:0:
320,288,307511,1,0,0:0:0:0:
320,288,307586,1,8,0:0:0:0:
320,288,307661,1,0,0:0:0:0:
320,288,307736,1,8,0:0:0:0:
320,288,307811,1,8,0:0:0:0:
320,288,307886,1,0,0:0:0:0:
320,288,307961,1,8,0:0:0:0:
320,288,308036,1,0,0:0:0:0:
320,288,308111,1,0,0:0:0:0:
320,288,308186,1,8,0:0:0:0:
320,288,308261,1,0,0:0:0:0:
320,288,308336,1,8,0:0:0:0:
320,288,308411,1,8,0:0:0:0:
320,288,308486,1,0,0:0:0:0:
320,288,308561,1,0,0:0:0:0:
320,288,308636,1,8,0:0:0:0:
320,288,308711,1,8,0:0:0:0:
320,288,308786,1,8,0:0:0:0:
320,288,308861,1,8,0:0:0:0:
320,288,308936,1,0,0:0:0:0:
320,288,309011,1,0,0:0:0:0:
320,288,309086,1,8,0:0:0:0:
320,288,309161,1,8,0:0:0:0:
320,288,309236,1,0,0:0:0:0:
320,288,309311,1,0,0:0:0:0:
320,288,309386,1,8,0:0:0:0:
320,288,309461,1,0,0:0:0:0:
320,288,309536,1,8,0:0:0:0:
320,288,309611,1,8,0:0:0:0:
320,288,309686,1,0,0:0:0:0:
320,288,309761,1,0,0:0:0:0:
320,288,309836,1,8,0:0:0:0:
160,192,309936,1,0,0:0:0:0:
160,192,310036,1,0,0:0:0:0:
160,192,310136,1,8,0:0:0:0:
160,192,310236,1,0,0:0:0:0:
160,192,310336,1,0,0:0:0:0:
160,192,310436,1,8,0:0:0:0:
160,192,310536,1,0,0:0:0:0:
160,192,310636,1,0,0:0:0:0:
160,192,310736,1,8,0:0:0:0:
160,192,310836,1,0,0:0:0:0:
160,192,310936,1,0,0:0:0:0:
320,192,311036,1,8,0:0:0:0:
320,192,311111,1,0,0:0:0:0:
320,192,311186,1,8,0:0:0:0:
320,192,311261,1,8,0:0:0:0:
320,192,311336,1,0,0:0:0:0:
320,192,311411,1,0,0:0:0:0:
320,192,311486,1,8,0:0:0:0:
320,192,311561,1,0,0:0:0:0:
320,192,311636,1,8,0:0:0:0:
320,192,311711,1,8,0:0:0:0:
320,192,311786,1,0,0:0:0:0:
320,192,311861,1,0,0:0:0:0:
320,192,311936,1,8,0:0:0:0:
320,192,312011,1,0,0:0:0:0:
320,192,312086,1,0,0:0:0:0:
320,192,312161,1,0,0:0:0:0:
320,192,312236,1,8,0:0:0:0:
416,320,312311,1,8,0:0:0:0:
416,288,312386,1,8,0:0:0:0:
416,288,312461,1,8,0:0:0:0:
416,288,312536,1,0,0:0:0:0:
352,256,312611,1,0,0:0:0:0:
352,256,312686,1,8,0:0:0:0:
352,256,312761,1,0,0:0:0:0:
352,256,312836,1,8,0:0:0:0:
352,256,312911,1,8,0:0:0:0:
352,256,312986,1,0,0:0:0:0:
352,256,313061,1,0,0:0:0:0:
352,256,313136,1,8,0:0:0:0:
352,256,313211,1,0,0:0:0:0:
352,256,313286,1,0,0:0:0:0:
352,256,313361,1,0,0:0:0:0:
352,256,313436,1,8,0:0:0:0:
352,256,313511,1,0,0:0:0:0:
352,256,313586,1,8,0:0:0:0:
352,256,313661,1,8,0:0:0:0:
352,256,313736,1,0,0:0:0:0:
352,256,313811,1,0,0:0:0:0:
352,256,313886,1,8,0:0:0:0:
352,256,313961,1,0,0:0:0:0:
352,256,314036,1,8,0:0:0:0:
352,320,314111,1,8,0:0:0:0:
352,320,314186,1,8,0:0:0:0:
352,320,314261,1,8,0:0:0:0:
384,288,314336,1,0,0:0:0:0:
384,288,314411,1,0,0:0:0:0:
384,288,314486,1,8,0:0:0:0:
384,288,314561,1,8,0:0:0:0:
384,288,314636,1,0,0:0:0:0:
384,288,314711,1,0,0:0:0:0:
384,288,314786,1,8,0:0:0:0:
384,288,314861,1,8,0:0:0:0:
384,288,314936,1,0,0:0:0:0:
352,320,315011,1,0,0:0:0:0:
352,320,315086,1,8,0:0:0:0:
352,320,315161,1,8,0:0:0:0:
352,320,315236,1,0,0:0:0:0:
352,320,315311,1,0,0:0:0:0:
352,320,315386,1,8,0:0:0:0:
352,320,315461,1,8,0:0:0:0:
352,320,315536,1,0,0:0:0:0:
224,192,315611,1,0,0:0:0:0:
224,192,315686,1,8,0:0:0:0:
224,192,315761,1,0,0:0:0:0:
384,288,315836,1,8,0:0:0:0:
192,192,315911,1,8,0:0:0:0:
256,192,315986,1,0,0:0:0:0:
256,192,316061,1,0,0:0:0:0:
256,192,316136,1,0,0:0:0:0:
256,192,316211,1,0,0:0:0:0:
384,288,316286,1,8,0:0:0:0:
256,192,316361,1,0,0:0:0:0:
256,192,316436,1,0,0:0:0:0:
256,192,316511,1,0,0:0:0:0:
256,192,316586,1,0,0:0:0:0:
256,192,316661,1,0,0:0:0:0:
256,192,316736,1,8,0:0:0:0:
256,192,316811,1,0,0:0:0:0:
256,192,316886,1,8,0:0:0:0:
384,288,317036,1,12,0:0:0:0:
160,224,317186,1,0,0:0:0:0:
160,224,317261,1,0,0:0:0:0:
160,224,317336,1,8,0:0:0:0:
160,224,317411,1,0,0:0:0:0:
160,224,317486,1,8,0:0:0:0:
160,224,317561,1,8,0:0:0:0:
160,224,317636,1,0,0:0:0:0:
160,224,317711,1,0,0:0:0:0:
160,224,317786,1,8,0:0:0:0:
160,224,317861,1,8,0:0:0:0:
160,224,317936,1,0,0:0:0:0:
160,224,318011,1,8,0:0:0:0:
160,224,318086,1,0,0:0:0:0:
160,224,318161,1,0,0:0:0:0:
160,224,318236,1,8,0:0:0:0:
160,224,318311,1,0,0:0:0:0:
160,224,318386,1,0,0:0:0:0:
160,224,318461,1,0,0:0:0:0:
160,224,318536,1,8,0:0:0:0:
160,224,318611,1,8,0:0:0:0:
160,224,318686,1,0,0:0:0:0:
160,224,318761,1,0,0:0:0:0:
160,224,318836,1,8,0:0:0:0:
160,224,318911,1,0,0:0:0:0:
160,224,318986,1,8,0:0:0:0:
160,224,319061,1,8,0:0:0:0:
160,224,319136,1,0,0:0:0:0:
160,224,319211,1,0,0:0:0:0:
256,256,319286,1,8,0:0:0:0:
256,256,319361,1,8,0:0:0:0:
256,256,319436,1,0,0:0:0:0:
384,288,319511,1,0,0:0:0:0:
384,288,319586,1,8,0:0:0:0:
384,288,319661,1,0,0:0:0:0:
384,288,319736,1,8,0:0:0:0:
384,288,319811,1,8,0:0:0:0:
384,288,319886,1,0,0:0:0:0:
384,288,319961,1,0,0:0:0:0:
384,288,320036,1,8,0:0:0:0:
224,192,320136,1,0,0:0:0:0:
224,192,320236,1,0,0:0:0:0:
224,192,320336,1,8,0:0:0:0:
224,192,320436,1,0,0:0:0:0:
224,192,320536,1,0,0:0:0:0:
224,192,320636,1,8,0:0:0:0:
192,160,320711,1,0,0:0:0:0:
288,160,320786,1,8,0:0:0:0:
288,160,320861,1,8,0:0:0:0:
288,160,320936,1,0,0:0:0:0:
288,160,321011,1,8,0:0:0:0:
288,160,321086,1,0,0:0:0:0:
288,160,321161,1,0,0:0:0:0:
288,160,321236,1,8,0:0:0:0:
224,192,321311,1,0,0:0:0:0:
288,160,321386,1,8,0:0:0:0:
288,160,321461,1,8,0:0:0:0:
224,192,321536,1,0,0:0:0:0:
288,160,321611,1,8,0:0:0:0:
288,160,321686,1,0,0:0:0:0:
288,160,321836,1,12,0:0:0:0:
352,256,321986,1,12,0:0:0:0:
352,256,322136,1,12,0:0:0:0:
288,192,323036,1,4,0:0:0:0:
288,192,323186,1,4,0:0:0:0:
288,192,323336,1,4,0:0:0:0:
224,160,323486,1,4,0:0:0:0:
224,160,323786,1,4,0:0:0:0:
224,160,324086,1,4,0:0:0:0:
224,160,324386,1,4,0:0:0:0:
160,128,324686,1,4,0:0:0:0:
160,128,324836,1,4,0:0:0:0:
160,128,324986,1,4,0:0:0:0:
160,128,325136,1,4,0:0:0:0:
160,128,325436,1,4,0:0:0:0:
160,128,325586,1,4,0:0:0:0:
160,128,325736,1,4,0:0:0:0:
160,128,325886,1,4,0:0:0:0:
160,128,326186,1,4,0:0:0:0:
160,128,326486,1,4,0:0:0:0:
160,160,326786,1,4,0:0:0:0:
160,160,327086,1,4,0:0:0:0:
160,160,327236,1,4,0:0:0:0:
160,160,327386,1,4,0:0:0:0:
160,160,327536,1,4,0:0:0:0:
160,160,327836,1,4,0:0:0:0:
160,160,327986,1,4,0:0:0:0:
160,160,328136,1,4,0:0:0:0:
160,160,328286,1,4,0:0:0:0:
160,160,328586,1,4,0:0:0:0:
160,160,328886,1,4,0:0:0:0:
128,128,329186,1,4,0:0:0:0:
128,128,329486,1,4,0:0:0:0:
192,128,329636,1,4,0:0:0:0:
192,128,329786,1,4,0:0:0:0:
192,128,329936,1,4,0:0:0:0:
256,192,330236,12,0,332336,0:0:0:0:
320,256,332636,5,4,0:0:0:0:
320,256,332786,1,4,0:0:0:0:
320,256,332936,1,4,0:0:0:0:
320,256,333086,1,12,0:0:0:0:
320,256,333236,1,12,0:0:0:0:
320,256,333386,1,12,0:0:0:0:
320,256,333536,1,4,0:0:0:0:
320,256,333686,1,12,0:0:0:0:
32,192,333986,1,12,0:0:0:0:
192,224,334286,1,4,0:0:0:0:
192,224,334436,1,12,0:0:0:0:
384,256,334736,1,8,0:0:0:0:
