osu file format v14

[General]
AudioFilename: audio.mp3
AudioLeadIn: 0
PreviewTime: 44425
Countdown: 1
SampleSet: Normal
StackLeniency: 0.7
Mode: 0
LetterboxInBreaks: 0
WidescreenStoryboard: 1

[Editor]
DistanceSpacing: 1
BeatDivisor: 8
GridSize: 4
TimelineZoom: 2.5

[Metadata]
Title:LiuZe Heaven
TitleUnicode:LiuZe Heaven
Artist:Ryu*(810 remixed)
ArtistUnicode:Ryu*(810 remixed)
Creator:Auralia
Version:Esu!
Source:Bilibili Douga
Tags:ryu* second heaven esu liu ze
BeatmapID:1450186
BeatmapSetID:685244

[Difficulty]
HPDrainRate:5
CircleSize:4
OverallDifficulty:8
ApproachRate:9
SliderMultiplier:2
SliderTickRate:2

[Events]
//Background and Video events
Video,0,"刘天堂_x264.mp4"
0,0,"LD7GEABRMYS0WZ{5KBE6R}U.jpg",0,0
//Break Periods
2,18854,24497
2,59122,71208
//Storyboard Layer 0 (Background)
//Storyboard Layer 1 (Fail)
//Storyboard Layer 2 (Pass)
//Storyboard Layer 3 (Foreground)
//Storyboard Sound Samples

[TimingPoints]
936,402.684563758389,4,1,0,100,1,0
18654,-66.6666666666667,4,2,0,100,0,0
25097,-66.6666666666667,4,2,0,100,0,0
43821,-200,4,2,0,100,0,0
44425,-50,4,2,0,100,0,0
46036,-66.6666666666667,4,3,0,100,0,1
51674,-100,4,3,0,100,0,1
52479,-66.6666666666667,4,3,0,100,0,1
58922,-66.6666666666667,4,2,0,100,0,0
71808,-100,4,1,0,100,0,0
84694,-80,4,2,0,100,0,0
91137,-100,4,2,0,100,0,0
99191,-200,4,2,0,100,0,0
100801,-66.6666666666667,4,3,0,100,0,0
113687,-66.6666666666667,4,2,0,100,0,0

[HitObjects]
256,192,936,5,0,0:0:0:0:
256,192,1137,1,0,0:0:0:0:
116,184,2546,6,0,L|160:288,1,100
276,288,2949,2,0,L|220:200,1,100
172,312,3352,1,0,0:0:0:0:
208,200,3553,1,0,0:0:0:0:
208,200,3654,1,0,0:0:0:0:
208,200,3754,1,0,0:0:0:0:
312,264,3956,1,0,0:0:0:0:
312,264,4056,1,0,0:0:0:0:
312,264,4157,2,0,L|296:160,1,100
216,76,4560,6,0,L|132:144,1,100
100,252,4962,1,0,0:0:0:0:
200,320,5164,1,0,0:0:0:0:
200,320,5264,1,0,0:0:0:0:
200,320,5365,2,0,L|252:224,1,100
184,128,5768,2,0,L|144:232,1,100
220,316,6170,2,0,L|308:240,1,100
276,132,6573,5,0,0:0:0:0:
180,204,6774,1,0,0:0:0:0:
180,204,6875,1,0,0:0:0:0:
180,204,6976,1,0,0:0:0:0:
296,228,7177,1,0,0:0:0:0:
296,228,7278,1,0,0:0:0:0:
296,228,7378,2,0,L|272:112,1,100
148,52,7781,5,0,0:0:0:0:
148,52,7982,1,0,0:0:0:0:
84,188,8184,1,0,0:0:0:0:
196,236,8385,1,0,0:0:0:0:
196,236,8486,1,0,0:0:0:0:
196,236,8587,2,0,L|304:216,1,100
360,84,8989,5,0,0:0:0:0:
360,84,9191,1,0,0:0:0:0:
180,324,9593,1,0,0:0:0:0:
412,132,9996,1,0,0:0:0:0:
412,132,10097,1,0,0:0:0:0:
412,132,10197,1,0,0:0:0:0:
268,92,10399,1,0,0:0:0:0:
268,92,10499,1,0,0:0:0:0:
268,92,10600,2,0,L|152:112,1,100
120,252,11003,5,0,0:0:0:0:
120,252,11204,1,0,0:0:0:0:
388,112,11607,1,0,0:0:0:0:
388,112,11707,1,0,0:0:0:0:
388,112,11808,2,0,L|408:224,1,100
308,324,12211,1,0,0:0:0:0:
308,324,12412,1,0,0:0:0:0:
140,76,12815,1,0,0:0:0:0:
108,224,13016,5,0,0:0:0:0:
256,192,13217,1,0,0:0:0:0:
256,192,13318,1,0,0:0:0:0:
256,192,13419,1,0,0:0:0:0:
404,204,13620,1,0,0:0:0:0:
404,204,13721,1,0,0:0:0:0:
404,204,13821,2,0,L|424:304,1,100
276,264,14224,1,0,0:0:0:0:
288,116,14425,1,0,0:0:0:0:
139,250,14828,5,0,0:0:0:0:
139,250,14929,1,0,0:0:0:0:
139,250,15029,1,0,0:0:0:0:
381,296,15231,1,0,0:0:0:0:
256,192,15432,12,0,18654,0:0:0:0:
176,276,25097,6,0,P|328:240|304:204,1,300.000011444092
168,148,25902,1,0,0:0:0:0:
257,268,26305,1,0,0:0:0:0:
372,172,26707,2,0,P|401:18|289:86,1,300.000011444092
224,141,27513,1,0,0:0:0:0:
366,93,27915,1,0,0:0:0:0:
336,276,28318,6,0,P|184:240|208:204,1,300.000011444092
344,148,29123,1,0,0:0:0:0:
255,268,29526,1,0,0:0:0:0:
140,172,29928,2,0,P|111:18|223:86,1,300.000011444092
288,141,30734,1,0,0:0:0:0:
200,263,30935,1,0,0:0:0:0:
200,263,31137,1,0,0:0:0:0:
200,263,31338,1,0,0:0:0:0:
496,208,31741,5,0,0:0:0:0:
352,164,31942,1,0,0:0:0:0:
496,124,32144,1,0,0:0:0:0:
208,208,32546,1,0,0:0:0:0:
352,164,32747,1,0,0:0:0:0:
208,124,32949,1,0,0:0:0:0:
452,300,33352,5,0,0:0:0:0:
336,336,33553,1,0,0:0:0:0:
228,284,33754,1,0,0:0:0:0:
168,144,33956,1,0,0:0:0:0:
216,316,34157,1,0,0:0:0:0:
252,108,34358,1,0,0:0:0:0:
208,344,34560,1,0,0:0:0:0:
436,148,34962,5,0,0:0:0:0:
304,224,35164,1,0,0:0:0:0:
436,148,35365,1,0,0:0:0:0:
148,64,35768,1,0,0:0:0:0:
256,196,35969,1,0,0:0:0:0:
256,196,36170,1,0,0:0:0:0:
256,76,36372,5,0,0:0:0:0:
256,308,36573,1,0,0:0:0:0:
120,192,36774,1,0,0:0:0:0:
392,192,36976,1,0,0:0:0:0:
276,224,37177,2,0,P|200:244|160:304,1,150.000005722046
92,200,37580,2,0,P|136:128|120:64,1,150.000005722046
360,36,38184,5,0,0:0:0:0:
472,80,38385,1,0,0:0:0:0:
444,196,38587,1,0,0:0:0:0:
224,292,38989,1,0,0:0:0:0:
124,224,39191,1,0,0:0:0:0:
172,116,39392,1,0,0:0:0:0:
408,76,39795,5,0,0:0:0:0:
458,155,39996,1,0,0:0:0:0:
451,250,40197,1,0,0:0:0:0:
389,321,40399,1,0,0:0:0:0:
272,336,40600,1,0,0:0:0:0:
168,272,40801,1,0,0:0:0:0:
148,152,41003,1,0,0:0:0:0:
372,68,41405,5,0,0:0:0:0:
400,184,41607,1,0,0:0:0:0:
420,36,41808,1,0,0:0:0:0:
152,168,42211,1,0,0:0:0:0:
124,316,42412,1,0,0:0:0:0:
124,184,42613,1,0,0:0:0:0:
256,104,42815,5,0,0:0:0:0:
256,280,43016,1,0,0:0:0:0:
256,192,43217,1,0,0:0:0:0:
256,192,43419,1,0,0:0:0:0:
256,192,43620,1,0,0:0:0:0:
256,192,43821,2,0,L|252:176,10,12.5
256,192,44425,6,0,B|264:217|264:217|255:150|255:150|204:213|204:213|213:206|213:206|200:170|200:170|197:177|197:177|290:195|290:195|206:201|206:201|215:156|215:156|219:154|219:154|292:206|292:206|206:163|206:163|286:173|286:173|210:215|210:215|241:156|241:156|201:192|201:192|220:228|220:228|211:228|211:228|231:239|231:239|251:235|251:235|270:231|270:231|276:228|276:228|277:158|277:158|287:213|287:213|238:235|238:235|265:237|265:237|286:224|286:224|231:150|231:150|250:191|250:191,1,1400
240,170,46036,5,0,0:0:0:0:
376,80,46238,1,0,0:0:0:0:
376,80,46338,1,0,0:0:0:0:
376,80,46439,2,0,L|400:152,1,75.0000028610231
320,232,46640,2,0,L|296:160,1,75.0000028610231
296,160,46842,1,0,0:0:0:0:
148,132,47043,1,0,0:0:0:0:
180,280,47244,1,0,0:0:0:0:
276,164,47446,6,0,L|384:164,2,75.0000028610231
160,68,47848,2,0,L|224:128,1,75.0000028610231
200,144,48050,1,0,0:0:0:0:
184,180,48150,1,0,0:0:0:0:
184,216,48251,1,0,0:0:0:0:
196,252,48352,1,0,0:0:0:0:
224,280,48452,2,0,P|292:308|364:260,1,150.000005722046
396,136,48855,2,0,P|328:108|256:156,1,150.000005722046
232,288,49258,5,0,0:0:0:0:
124,184,49459,1,0,0:0:0:0:
124,184,49560,1,0,0:0:0:0:
124,184,49660,2,0,L|144:96,1,75.0000028610231
248,76,49862,2,0,L|232:160,1,75.0000028610231
233,149,50063,1,0,0:0:0:0:
316,276,50264,1,0,0:0:0:0:
396,148,50466,1,0,0:0:0:0:
280,52,50667,5,0,0:0:0:0:
280,52,50768,1,0,0:0:0:0:
280,52,50868,2,0,P|196:60|148:120,1,150.000005722046
168,256,51271,2,0,P|252:248|300:188,1,150.000005722046
292,52,51674,2,0,P|408:72|412:136,1,200
312,140,52278,1,0,0:0:0:0:
208,244,52479,5,0,0:0:0:0:
168,100,52680,1,0,0:0:0:0:
168,100,52781,1,0,0:0:0:0:
168,100,52882,2,0,L|144:176,1,75.0000028610231
296,160,53083,2,0,L|320:80,1,75.0000028610231
317,88,53284,1,0,0:0:0:0:
200,184,53486,1,0,0:0:0:0:
260,320,53687,1,0,0:0:0:0:
128,248,53889,6,0,L|52:236,2,75.0000028610231
156,100,54291,1,0,0:0:0:0:
156,100,54392,1,0,0:0:0:0:
156,100,54493,2,0,L|236:144,1,75.0000028610231
348,216,54694,2,0,L|272:244,1,75.0000028610231
277,241,54895,1,0,0:0:0:0:
72,152,55097,1,0,0:0:0:0:
160,272,55298,1,0,0:0:0:0:
252,68,55499,1,0,0:0:0:0:
240,216,55701,5,0,0:0:0:0:
132,112,55902,1,0,0:0:0:0:
132,112,56003,1,0,0:0:0:0:
132,112,56103,2,0,L|220:144,1,75.0000028610231
184,252,56305,2,0,L|272:264,1,75.0000028610231
368,264,56506,2,0,P|432:208|428:148,2,150.000005722046
144,228,57110,5,0,0:0:0:0:
144,228,57211,1,0,0:0:0:0:
144,228,57311,1,0,0:0:0:0:
348,132,57513,1,0,0:0:0:0:
124,104,57714,1,0,0:0:0:0:
292,252,57915,1,0,0:0:0:0:
244,32,58117,1,0,0:0:0:0:
144,228,58318,1,0,0:0:0:0:
348,132,58519,2,0,P|396:192|364:248,1,150.000005722046
204,88,58922,1,0,0:0:0:0:
396,184,71808,6,0,L|352:288,1,100
236,288,72210,2,0,L|292:200,1,100
340,312,72613,1,0,0:0:0:0:
304,200,72814,1,0,0:0:0:0:
304,200,72915,1,0,0:0:0:0:
304,200,73015,1,0,0:0:0:0:
200,264,73217,1,0,0:0:0:0:
200,264,73317,1,0,0:0:0:0:
200,264,73418,2,0,L|216:160,1,100
296,76,73821,6,0,L|380:144,1,100
412,252,74223,1,0,0:0:0:0:
312,320,74425,1,0,0:0:0:0:
312,320,74525,1,0,0:0:0:0:
312,320,74626,2,0,L|260:224,1,100
328,128,75029,2,0,L|368:232,1,100
292,316,75431,2,0,L|204:240,1,100
236,132,75834,5,0,0:0:0:0:
332,204,76035,1,0,0:0:0:0:
332,204,76136,1,0,0:0:0:0:
332,204,76237,1,0,0:0:0:0:
216,228,76438,1,0,0:0:0:0:
216,228,76539,1,0,0:0:0:0:
216,228,76640,2,0,L|236:124,1,100
364,52,77042,5,0,0:0:0:0:
364,52,77243,1,0,0:0:0:0:
428,188,77445,1,0,0:0:0:0:
316,236,77646,1,0,0:0:0:0:
316,236,77747,1,0,0:0:0:0:
316,236,77848,2,0,L|208:216,1,100
152,84,78250,5,0,0:0:0:0:
152,84,78452,1,0,0:0:0:0:
332,324,78854,1,0,0:0:0:0:
100,132,79257,1,0,0:0:0:0:
100,132,79358,1,0,0:0:0:0:
100,132,79458,1,0,0:0:0:0:
244,92,79660,1,0,0:0:0:0:
244,92,79760,1,0,0:0:0:0:
244,92,79861,2,0,L|360:112,1,100
392,252,80264,5,0,0:0:0:0:
392,252,80465,1,0,0:0:0:0:
124,112,80868,1,0,0:0:0:0:
124,112,80968,1,0,0:0:0:0:
124,112,81069,2,0,L|104:224,1,100
204,324,81472,1,0,0:0:0:0:
204,324,81673,1,0,0:0:0:0:
372,76,82076,1,0,0:0:0:0:
404,224,82277,5,0,0:0:0:0:
256,192,82478,1,0,0:0:0:0:
256,192,82579,1,0,0:0:0:0:
256,192,82680,1,0,0:0:0:0:
108,204,82881,1,0,0:0:0:0:
108,204,82982,1,0,0:0:0:0:
108,204,83082,2,0,L|88:304,1,100
236,264,83485,1,0,0:0:0:0:
224,116,83686,1,0,0:0:0:0:
373,250,84089,5,0,0:0:0:0:
373,250,84190,1,0,0:0:0:0:
373,250,84291,2,0,P|372:180|356:148,1,100
240,64,84694,5,0,0:0:0:0:
112,144,84895,1,0,0:0:0:0:
100,171,84995,1,0,0:0:0:0:
100,201,85096,1,0,0:0:0:0:
111,229,85197,1,0,0:0:0:0:
131,250,85297,1,0,0:0:0:0:
158,263,85398,1,0,0:0:0:0:
188,265,85499,2,0,P|248:248|272:176,1,125
256,72,85902,1,0,0:0:0:0:
96,168,86103,6,0,L|32:160,2,62.5
216,316,86506,1,0,0:0:0:0:
252,321,86606,1,0,0:0:0:0:
289,313,86707,1,0,0:0:0:0:
321,293,86808,1,0,0:0:0:0:
344,264,86908,1,0,0:0:0:0:
356,229,87009,1,0,0:0:0:0:
355,191,87110,5,0,0:0:0:0:
172,152,87311,1,0,0:0:0:0:
360,156,87513,1,0,0:0:0:0:
180,112,87714,1,0,0:0:0:0:
344,24,87915,1,0,0:0:0:0:
260,192,88117,5,0,0:0:0:0:
260,229,88217,1,0,0:0:0:0:
244,262,88318,1,0,0:0:0:0:
215,286,88419,1,0,0:0:0:0:
179,294,88519,1,0,0:0:0:0:
143,286,88620,1,0,0:0:0:0:
114,262,88721,5,0,0:0:0:0:
212,104,88922,1,0,0:0:0:0:
308,264,89123,1,0,0:0:0:0:
348,144,89325,1,0,0:0:0:0:
348,144,89425,1,0,0:0:0:0:
348,144,89526,2,0,P|280:176|232:224,1,125
236,336,89929,2,0,P|168:304|120:256,1,125
204,96,90331,1,0,0:0:0:0:
204,96,90533,2,0,P|272:80|312:44,2,125
68,156,91137,5,0,0:0:0:0:
204,220,91338,1,0,0:0:0:0:
234,246,91438,1,0,0:0:0:0:
268,265,91539,1,0,0:0:0:0:
306,278,91640,1,0,0:0:0:0:
346,282,91740,1,0,0:0:0:0:
386,279,91841,1,0,0:0:0:0:
432,268,91942,2,0,P|448:200|440:160,1,100
380,36,92345,1,0,0:0:0:0:
344,180,92546,6,0,L|312:232,2,50
224,92,92949,1,0,0:0:0:0:
203,113,93049,1,0,0:0:0:0:
185,138,93150,1,0,0:0:0:0:
172,164,93251,1,0,0:0:0:0:
162,193,93351,1,0,0:0:0:0:
157,222,93452,1,0,0:0:0:0:
156,252,93553,2,0,P|208:280|268:288,1,100
396,256,93956,1,0,0:0:0:0:
332,120,94157,2,0,L|392:88,2,50
132,140,94560,5,0,0:0:0:0:
132,140,94660,1,0,0:0:0:0:
132,140,94761,1,0,0:0:0:0:
376,200,94962,1,0,0:0:0:0:
376,200,95063,1,0,0:0:0:0:
376,200,95164,1,0,0:0:0:0:
176,176,95365,1,0,0:0:0:0:
176,176,95466,1,0,0:0:0:0:
176,176,95566,1,0,0:0:0:0:
328,168,95768,5,0,0:0:0:0:
328,168,95868,1,0,0:0:0:0:
328,168,95969,2,0,P|308:100|288:80,1,100
192,56,96372,1,0,0:0:0:0:
68,140,96573,1,0,0:0:0:0:
236,204,96774,5,0,0:0:0:0:
260,208,96874,1,0,0:0:0:0:
285,213,96975,1,0,0:0:0:0:
309,218,97076,1,0,0:0:0:0:
334,223,97176,1,0,0:0:0:0:
358,228,97277,1,0,0:0:0:0:
383,233,97378,1,0,0:0:0:0:
407,238,97478,1,0,0:0:0:0:
256,192,97580,12,0,98989,0:0:0:0:
240,192,99191,6,0,L|276:192,8,25
384,120,100801,5,0,0:0:0:0:
160,152,101003,2,0,L|72:164,1,75.0000028610231
264,224,101204,2,0,L|360:212,1,75.0000028610231
188,328,101405,2,0,L|96:340,1,75.0000028610231
68,152,101607,1,0,0:0:0:0:
348,44,101808,1,0,0:0:0:0:
308,340,102009,1,0,0:0:0:0:
196,144,102211,6,0,L|264:200,2,75.0000028610231
420,116,102613,2,0,L|336:152,1,75.0000028610231
248,304,102815,2,0,L|272:220,1,75.0000028610231
188,60,103016,2,0,L|248:128,1,75.0000028610231
372,248,103217,1,0,0:0:0:0:
76,188,103419,1,0,0:0:0:0:
352,68,103620,1,0,0:0:0:0:
196,324,103821,1,0,0:0:0:0:
164,24,104023,5,0,0:0:0:0:
312,192,104224,2,0,L|400:224,1,75.0000028610231
196,224,104425,2,0,L|124:252,1,75.0000028610231
256,112,104627,2,0,L|168:104,1,75.0000028610231
236,284,104828,1,0,0:0:0:0:
428,52,105029,1,0,0:0:0:0:
156,56,105231,1,0,0:0:0:0:
348,172,105432,5,0,0:0:0:0:
348,172,105533,1,0,0:0:0:0:
348,172,105633,2,0,P|400:232|392:316,1,150.000005722046
172,292,106036,1,0,0:0:0:0:
396,304,106238,1,0,0:0:0:0:
244,140,106439,2,0,P|292:200|284:280,1,150.000005722046
68,308,106842,2,0,P|21:251|23:178,1,150.000005722046
204,44,107244,5,0,0:0:0:0:
336,228,107446,2,0,L|308:312,1,75.0000028610231
72,180,107848,2,0,L|128:168,3,37.5000014305115
152,164,108050,2,0,P|232:156|288:88,1,150.000005722046
456,148,108452,1,0,0:0:0:0:
376,308,108654,2,0,L|328:320,3,37.5000014305115
296,324,108855,2,0,P|212:304|188:240,1,150.000005722046
296,108,109258,2,0,L|284:56,3,37.5000014305115
336,128,109459,2,0,L|348:192,3,37.5000014305115
348,200,109660,6,0,P|340:276|280:316,1,150.000005722046
152,240,110063,2,0,P|132:168|164:100,1,150.000005722046
304,56,110466,1,0,0:0:0:0:
276,204,110667,1,0,0:0:0:0:
416,156,110868,2,0,L|476:152,3,37.5000014305115
404,208,111070,2,0,L|360:212,3,37.5000014305115
328,216,111271,2,0,P|264:256|184:236,1,150.000005722046
192,92,111674,2,0,L|232:88,3,37.5000014305115
256,116,111875,2,0,L|312:112,3,37.5000014305115
316,140,112076,6,0,P|352:212|344:292,1,150.000005722046
196,276,112479,2,0,P|161:210|163:136,1,150.000005722046
256,192,112882,12,0,113687,0:0:0:0:
