osu file format v14

[General]
AudioFilename: audio.mp3
AudioLeadIn: 0
PreviewTime: 62105
Countdown: 0
SampleSet: Soft
StackLeniency: 0.3
Mode: 0
LetterboxInBreaks: 0
WidescreenStoryboard: 1

[Editor]
Bookmarks: 1575,30375,63975,83175,102375
DistanceSpacing: 1.3
BeatDivisor: 4
GridSize: 4
TimelineZoom: 1.999999

[Metadata]
Title:Go Beyond!!
TitleUnicode:Go Beyond!!
Artist:Ryu* vs. Sota
ArtistUnicode:Ryu☆ vs. Sota
Creator:Anto
Version:Transcension!!
Source:beatmania IIDX 13 DistorteD CS
Tags:nuvolina eletronic trance core deathstream
BeatmapID:1951034
BeatmapSetID:934522

[Difficulty]
HPDrainRate:6.5
CircleSize:4.3
OverallDifficulty:9
ApproachRate:9.6
SliderMultiplier:1.8
SliderTickRate:1

[Events]
//Background and Video events
0,0,"gobeyond.jpg",0,0
//Break Periods
//Storyboard Layer 0 (Background)
//Storyboard Layer 1 (Fail)
//Storyboard Layer 2 (Pass)
//Storyboard Layer 3 (Foreground)
//Storyboard Sound Samples

[TimingPoints]
380,300,4,2,1,40,1,0
380,-500,4,2,1,40,0,0
605,-500,4,2,1,5,0,0
680,-500,4,2,1,40,0,0
905,-500,4,2,1,5,0,0
980,-500,4,2,1,40,0,0
1205,-500,4,2,1,5,0,0
1280,-500,4,2,1,40,0,0
1505,-500,4,2,1,5,0,0
1580,-83.3333333333333,4,2,1,70,0,0
9980,-83.3333333333333,4,2,1,55,0,0
11180,-83.3333333333333,4,2,1,70,0,0
19580,-333.333333333333,4,2,1,40,0,0
19805,-333.333333333333,4,2,1,5,0,0
19880,-333.333333333333,4,2,1,40,0,0
20105,-333.333333333333,4,2,1,5,0,0
20180,-333.333333333333,4,2,1,40,0,0
20405,-333.333333333333,4,2,1,5,0,0
20480,-333.333333333333,4,2,1,40,0,0
20705,-333.333333333333,4,2,1,5,0,0
20780,-83.3333333333333,4,2,1,70,0,0
28880,-83.3333333333333,4,2,1,45,0,0
30380,-166.666666666667,4,2,1,30,0,0
39980,-166.666666666667,4,2,1,40,0,0
63080,-166.666666666667,4,2,1,40,0,0
63980,-83.3333333333334,4,2,1,80,0,1
68180,-83.3333333333334,4,2,1,50,0,1
68780,-83.3333333333334,4,2,1,80,0,1
77780,-83.3333333333334,4,2,1,50,0,1
78380,-83.3333333333334,4,2,1,80,0,1
83180,-83.3333333333334,4,2,1,70,0,0
91580,-500,4,2,1,40,0,0
91805,-500,4,2,1,5,0,0
91880,-500,4,2,1,40,0,0
92105,-500,4,2,1,5,0,0
92180,-500,4,2,1,40,0,0
92405,-500,4,2,1,5,0,0
92480,-500,4,2,1,40,0,0
92705,-500,4,2,1,5,0,0
92780,-83.3333333333333,4,2,1,70,0,0
100880,-83.3333333333333,4,2,1,45,0,0
101180,-500,4,2,1,40,0,0
101405,-500,4,2,1,5,0,0
101480,-500,4,2,1,40,0,0
101705,-500,4,2,1,5,0,0
101780,-500,4,2,1,40,0,0
102005,-500,4,2,1,5,0,0
102080,-500,4,2,1,40,0,0
102305,-500,4,2,1,5,0,0
102380,-166.666666666667,4,2,1,30,0,0
114380,-166.666666666667,4,2,1,10,0,0

[Colours]
Combo1 : 103,103,103
Combo2 : 206,0,0
Combo3 : 147,0,73

[HitObjects]
80,36,380,6,0,L|76:9,1,27,4|0,0:1|0:0,0:0:0:0:
220,110,680,2,0,L|223:138,1,27,4|0,0:1|0:0,0:0:0:0:
368,220,980,2,0,L|364:192,1,27,4|0,0:1|0:0,0:0:0:0:
508,294,1280,2,0,L|512:320,1,27,4|0,0:1|0:0,0:0:0:0:
480,144,1580,5,4,1:2:0:0:
388,292,1730,1,2,0:0:0:0:
352,124,1880,1,0,1:0:0:0:
260,272,2030,1,2,0:0:0:0:
224,104,2180,1,0,1:0:0:0:
132,252,2330,1,2,0:0:0:0:
96,84,2480,1,0,1:0:0:0:
4,232,2630,1,2,0:0:0:0:
184,352,2780,6,0,P|240:324|288:332,1,107.999996704102,0|0,1:0|0:0,0:0:0:0:
364,360,3005,2,0,P|417:364|463:337,1,107.999996704102,2|0,0:0|0:0,0:0:0:0:
488,256,3230,1,2,0:0:0:0:
468,212,3305,1,2,0:0:0:0:
448,168,3380,1,0,1:0:0:0:
448,168,3680,1,0,1:0:0:0:
264,72,3830,1,0,1:0:0:0:
508,8,3980,5,0,1:0:0:0:
448,168,4130,1,2,0:0:0:0:
376,12,4280,1,0,1:0:0:0:
316,172,4430,1,2,0:0:0:0:
244,16,4580,1,0,1:0:0:0:
184,176,4730,1,2,0:0:0:0:
112,20,4880,1,0,1:0:0:0:
52,180,5030,1,2,0:0:0:0:
184,328,5180,6,0,L|292:320,1,107.999996704102,4|0,1:2|0:0,0:0:0:0:
372,352,5405,2,0,L|480:344,1,107.999996704102,6|0,0:2|0:0,0:0:0:0:
488,260,5630,1,6,0:2:0:0:
492,212,5705,1,2,0:0:0:0:
496,164,5780,1,4,1:2:0:0:
148,24,6080,2,0,L|156:188,1,161.999995056153,0|0,0:0|0:0,0:0:0:0:
160,272,6380,5,4,1:2:0:0:
332,268,6530,1,2,0:0:0:0:
324,96,6680,1,0,1:0:0:0:
152,100,6830,1,2,0:0:0:0:
160,272,6980,1,0,1:0:0:0:
332,268,7130,1,2,0:0:0:0:
324,96,7280,1,0,1:0:0:0:
152,100,7430,1,2,0:0:0:0:
332,268,7580,6,0,P|388:264|440:296,1,107.999996704102,4|0,1:2|0:0,0:0:0:0:
368,344,7805,2,0,P|320:368|267:363,1,107.999996704102,6|0,1:2|0:0,0:0:0:0:
184,336,8030,1,6,1:2:0:0:
136,344,8105,1,2,0:0:0:0:
88,352,8180,1,4,1:2:0:0:
88,352,8780,5,4,1:2:0:0:
248,16,9380,1,4,1:2:0:0:
172,220,9530,1,4,1:2:0:0:
32,44,9680,1,4,1:2:0:0:
416,340,9980,6,0,P|440:296|440:236,1,107.999996704102,2|0,0:0|0:0,0:0:0:0:
368,192,10205,2,0,P|367:138|392:91,1,107.999996704102,2|0,0:0|0:0,0:0:0:0:
344,20,10430,1,2,0:0:0:0:
300,36,10505,1,2,0:0:0:0:
256,52,10580,1,2,0:0:0:0:
92,108,10730,1,2,0:0:0:0:
148,360,10880,5,0,1:0:0:0:
160,316,10955,1,0,1:0:0:0:
172,272,11030,1,0,1:0:0:0:
184,228,11105,1,0,1:0:0:0:
196,184,11180,6,0,L|308:208,1,107.999996704102,0|0,1:0|0:0,0:0:0:0:
488,32,11480,2,0,L|376:56,1,107.999996704102,8|0,0:0|0:0,0:0:0:0:
212,84,11780,1,0,1:0:0:0:
380,228,11930,1,2,0:0:0:0:
256,348,12080,1,8,0:0:0:0:
68,244,12230,1,2,0:0:0:0:
80,200,12305,1,2,0:0:0:0:
92,156,12380,6,0,L|120:40,1,107.999996704102,0|2,1:0|0:0,0:0:0:0:
272,120,12680,1,8,0:0:0:0:
480,16,12830,2,0,L|448:120,1,107.999996704102,2|0,0:0|1:0,0:0:0:0:
376,336,13130,1,2,0:0:0:0:
56,248,13280,1,10,0:0:0:0:
84,208,13355,1,2,0:0:0:0:
108,168,13430,1,2,1:2:0:0:
320,196,13580,6,0,P|380:196|420:172,1,107.999996704102,0|0,1:0|0:0,0:0:0:0:
200,36,13880,2,0,P|140:36|100:60,1,107.999996704102,8|0,0:0|0:0,0:0:0:0:
48,268,14180,1,0,1:0:0:0:
296,324,14330,1,2,0:0:0:0:
176,128,14480,1,8,0:0:0:0:
112,364,14630,1,2,0:0:0:0:
424,360,14780,5,4,1:2:0:0:
424,360,14930,1,6,1:2:0:0:
424,360,15230,1,6,1:2:0:0:
424,360,15530,1,6,1:2:0:0:
276,96,15830,5,2,0:0:0:0:
288,144,15905,1,2,0:0:0:0:
300,192,15980,2,0,L|188:168,1,107.999996704102,4|0,1:2|0:0,0:0:0:0:
8,344,16280,2,0,L|120:320,1,107.999996704102,8|0,0:0|0:0,0:0:0:0:
284,292,16580,1,0,1:0:0:0:
116,148,16730,1,2,0:0:0:0:
240,28,16880,1,8,0:0:0:0:
428,132,17030,1,2,0:0:0:0:
416,176,17105,1,2,0:0:0:0:
404,220,17180,6,0,L|376:336,1,107.999996704102,4|2,1:2|0:0,0:0:0:0:
224,256,17480,1,8,0:0:0:0:
16,360,17630,2,0,L|48:256,1,107.999996704102,2|0,0:0|1:0,0:0:0:0:
120,40,17930,1,2,0:0:0:0:
440,128,18080,1,10,0:0:0:0:
412,168,18155,1,2,0:0:0:0:
388,208,18230,1,2,0:0:0:0:
176,180,18380,6,0,P|116:180|76:204,1,107.999996704102,4|0,1:2|0:0,0:0:0:0:
296,340,18680,2,0,P|356:340|396:316,1,107.999996704102,8|0,0:0|0:0,0:0:0:0:
448,108,18980,1,4,1:2:0:0:
200,52,19130,1,2,0:0:0:0:
320,248,19280,1,8,0:0:0:0:
384,12,19430,1,2,0:0:0:0:
468,304,19580,6,0,L|464:344,1,40.4999987640381,4|0,0:1|0:0,0:0:0:0:
317,274,19880,2,0,L|320:232,1,40.4999987640381,4|0,0:1|0:0,0:0:0:0:
172,192,20180,2,0,L|168:236,1,40.4999987640381,4|0,0:1|0:0,0:0:0:0:
21,162,20480,2,0,L|24:122,1,40.4999987640381,4|0,0:1|0:0,0:0:0:0:
276,108,20780,6,0,L|392:96,1,107.999996704102,4|0,1:2|0:0,0:0:0:0:
244,268,21080,2,0,L|128:280,1,107.999996704102,8|0,0:0|0:0,0:0:0:0:
8,164,21380,1,0,1:0:0:0:
192,32,21530,1,2,0:0:0:0:
276,184,21680,1,8,0:0:0:0:
496,100,21830,1,2,0:0:0:0:
456,72,21905,1,2,0:0:0:0:
416,48,21980,6,0,P|368:32|304:44,1,107.999996704102,0|2,1:0|0:0,0:0:0:0:
156,116,22280,1,8,0:0:0:0:
232,336,22430,2,0,P|284:344|335:328,1,107.999996704102,2|0,0:0|1:0,0:0:0:0:
444,192,22730,1,2,0:0:0:0:
232,176,22880,1,10,0:0:0:0:
200,212,22955,1,2,0:0:0:0:
168,248,23030,1,2,1:2:0:0:
52,32,23180,6,0,L|160:56,1,107.999996704102,0|0,1:0|0:0,0:0:0:0:
424,108,23480,2,0,L|316:132,1,107.999996704102,8|0,0:0|0:0,0:0:0:0:
148,168,23780,1,0,1:0:0:0:
316,344,23930,1,2,0:0:0:0:
440,224,24080,1,8,0:0:0:0:
236,104,24230,6,0,P|216:52|220:0,1,107.999996704102,2|0,0:0|1:0,0:0:0:0:
342,218,24530,2,0,P|397:227|440:256,1,107.999996704102,2|8,0:0|0:0,0:0:0:0:
189,253,24830,2,0,P|154:296|107:319,1,107.999996704102,2|0,0:0|1:0,0:0:0:0:
28,164,25130,1,2,0:0:0:0:
200,48,25280,1,8,0:0:0:0:
248,52,25355,1,0,0:0:0:0:
296,56,25430,1,0,1:0:0:0:
344,60,25505,1,0,1:0:0:0:
392,64,25580,5,4,1:2:0:0:
392,64,25880,1,4,1:2:0:0:
20,204,26180,5,4,1:2:0:0:
264,336,26330,1,4,1:2:0:0:
264,336,26630,5,4,1:2:0:0:
168,104,26780,1,4,1:2:0:0:
24,308,26930,1,4,1:2:0:0:
468,200,27230,5,4,1:2:0:0:
468,200,27530,1,4,1:2:0:0:
280,100,27680,5,0,1:0:0:0:
232,108,27755,1,0,1:0:0:0:
184,116,27830,1,0,1:0:0:0:
136,124,27905,1,0,1:0:0:0:
88,132,27980,1,4,1:2:0:0:
36,328,28130,5,4,1:2:0:0:
280,368,28280,2,0,L|316:372,6,26.9999991760254,0|0|0|0|0|0|0,1:0|1:0|1:0|1:0|1:0|1:0|1:0,0:0:0:0:
336,340,28580,5,4,1:2:0:0:
148,104,28730,1,4,1:2:0:0:
392,48,28880,6,0,L|408:44,16,13.4999995880127,0|0|0|0|0|0|0|0|0|0|0|0|0|0|0|0|4,1:0|1:0|1:0|1:0|1:0|1:0|1:0|1:0|1:0|1:0|1:0|1:0|1:0|1:0|1:0|1:0|1:2,0:0:0:0:
460,360,30380,6,0,P|432:328|272:336,1,215.999993408203,6|2,0:0|0:0,0:0:0:0:
72,256,31580,2,0,P|100:224|260:232,1,215.999993408203,2|2,0:0|0:0,0:0:0:0:
452,132,32780,1,2,0:0:0:0:
452,132,34580,5,2,0:0:0:0:
236,104,35180,2,0,L|8:76,1,215.999993408203,2|2,0:0|0:0,0:0:0:0:
140,260,36380,2,0,L|368:232,1,215.999993408203,2|2,0:0|0:0,0:0:0:0:
452,40,37580,1,2,0:0:0:0:
452,40,39380,5,2,0:0:0:0:
424,256,39980,2,0,P|388:308|224:320,1,215.999993408203,6|2,3:2|0:0,0:0:0:0:
76,196,41180,2,0,P|112:144|276:132,1,215.999993408203,2|2,3:2|0:0,0:0:0:0:
246,331,42380,1,2,3:2:0:0:
246,331,44180,5,2,3:2:0:0:
324,128,44780,2,0,B|272:40|272:40|160:72,1,215.999993408203,2|2,3:2|0:0,0:0:0:0:
24,236,45980,2,0,B|76:324|76:324|188:292,1,215.999993408203,2|2,3:2|0:0,0:0:0:0:
394,238,47180,1,2,3:2:0:0:
384,24,48980,5,2,0:0:0:0:
384,24,49580,1,2,3:2:0:0:
12,228,51380,5,2,0:0:0:0:
12,228,51980,1,2,0:0:0:0:
312,360,53780,5,2,0:0:0:0:
192,308,54380,1,2,0:0:0:0:
300,232,54980,1,2,0:0:0:0:
180,180,55580,1,2,0:0:0:0:
288,104,56180,1,2,0:0:0:0:
168,52,56780,1,2,0:0:0:0:
256,192,56855,12,2,60380,0:0:0:0:
256,192,60455,12,2,62780,0:0:0:0:
256,360,63080,5,8,0:0:0:0:
68,32,63380,1,8,0:0:0:0:
444,32,63680,1,8,0:0:0:0:
100,281,63980,5,0,1:0:0:0:
116,229,64055,1,0,0:0:0:0:
164,201,64130,1,2,0:0:0:0:
216,201,64205,1,0,0:0:0:0:
260,229,64280,1,0,1:0:0:0:
304,257,64355,1,0,0:0:0:0:
356,257,64430,1,2,0:0:0:0:
404,229,64505,1,0,0:0:0:0:
420,177,64580,5,0,1:0:0:0:
407,124,64655,1,0,0:0:0:0:
371,84,64730,1,2,0:0:0:0:
320,65,64805,1,0,0:0:0:0:
267,71,64880,1,0,1:0:0:0:
222,102,64955,1,0,0:0:0:0:
197,149,65030,1,2,0:0:0:0:
197,203,65105,1,0,0:0:0:0:
222,251,65180,5,0,1:0:0:0:
255,207,65255,1,0,0:0:0:0:
262,153,65330,1,2,0:0:0:0:
244,102,65405,1,0,0:0:0:0:
205,65,65480,1,0,1:0:0:0:
153,51,65555,1,0,0:0:0:0:
101,62,65630,1,2,0:0:0:0:
59,96,65705,1,0,0:0:0:0:
40,145,65780,5,0,1:0:0:0:
84,173,65855,1,0,0:0:0:0:
136,181,65930,1,2,0:0:0:0:
188,165,66005,1,0,0:0:0:0:
224,125,66080,2,0,L|216:57,1,53.9999983520508,0|0,1:0|0:0,0:0:0:0:
322,13,66230,2,0,L|328:67,1,53.9999983520508,0|0,1:0|0:0,0:0:0:0:
344,177,66380,5,0,1:0:0:0:
313,219,66455,1,0,0:0:0:0:
266,248,66530,1,2,0:0:0:0:
212,256,66605,1,0,0:0:0:0:
161,241,66680,1,0,1:0:0:0:
120,206,66755,1,0,0:0:0:0:
96,158,66830,1,2,0:0:0:0:
95,105,66905,1,0,0:0:0:0:
122,58,66980,5,0,1:0:0:0:
172,71,67055,1,0,0:0:0:0:
215,104,67130,1,2,0:0:0:0:
241,153,67205,1,0,0:0:0:0:
245,206,67280,1,0,1:0:0:0:
226,257,67355,1,0,0:0:0:0:
189,297,67430,1,2,0:0:0:0:
139,315,67505,1,0,0:0:0:0:
84,310,67580,5,0,1:0:0:0:
109,262,67655,1,0,0:0:0:0:
162,243,67730,1,2,0:0:0:0:
213,253,67805,1,0,0:0:0:0:
250,289,67880,1,0,1:0:0:0:
288,325,67955,1,0,0:0:0:0:
339,335,68030,1,2,0:0:0:0:
392,316,68105,1,0,0:0:0:0:
417,268,68180,5,0,3:0:0:0:
401,239,68255,1,0,3:0:0:0:
385,210,68330,1,0,3:0:0:0:
369,181,68405,1,0,3:0:0:0:
353,152,68480,1,0,3:0:0:0:
337,123,68555,1,0,3:0:0:0:
321,94,68630,2,0,L|290:35,1,53.9999983520508,0|0,3:0|3:0,0:0:0:0:
202,71,68780,5,4,1:2:0:0:
218,123,68855,1,0,0:0:0:0:
258,159,68930,1,2,0:0:0:0:
310,179,69005,1,0,0:0:0:0:
369,181,69080,1,0,1:0:0:0:
422,167,69155,1,0,0:0:0:0:
466,139,69230,1,2,0:0:0:0:
490,91,69305,1,0,0:0:0:0:
502,39,69380,5,0,1:0:0:0:
448,53,69455,1,0,0:0:0:0:
412,93,69530,1,2,0:0:0:0:
404,145,69605,1,0,0:0:0:0:
428,193,69680,1,0,1:0:0:0:
452,241,69755,1,0,0:0:0:0:
444,293,69830,1,2,0:0:0:0:
408,333,69905,1,0,0:0:0:0:
354,347,69980,5,0,1:0:0:0:
300,333,70055,1,0,0:0:0:0:
264,293,70130,1,2,0:0:0:0:
256,241,70205,1,0,0:0:0:0:
280,193,70280,1,0,1:0:0:0:
304,145,70355,1,0,0:0:0:0:
296,93,70430,1,2,0:0:0:0:
260,53,70505,1,0,0:0:0:0:
206,39,70580,5,0,1:0:0:0:
152,53,70655,1,0,0:0:0:0:
116,93,70730,1,2,0:0:0:0:
108,145,70805,1,0,0:0:0:0:
132,193,70880,1,0,1:0:0:0:
156,241,70955,1,0,0:0:0:0:
148,293,71030,1,2,0:0:0:0:
112,333,71105,1,0,0:0:0:0:
58,347,71180,5,0,1:0:0:0:
26,305,71255,1,0,0:0:0:0:
16,251,71330,1,2,0:0:0:0:
33,200,71405,1,0,0:0:0:0:
72,162,71480,1,0,1:0:0:0:
123,147,71555,1,0,0:0:0:0:
176,157,71630,1,2,0:0:0:0:
218,191,71705,1,0,0:0:0:0:
240,240,71780,5,0,1:0:0:0:
262,289,71855,1,0,0:0:0:0:
304,323,71930,1,2,0:0:0:0:
357,333,72005,1,0,0:0:0:0:
408,318,72080,1,0,1:0:0:0:
447,280,72155,1,0,0:0:0:0:
464,229,72230,1,2,0:0:0:0:
454,175,72305,1,0,0:0:0:0:
422,133,72380,5,2,0:0:0:0:
356,106,72455,1,0,0:0:0:0:
288,123,72530,1,2,0:0:0:0:
245,178,72605,1,0,0:0:0:0:
240,248,72680,1,2,0:0:0:0:
213,313,72755,1,0,0:0:0:0:
153,349,72830,1,2,0:0:0:0:
82,343,72905,1,0,0:0:0:0:
29,296,72980,1,2,0:0:0:0:
14,227,73055,1,0,0:0:0:0:
41,162,73130,1,2,0:0:0:0:
101,126,73205,1,0,0:0:0:0:
170,132,73280,1,2,0:0:0:0:
223,177,73355,1,0,0:0:0:0:
240,246,73430,1,2,0:0:0:0:
292,292,73505,1,0,0:0:0:0:
361,299,73580,5,4,1:2:0:0:
412,285,73655,1,0,0:0:0:0:
436,237,73730,1,2,0:0:0:0:
428,185,73805,1,0,0:0:0:0:
384,157,73880,1,0,1:0:0:0:
340,129,73955,1,0,0:0:0:0:
332,77,74030,1,2,0:0:0:0:
356,29,74105,1,0,0:0:0:0:
407,15,74180,5,0,1:0:0:0:
427,65,74255,1,0,0:0:0:0:
419,118,74330,1,2,0:0:0:0:
386,161,74405,1,0,0:0:0:0:
336,181,74480,1,0,1:0:0:0:
282,173,74555,1,0,0:0:0:0:
240,140,74630,1,2,0:0:0:0:
220,90,74705,1,0,0:0:0:0:
227,37,74780,5,0,1:0:0:0:
268,71,74855,1,0,0:0:0:0:
285,122,74930,1,2,0:0:0:0:
277,175,75005,1,0,0:0:0:0:
242,216,75080,1,0,1:0:0:0:
190,235,75155,1,0,0:0:0:0:
138,225,75230,1,2,0:0:0:0:
97,191,75305,1,0,0:0:0:0:
78,140,75380,5,0,1:0:0:0:
130,148,75455,1,0,0:0:0:0:
170,184,75530,1,2,0:0:0:0:
190,234,75605,1,0,0:0:0:0:
180,287,75680,2,0,P|176:309|160:341,1,53.9999983520508,0|0,1:0|0:0,0:0:0:0:
276,379,75830,2,0,P|264:355|259:329,1,53.9999983520508,0|0,1:0|0:0,0:0:0:0:
276,209,75980,5,0,1:0:0:0:
316,172,76055,1,0,0:0:0:0:
367,156,76130,1,2,0:0:0:0:
422,163,76205,1,0,0:0:0:0:
468,191,76280,1,0,1:0:0:0:
499,235,76355,1,0,0:0:0:0:
509,288,76430,1,2,0:0:0:0:
497,341,76505,1,0,0:0:0:0:
464,384,76580,5,0,1:0:0:0:
412,369,76655,1,0,0:0:0:0:
380,325,76730,1,2,0:0:0:0:
376,273,76805,1,0,0:0:0:0:
404,229,76880,1,0,1:0:0:0:
432,185,76955,1,0,0:0:0:0:
428,133,77030,1,2,0:0:0:0:
396,89,77105,1,0,0:0:0:0:
344,74,77180,5,0,1:0:0:0:
292,89,77255,1,0,0:0:0:0:
260,133,77330,1,2,0:0:0:0:
256,185,77405,1,0,0:0:0:0:
284,229,77480,1,0,1:0:0:0:
312,273,77555,1,0,0:0:0:0:
308,325,77630,1,2,0:0:0:0:
276,369,77705,1,0,0:0:0:0:
224,384,77780,5,0,3:0:0:0:
201,358,77855,1,0,3:0:0:0:
178,332,77930,1,0,3:0:0:0:
155,306,78005,1,0,3:0:0:0:
132,280,78080,1,0,3:0:0:0:
109,254,78155,1,0,3:0:0:0:
86,228,78230,2,0,L|45:182,1,53.9999983520508,0|0,3:0|3:0,0:0:0:0:
45,97,78380,5,4,1:2:0:0:
84,57,78455,1,0,0:0:0:0:
136,45,78530,1,2,0:0:0:0:
188,57,78605,1,0,0:0:0:0:
224,97,78680,1,0,1:0:0:0:
260,137,78755,1,0,0:0:0:0:
312,149,78830,1,2,0:0:0:0:
364,137,78905,1,0,0:0:0:0:
403,97,78980,5,0,1:0:0:0:
350,84,79055,1,0,0:0:0:0:
297,89,79130,1,2,0:0:0:0:
247,110,79205,1,0,0:0:0:0:
208,146,79280,1,0,1:0:0:0:
181,193,79355,1,0,0:0:0:0:
172,246,79430,1,2,0:0:0:0:
179,299,79505,1,0,0:0:0:0:
203,347,79580,5,4,1:2:0:0:
241,310,79655,1,0,0:0:0:0:
247,257,79730,1,2,0:0:0:0:
218,212,79805,1,0,0:0:0:0:
168,195,79880,1,0,1:0:0:0:
117,177,79955,1,0,0:0:0:0:
89,132,80030,1,2,0:0:0:0:
95,80,80105,1,0,0:0:0:0:
132,42,80180,5,0,1:0:0:0:
169,79,80255,1,0,0:0:0:0:
175,132,80330,1,2,0:0:0:0:
146,176,80405,1,0,0:0:0:0:
96,194,80480,1,0,1:0:0:0:
45,212,80555,1,0,0:0:0:0:
17,257,80630,1,2,0:0:0:0:
23,309,80705,1,0,0:0:0:0:
60,347,80780,5,4,1:2:0:0:
120,360,80855,1,0,0:0:0:0:
181,351,80930,1,2,0:0:0:0:
235,322,81005,1,0,0:0:0:0:
276,276,81080,1,0,1:0:0:0:
298,218,81155,1,0,0:0:0:0:
299,156,81230,1,2,0:0:0:0:
278,98,81305,1,0,0:0:0:0:
237,51,81380,5,4,1:2:0:0:
196,98,81455,1,0,0:0:0:0:
175,156,81530,1,2,0:0:0:0:
176,217,81605,1,0,0:0:0:0:
198,275,81680,1,0,1:0:0:0:
239,321,81755,1,0,0:0:0:0:
293,351,81830,1,2,0:0:0:0:
354,359,81905,1,0,0:0:0:0:
414,346,81980,5,2,0:0:0:0:
462,295,82055,1,0,0:0:0:0:
473,225,82130,1,2,0:0:0:0:
442,161,82205,1,0,0:0:0:0:
378,131,82280,1,2,0:0:0:0:
308,143,82355,1,0,0:0:0:0:
259,193,82430,1,2,0:0:0:0:
200,232,82505,1,0,0:0:0:0:
130,221,82580,1,2,0:0:0:0:
85,166,82655,1,0,0:0:0:0:
89,95,82730,1,2,0:0:0:0:
138,45,82805,1,0,0:0:0:0:
208,40,82880,1,2,0:0:0:0:
263,83,82955,1,0,0:0:0:0:
277,151,83030,1,2,0:0:0:0:
243,212,83105,1,0,0:0:0:0:
176,234,83180,6,0,P|231:224|285:241,1,107.999996704102,4|0,1:2|0:0,0:0:0:0:
460,204,83480,1,8,0:0:0:0:
352,76,83630,1,2,0:0:0:0:
296,96,83705,1,2,0:0:0:0:
240,116,83780,2,0,L|116:156,1,107.999996704102,4|0,1:2|0:0,0:0:0:0:
36,288,84080,1,8,0:0:0:0:
192,364,84230,5,2,0:0:0:0:
248,344,84305,1,2,0:0:0:0:
304,324,84380,2,0,L|428:284,1,107.999996704102,4|0,1:2|0:0,0:0:0:0:
444,124,84680,1,8,0:0:0:0:
280,72,84830,5,2,0:0:0:0:
264,128,84905,1,2,0:0:0:0:
248,184,84980,2,0,L|216:296,1,107.999996704102,4|0,1:2|0:0,0:0:0:0:
72,196,85280,6,0,L|-16:172,1,53.9999983520508,8|0,0:0|0:0,0:0:0:0:
96,20,85430,2,0,L|149:34,1,53.9999983520508,0|0,1:0|0:0,0:0:0:0:
320,87,85580,5,0,1:0:0:0:
484,136,85730,1,0,0:0:0:0:
435,300,85880,1,8,0:0:0:0:
271,251,86030,1,0,0:0:0:0:
313,74,86180,5,0,1:0:0:0:
497,128,86330,1,0,0:0:0:0:
443,312,86480,1,8,0:0:0:0:
259,258,86630,1,0,0:0:0:0:
168,112,86780,6,0,L|112:16,1,107.999996704102,0|0,1:0|0:0,0:0:0:0:
112,260,87080,2,0,L|168:356,1,107.999996704102,8|0,0:0|0:0,0:0:0:0:
224,352,87305,1,2,0:0:0:0:
253,303,87380,2,0,L|199:209,1,107.999996704102,4|0,1:2|0:0,0:0:0:0:
312,80,87680,6,0,L|394:31,1,53.9999983520508,8|0,0:0|0:0,0:0:0:0:
416,216,87830,2,0,L|465:298,1,53.9999983520508,0|0,1:0|0:0,0:0:0:0:
280,316,87980,6,0,L|187:370,1,107.999996704102,4|0,1:2|0:0,0:0:0:0:
72,240,88280,1,8,0:0:0:0:
164,96,88430,1,2,0:0:0:0:
224,100,88505,1,2,0:0:0:0:
284,104,88580,2,0,B|344:108|344:108|404:160,1,107.999996704102,4|0,1:2|0:0,0:0:0:0:
488,276,88880,5,8,0:0:0:0:
316,268,89030,1,2,0:0:0:0:
256,264,89105,1,2,0:0:0:0:
196,260,89180,2,0,B|136:256|136:256|76:204,1,107.999996704102,4|0,1:2|0:0,0:0:0:0:
48,60,89480,5,8,0:0:0:0:
216,20,89630,1,2,0:0:0:0:
220,80,89705,1,2,0:0:0:0:
224,140,89780,2,0,L|232:280,1,107.999996704102,4|0,1:2|0:0,0:0:0:0:
356,368,90080,5,8,0:0:0:0:
508,288,90230,1,2,0:0:0:0:
504,228,90305,1,2,0:0:0:0:
500,168,90380,2,0,L|492:28,1,107.999996704102,4|0,1:2|0:0,0:0:0:0:
328,8,90680,5,8,0:0:0:0:
161,43,90830,1,0,0:0:0:0:
107,206,90980,1,0,1:0:0:0:
223,335,91130,1,0,0:0:0:0:
393,299,91280,1,8,0:0:0:0:
445,134,91430,1,0,0:0:0:0:
328,8,91580,6,0,L|302:4,1,27,4|0,0:1|0:0,0:0:0:0:
224,132,91880,2,0,L|250:135,1,27,4|0,0:1|0:0,0:0:0:0:
344,256,92180,2,0,L|317:251,1,27,4|0,0:1|0:0,0:0:0:0:
240,380,92480,2,0,L|272:384,1,27,4|0,0:1|0:0,0:0:0:0:
172,232,92780,6,0,P|112:212|56:228,1,107.999996704102,4|0,1:2|0:0,0:0:0:0:
20,56,93080,1,8,0:0:0:0:
192,28,93230,1,2,0:0:0:0:
248,40,93305,1,2,0:0:0:0:
304,52,93380,2,0,L|340:160,1,107.999996704102,4|0,1:2|0:0,0:0:0:0:
388,312,93680,5,8,0:0:0:0:
216,284,93830,1,2,0:0:0:0:
160,272,93905,1,2,0:0:0:0:
104,260,93980,2,0,L|68:152,1,107.999996704102,4|0,1:2|0:0,0:0:0:0:
180,24,94280,5,8,0:0:0:0:
252,180,94430,1,2,0:0:0:0:
279,235,94505,1,2,0:0:0:0:
306,290,94580,2,0,L|412:324,1,107.999996704102,4|0,1:2|0:0,0:0:0:0:
404,152,94880,6,0,L|434:61,1,53.9999983520508,8|0,0:0|0:0,0:0:0:0:
258,80,95030,2,0,L|167:50,1,53.9999983520508,0|0,1:0|0:0,0:0:0:0:
186,226,95180,5,4,1:2:0:0:
332,298,95330,1,0,0:0:0:0:
404,152,95480,1,8,0:0:0:0:
258,80,95630,1,0,0:0:0:0:
176,229,95780,5,0,1:0:0:0:
336,308,95930,1,0,0:0:0:0:
415,148,96080,1,8,0:0:0:0:
255,69,96230,1,0,0:0:0:0:
175,230,96380,6,0,L|179:358,1,107.999996704102,0|0,1:0|0:0,0:0:0:0:
48,176,96680,2,0,L|44:48,1,107.999996704102,8|0,0:0|0:0,0:0:0:0:
96,36,96905,1,2,0:0:0:0:
153,58,96980,2,0,P|208:68|272:40,1,107.999996704102,4|0,1:2|0:0,0:0:0:0:
388,164,97280,1,8,0:0:0:0:
220,316,97430,5,0,1:0:0:0:
172,312,97505,1,0,1:0:0:0:
124,308,97580,1,4,1:2:0:0:
124,308,97880,1,4,1:2:0:0:
496,188,98180,5,4,1:2:0:0:
252,56,98330,1,4,1:2:0:0:
252,56,98630,5,4,1:2:0:0:
348,288,98780,1,4,1:2:0:0:
492,84,98930,1,4,1:2:0:0:
48,192,99230,5,4,1:2:0:0:
48,192,99530,1,4,1:2:0:0:
332,276,99830,5,0,1:0:0:0:
380,268,99905,1,0,1:0:0:0:
428,260,99980,1,4,1:2:0:0:
480,64,100130,5,4,1:2:0:0:
236,24,100280,2,0,L|200:20,6,26.9999991760254,0|0|0|0|0|0|0,1:0|1:0|1:0|1:0|1:0|1:0|1:0,0:0:0:0:
180,52,100580,5,4,1:2:0:0:
368,288,100730,1,4,1:2:0:0:
124,344,100880,6,0,L|108:348,12,13.4999995880127,0|0|0|0|0|0|0|0|0|0|0|0|0,1:0|1:0|1:0|1:0|1:0|1:0|1:0|1:0|1:0|1:0|1:0|1:0|1:0,0:0:0:0:
164,376,101180,6,0,L|192:380,1,27,4|0,0:1|0:0,0:0:0:0:
268,252,101480,2,0,L|240:248,1,27,4|0,0:1|0:0,0:0:0:0:
148,128,101780,2,0,L|175:132,1,27,4|0,0:1|0:0,0:0:0:0:
252,4,102080,2,0,L|225:1,1,27,4|0,0:1|0:0,0:0:0:0:
108,32,102380,5,6,3:2:0:0:
476,80,104180,5,2,0:0:0:0:
476,80,104780,1,2,0:0:0:0:
28,140,106580,5,2,0:0:0:0:
80,260,107180,1,2,0:0:0:0:
156,152,107780,1,2,0:0:0:0:
208,272,108380,1,2,0:0:0:0:
284,164,108980,1,2,0:0:0:0:
336,284,109580,1,2,0:0:0:0:
256,192,109655,12,0,114380,0:0:0:0:
