osu file format v14

[General]
AudioFilename: audio.mp3
AudioLeadIn: 0
PreviewTime: 62105
Countdown: 0
SampleSet: Soft
StackLeniency: 0.7
Mode: 0
LetterboxInBreaks: 0
WidescreenStoryboard: 1

[Editor]
Bookmarks: 1575,30375,63975,83175,102375
DistanceSpacing: 1.2
BeatDivisor: 4
GridSize: 4
TimelineZoom: 1.399999

[Metadata]
Title:Go Beyond!!
TitleUnicode:Go Beyond!!
Artist:Ryu* vs. Sota
ArtistUnicode:Ryu☆ vs. Sota
Creator:Anto
Version:Normal!!
Source:beatmania IIDX 13 DistorteD CS
Tags:nuvolina eletronic trance core deathstream
BeatmapID:1951436
BeatmapSetID:934522

[Difficulty]
HPDrainRate:4
CircleSize:3
OverallDifficulty:4
ApproachRate:6
SliderMultiplier:1.1
SliderTickRate:1

[Events]
//Background and Video events
0,0,"gobeyond.jpg",0,0
//Break Periods
//Storyboard Layer 0 (Background)
//Storyboard Layer 1 (Fail)
//Storyboard Layer 2 (Pass)
//Storyboard Layer 3 (Foreground)
//Storyboard Sound Samples

[TimingPoints]
380,300,4,2,1,40,1,0
380,-100,4,2,1,40,0,0
1580,-100,4,2,1,70,0,0
9980,-100,4,2,1,55,0,0
11180,-100,4,2,1,70,0,0
19580,-100,4,2,1,40,0,0
20780,-100,4,2,1,70,0,0
30380,-142.857142857143,4,2,1,30,0,0
39980,-142.857142857143,4,2,1,40,0,0
63080,-100,4,2,1,40,0,0
63980,-100,4,2,1,80,0,1
68180,-100,4,2,1,50,0,1
68780,-100,4,2,1,80,0,1
77780,-100,4,2,1,50,0,1
78380,-100,4,2,1,80,0,1
83180,-100,4,2,1,70,0,0
91580,-100,4,2,1,40,0,0
92780,-100,4,2,1,70,0,0
101180,-100,4,2,1,40,0,0
102380,-142.857142857143,4,2,1,30,0,0
114380,-100,4,2,1,10,0,0

[Colours]
Combo1 : 103,103,103
Combo2 : 206,0,0
Combo3 : 147,0,73

[HitObjects]
96,20,1580,5,4,1:2:0:0:
76,128,1880,2,0,L|56:236,1,110,0|0,1:0|1:0,0:0:0:0:
104,336,2480,1,0,1:0:0:0:
192,272,2780,2,0,L|184:168,2,82.5,0|2|2,1:0|0:0|0:0,0:0:0:0:
232,308,3380,1,0,1:0:0:0:
332,356,3680,1,0,1:0:0:0:
404,272,3980,5,0,1:0:0:0:
464,180,4280,2,0,P|480:132|472:72,1,110,0|0,1:0|1:0,0:0:0:0:
368,36,4880,1,0,1:0:0:0:
288,112,5180,2,0,L|336:196,2,82.5,4|6|6,1:2|0:2|0:2,0:0:0:0:
236,92,5780,1,4,1:2:0:0:
320,296,6380,6,0,P|376:292|416:256,1,110,4|0,1:2|1:0,0:0:0:0:
329,183,6980,1,0,1:0:0:0:
228,224,7280,1,0,1:0:0:0:
140,160,7580,6,0,P|106:176|60:176,2,82.5,4|6|6,1:2|1:2|1:2,0:0:0:0:
164,108,8180,1,4,1:2:0:0:
372,32,8780,5,4,1:2:0:0:
412,248,9380,2,0,L|428:312,2,55,4|4|4,1:2|1:2|1:2,0:0:0:0:
316,192,9980,6,0,P|344:160|384:140,2,82.5,2|2|2,0:0|0:0|0:0,0:0:0:0:
280,232,10580,2,0,L|168:228,1,110,2|0,0:0|1:0,0:0:0:0:
72,276,11180,6,0,P|106:320|159:338,1,110,0|8,1:0|0:0,0:0:0:0:
170,228,11780,1,0,1:0:0:0:
170,228,11930,2,0,L|164:60,1,165,2|0,0:0|1:0,0:0:0:0:
160,8,12530,2,0,P|108:24|68:64,2,110,2|2|2,0:0|0:0|0:0,0:0:0:0:
216,12,13280,1,8,0:0:0:0:
320,52,13580,6,0,L|316:164,1,110,0|8,1:0|0:0,0:0:0:0:
360,264,14180,2,0,P|384:252|404:232,2,55,0|2|8,1:0|0:0|0:0,0:0:0:0:
304,272,14630,1,2,0:0:0:0:
196,260,14930,2,0,L|68:248,2,110,6|6|6,1:2|1:2|1:2,0:0:0:0:
324,364,15980,6,0,P|384:368|424:340,1,110,4|8,1:2|0:0,0:0:0:0:
504,268,16580,1,0,1:0:0:0:
504,268,16730,2,0,B|492:212|492:212|452:180|452:180|440:124,1,165,2|4,0:0|1:2,0:0:0:0:
428,72,17330,2,0,P|456:84|536:84,2,110,2|2|2,0:0|0:0|0:0,0:0:0:0:
384,40,18080,1,10,0:0:0:0:
288,96,18380,6,0,L|292:216,1,110,4|8,1:2|0:0,0:0:0:0:
300,316,18980,2,0,L|368:312,2,55,4|2|8,1:2|0:0|0:0,0:0:0:0:
244,320,19430,2,0,L|176:323,1,55,2|0,0:0|0:0,0:0:0:0:
220,32,20780,6,0,P|256:48|328:44,1,110,4|8,1:2|0:0,0:0:0:0:
432,16,21380,1,0,1:0:0:0:
432,16,21530,2,0,L|428:180,1,165,2|0,0:0|1:0,0:0:0:0:
444,232,22130,2,0,P|496:208|520:160,2,110,2|2|2,0:0|0:0|0:0,0:0:0:0:
408,272,22880,1,8,0:0:0:0:
316,332,23180,6,0,L|200:336,1,110,0|8,1:0|0:0,0:0:0:0:
120,268,23780,2,0,L|116:200,2,55,0|2|8,1:0|0:0|0:0,0:0:0:0:
96,316,24230,1,2,0:0:0:0:
206,335,24530,2,0,L|316:332,2,110,2|2|2,0:0|0:0|0:0,0:0:0:0:
244,176,25580,5,4,1:2:0:0:
304,84,25880,1,4,1:2:0:0:
200,48,26180,1,4,1:2:0:0:
148,32,26330,1,4,1:2:0:0:
48,80,26630,2,0,P|38:47|41:17,2,55,4|4|4,1:2|1:2|1:2,0:0:0:0:
120,164,27230,2,0,L|112:288,1,110,4|4,1:2|1:2,0:0:0:0:
108,328,27680,1,0,1:0:0:0:
216,356,27980,6,0,P|288:360|404:264,2,220,4|4|4,1:2|1:2|1:2,0:0:0:0:
151,82,30380,6,0,P|175:54|293:46,1,153.999995300293,6|2,0:0|0:0,0:0:0:0:
410,106,31580,2,0,L|398:269,1,153.999995300293,2|2,0:0|0:0,0:0:0:0:
398,259,32780,1,2,0:0:0:0:
52,264,34580,5,2,0:0:0:0:
52,264,35180,2,0,B|110:242|124:266|137:290|206:263,1,153.999995300293,2|2,0:0|0:0,0:0:0:0:
337,233,36380,2,0,P|373:180|362:93,1,153.999995300293,2|2,0:0|0:0,0:0:0:0:
362,94,37580,1,2,0:0:0:0:
16,164,39380,5,2,0:0:0:0:
16,164,39980,2,0,P|69:202|158:189,1,153.999995300293,6|2,3:2|0:0,0:0:0:0:
224,69,41180,2,0,P|280:60|368:114,1,153.999995300293,2|2,3:2|0:0,0:0:0:0:
362,105,42380,1,2,3:2:0:0:
364,348,44180,5,2,3:2:0:0:
364,348,44780,2,0,L|206:356,1,153.999995300293,2|2,3:2|0:0,0:0:0:0:
136,232,45980,2,0,L|291:224,1,153.999995300293,2|2,3:2|0:0,0:0:0:0:
289,224,47180,1,2,3:2:0:0:
492,248,48980,5,2,0:0:0:0:
492,248,49580,1,2,3:2:0:0:
216,24,51380,5,2,0:0:0:0:
216,24,51980,1,2,0:0:0:0:
176,276,53780,6,0,B|176:348|176:348|188:356|188:356|256:356,2,153.999995300293,2|2|2,0:0|0:0|0:0,0:0:0:0:
336,276,55580,2,0,B|336:348|336:348|324:356|324:356|256:356,2,153.999995300293,2|2|2,0:0|0:0|0:0,0:0:0:0:
256,192,56855,12,2,60380,0:0:0:0:
256,192,60455,12,2,62780,0:0:0:0:
104,36,63980,6,0,L|220:44,1,110,0|0,1:0|1:0,0:0:0:0:
288,124,64580,1,0,1:0:0:0:
236,220,64880,1,0,1:0:0:0:
304,308,65180,2,0,P|356:328|408:316,1,110,0|0,1:0|1:0,0:0:0:0:
468,224,65780,1,0,1:0:0:0:
452,116,66080,2,0,L|384:96,1,55,0|0,1:0|1:0,0:0:0:0:
348,84,66380,1,0,1:0:0:0:
284,172,66680,6,0,P|236:176|172:140,1,110,0|0,1:0|1:0,0:0:0:0:
164,40,67280,2,0,P|109:33|59:53,1,110,0|0,1:0|1:0,0:0:0:0:
4,148,67880,1,0,1:0:0:0:
24,256,68180,2,0,P|56:320|192:328,1,220,0|4,1:0|1:2,0:0:0:0:
292,284,69080,5,0,1:0:0:0:
256,180,69380,2,0,P|244:128|260:72,1,110,0|0,1:0|1:0,0:0:0:0:
360,32,69980,2,0,L|472:44,1,110,0|0,1:0|1:0,0:0:0:0:
508,148,70580,1,0,1:0:0:0:
464,248,70880,1,0,1:0:0:0:
364,296,71180,6,0,P|308:292|260:316,1,110,0|0,1:0|1:0,0:0:0:0:
160,360,71780,1,0,1:0:0:0:
88,276,72080,2,0,L|80:152,1,110,0|2,1:0|0:0,0:0:0:0:
80,166,73580,5,4,1:2:0:0:
136,72,73880,2,0,P|175:37|240:28,1,110,0|0,1:0|1:0,0:0:0:0:
340,32,74480,2,0,L|336:104,1,55,0|0,1:0|0:0,0:0:0:0:
336,140,74780,2,0,P|380:152|452:124,1,110,0|0,1:0|1:0,0:0:0:0:
496,228,75380,1,0,1:0:0:0:
432,320,75680,2,0,L|368:312,1,55,0|0,1:0|1:0,0:0:0:0:
324,304,75980,1,0,1:0:0:0:
224,352,76280,5,0,1:0:0:0:
156,264,76580,2,0,P|185:210|234:191,1,110,0|0,1:0|1:0,0:0:0:0:
324,136,77180,2,0,P|327:82|297:37,1,110,0|0,1:0|1:0,0:0:0:0:
188,20,77780,2,0,P|112:24|16:124,1,220,0|4,1:0|1:2,0:0:0:0:
64,224,78680,6,0,P|112:216|172:240,1,110,0|0,1:0|1:0,0:0:0:0:
212,340,79280,2,0,L|276:336,1,55,0|0,1:0|0:0,0:0:0:0:
324,332,79580,1,4,1:2:0:0:
428,296,79880,2,0,P|448:260|444:184,1,110,0|0,1:0|1:0,0:0:0:0:
400,92,80480,2,0,L|336:88,1,55,0|0,1:0|1:0,0:0:0:0:
288,84,80780,5,4,1:2:0:0:
184,124,81080,1,0,1:0:0:0:
236,220,81380,1,4,1:2:0:0:
128,240,81680,1,0,1:0:0:0:
152,349,81980,1,2,0:0:0:0:
152,349,83180,6,0,L|160:240,1,110,4|8,1:2|0:0,0:0:0:0:
56,208,83780,2,0,L|63:98,1,110,4|8,1:2|0:0,0:0:0:0:
152,32,84380,1,4,1:2:0:0:
228,112,84680,2,0,P|272:120|344:92,1,110,8|4,0:0|1:2,0:0:0:0:
424,36,85280,2,0,P|408:17|380:0,2,55,8|0|0,0:0|1:0|1:0,0:0:0:0:
488,128,85880,5,8,0:0:0:0:
432,224,86180,2,0,L|380:324,1,110,0|8,1:0|0:0,0:0:0:0:
284,372,86780,2,0,P|271:327|294:256,1,110,0|8,1:0|0:0,0:0:0:0:
248,164,87380,1,4,1:2:0:0:
276,56,87680,2,0,L|336:64,2,55,8|0|4,0:0|1:0|1:2,0:0:0:0:
168,36,88280,5,8,0:0:0:0:
76,92,88580,2,0,L|84:208,1,110,4|8,1:2|0:0,0:0:0:0:
192,216,89180,2,0,L|200:332,1,110,4|8,1:2|0:0,0:0:0:0:
304,364,89780,1,4,1:2:0:0:
404,320,90080,1,8,0:0:0:0:
376,216,90380,6,0,L|344:104,1,110,4|8,1:2|0:0,0:0:0:0:
312,4,90980,1,0,1:0:0:0:
212,48,91280,2,0,P|156:64|100:56,1,110,8|8,0:0|0:0,0:0:0:0:
105,57,92780,6,0,P|132:108|184:128,1,110,4|8,1:2|0:0,0:0:0:0:
288,136,93380,2,0,P|337:158|361:206,1,110,4|8,1:2|0:0,0:0:0:0:
344,316,93980,1,4,1:2:0:0:
236,324,94280,2,0,L|112:332,1,110,8|4,0:0|1:2,0:0:0:0:
24,288,94880,2,0,P|16:315|18:353,2,55,8|0|4,0:0|1:0|1:2,0:0:0:0:
60,184,95480,5,8,0:0:0:0:
164,216,95780,2,0,L|276:204,1,110,0|8,1:0|0:0,0:0:0:0:
384,188,96380,2,0,L|496:176,1,110,0|8,1:0|0:0,0:0:0:0:
460,72,96980,1,4,1:2:0:0:
356,40,97280,2,0,L|280:20,2,55,8|0|4,0:0|1:0|1:2,0:0:0:0:
460,72,97880,5,4,1:2:0:0:
448,180,98180,1,4,1:2:0:0:
440,236,98330,1,4,1:2:0:0:
436,344,98630,2,0,P|464:352|496:348,2,55,4|4|4,1:2|1:2|1:2,0:0:0:0:
332,312,99230,2,0,L|200:320,1,110,4|4,1:2|1:2,0:0:0:0:
112,308,99830,5,0,1:0:0:0:
72,272,99980,2,0,L|40:40,2,220,4|4|8,1:2|1:2|0:0,0:0:0:0:
252,352,101780,5,2,0:0:0:0:
252,352,102380,1,6,3:2:0:0:
372,48,104180,5,2,0:0:0:0:
372,48,104780,1,2,0:0:0:0:
96,112,106580,6,0,B|24:112|24:112|16:124|16:124|16:192,2,153.999995300293,2|2|2,0:0|0:0|0:0,0:0:0:0:
96,272,108380,2,0,B|24:272|24:272|16:260|16:260|16:192,2,153.999995300293,2|2|2,0:0|0:0|0:0,0:0:0:0:
256,192,109655,12,0,114380,0:0:0:0:
