osu file format v14

[General]
AudioFilename: audio.mp3
AudioLeadIn: 0
PreviewTime:55208
Countdown: 0
SampleSet: Soft
StackLeniency: 0.4
Mode: 0
LetterboxInBreaks: 0
WidescreenStoryboard: 1

[Editor]
DistanceSpacing: 1
BeatDivisor: 4
GridSize: 4
TimelineZoom: 1.199999

[Metadata]
Title:PARADISE GHOST
TitleUnicode:PARADISE GHOST
Artist:Ryu* vs. L.E.D.-G vs. ZUN
ArtistUnicode:Ryu☆ vs. L.E.D.-G vs. ZUN
Creator:Leader
Version:Normal
Source:beatmania IIDX 18 Resort Anthem
Tags:Seolv [_L_u_k_a_s_] Krimek Lugu Atmo RandomBemani Byakko+ Mashup PARADISE LOST Touhou 東方Project 東方妖々夢 ~ Perfect Cherry Blossom. Hiroari Shoots Strange Bird ~ Till When? Konpaku Youmu Electronic Instrumental Video Game
BeatmapID:2382842
BeatmapSetID:1074982

[Difficulty]
HPDrainRate:4
CircleSize:3
OverallDifficulty:4
ApproachRate:6
SliderMultiplier:1.1
SliderTickRate:1

[Events]
//Background and Video events
0,0,"bg.png",0,0
//Break Periods
2,12208,18158
2,43408,44558
2,86608,94958
//Storyboard Layer 0 (Background)
//Storyboard Layer 1 (Fail)
//Storyboard Layer 2 (Pass)
//Storyboard Layer 3 (Foreground)
//Storyboard Layer 4 (Overlay)
//Storyboard Sound Samples

[TimingPoints]
8,600,4,2,1,40,1,0
12008,-100,4,2,1,50,0,0
12533,-100,4,2,1,5,0,0
12683,-100,4,2,1,50,0,0
13133,-100,4,2,1,5,0,0
13283,-100,4,2,1,50,0,0
13733,-100,4,2,1,5,0,0
13883,-100,4,2,1,50,0,0
14333,-100,4,2,1,5,0,0
14483,-100,4,2,1,50,0,0
14933,-100,4,2,1,5,0,0
15083,-100,4,2,1,50,0,0
15533,-100,4,2,1,5,0,0
15683,-100,4,2,1,50,0,0
16133,-100,4,2,1,5,0,0
16283,-100,4,2,1,50,0,0
16508,-100,4,2,1,25,0,0
16808,-100,4,2,1,50,0,0
19208,300,4,1,1,60,1,0
21608,-100,4,2,1,40,0,0
22508,-100,4,2,1,40,0,0
24008,-100,4,1,1,60,0,0
44408,-100,4,2,1,40,0,0
45608,-100,4,1,1,40,0,0
50408,-100,4,1,1,50,0,0
51608,-100,4,1,1,60,0,0
55208,-100,4,1,1,70,0,1
64508,-100,4,1,1,70,0,0
64658,-100,4,1,1,60,0,0
64808,-100,4,1,1,70,0,1
74408,-100,4,1,1,60,0,0
84008,-100,4,2,1,60,0,0
86408,-100,4,2,1,5,0,0
94808,-100,4,2,1,60,0,0
106058,-100,4,2,1,5,0,0
106208,-100,4,1,1,60,0,0
106808,-100,4,1,1,70,0,1
116108,-100,4,1,1,70,0,0
116258,-100,4,1,1,60,0,0
116408,-100,4,1,1,70,0,1
126008,-100,4,1,1,60,0,1
126608,-100,4,1,1,50,0,0
127208,-100,4,1,1,40,0,0
127808,-100,4,1,1,30,0,0
128408,-100,4,1,1,20,0,0
129008,-100,4,1,1,10,0,0
129608,-100,4,1,1,5,0,0

[Colours]
Combo1 : 241,249,108
Combo2 : 62,183,137
Combo3 : 24,158,231
Combo4 : 145,197,48

[HitObjects]
68,74,2408,6,0,P|71:123|73:207,1,110,4|0,0:0|0:0,0:0:0:0:
73,293,3608,1,0,0:0:0:0:
172,246,4208,1,0,1:0:0:0:
197,294,4508,1,0,0:0:0:0:
223,342,4808,2,0,P|292:345|348:349,1,110,0|0,0:0|1:0,0:0:0:0:
422,283,6008,2,0,P|427:248|436:208,1,55
447,176,6608,1,2,0:0:0:0:
341,207,7208,6,0,P|296:215|218:224,1,110,4|0,0:0|1:0,0:0:0:0:
123,205,8408,2,0,L|117:143,1,55
172,138,9008,2,0,L|177:76,1,55,0|0,1:0|0:0,0:0:0:0:
144,38,9608,1,4,0:0:0:0:
253,0,10208,1,0,1:0:0:0:
345,59,10808,2,0,P|355:114|359:189,1,110,0|0,0:0|1:0,0:0:0:0:
348,277,12008,1,4,0:0:0:0:
256,192,19208,12,2,21608,1:0:0:0:
51,234,22808,5,2,0:0:0:0:
97,134,23108,1,0,0:0:0:0:
159,221,23408,2,2,P|165:252|168:286,1,55,2|0,1:0|0:0,0:0:0:0:
194,322,23708,2,2,L|257:332,1,55,2|0,1:0|0:0,0:0:0:0:
303,337,24008,5,4,0:0:0:0:
398,290,24308,2,0,L|466:280,2,55,2|0|0,0:0|0:0|0:0,0:0:0:0:
300,238,24908,2,0,P|292:201|283:165,1,55,2|0,0:0|0:0,0:0:0:0:
248,144,25208,2,0,L|125:133,1,110,0|2,0:0|0:0,0:0:0:0:
83,128,25658,1,0,0:0:0:0:
28,123,25808,1,6,0:0:0:0:
75,222,26108,1,6,0:0:0:0:
35,324,26408,6,0,P|86:330|159:344,1,110,0|2,0:0|0:0,0:0:0:0:
197,352,26858,1,0,0:0:0:0:
250,364,27008,1,0,0:0:0:0:
326,285,27308,1,2,0:0:0:0:
431,315,27608,2,0,P|434:260|445:184,1,110,0|2,0:0|0:0,0:0:0:0:
449,151,28058,1,0,0:0:0:0:
468,99,28208,2,0,L|526:90,2,55,4|0|6,0:0|0:0|0:0,0:0:0:0:
359,118,28808,5,0,0:0:0:0:
271,59,29108,1,2,0:0:0:0:
271,59,29258,2,0,P|267:93|265:132,1,55
231,218,29708,2,0,P|235:252|237:291,1,55,2|0,0:0|0:0,0:0:0:0:
263,320,30008,2,0,P|308:322|388:329,1,110,0|2,0:0|0:0,0:0:0:0:
427,332,30458,1,0,0:0:0:0:
481,336,30608,1,6,0:0:0:0:
438,234,30908,1,6,0:0:0:0:
349,169,31208,6,0,P|345:118|348:49,1,110,0|2,0:0|0:0,0:0:0:0:
367,8,31658,2,0,L|241:21,1,110
203,29,32108,1,2,0:0:0:0:
94,11,32408,1,4,0:0:0:0:
74,119,32708,1,6,0:0:0:0:
182,138,33008,1,4,0:0:0:0:
203,29,33308,1,2,0:0:0:0:
283,104,33608,6,0,B|320:218|259:220|290:329,1,220,2|2,0:0|0:0,0:0:0:0:
379,381,34508,1,2,0:0:0:0:
457,304,34808,2,0,L|463:178,1,110,2|2,0:0|0:0,0:0:0:0:
450,84,35408,2,2,P|419:101|392:131,1,55,6|0,0:0|0:0,0:0:0:0:
360,147,35708,2,0,L|296:155,1,55,2|0,0:0|0:0,0:0:0:0:
258,125,36008,6,0,P|205:106|108:222,1,220,2|2,0:0|0:0,0:0:0:0:
145,312,36908,1,2,0:0:0:0:
241,371,37208,2,0,P|294:371|375:377,1,110,2|2,0:0|0:0,0:0:0:0:
452,330,37808,2,0,L|459:262,1,55,6|0,0:0|0:0,0:0:0:0:
409,247,38108,2,0,L|402:179,1,55,6|0,0:0|0:0,0:0:0:0:
385,139,38408,6,0,P|346:117|240:231,1,220,6|2,0:0|0:0,0:0:0:0:
282,315,39308,1,2,0:0:0:0:
189,374,39608,2,0,L|72:384,1,110,2|2,0:0|0:0,0:0:0:0:
32,280,40208,2,2,P|31:241|24:209,1,55,6|0,0:0|0:0,0:0:0:0:
11,172,40508,2,0,L|77:162,1,55,6|0,0:0|0:0,0:0:0:0:
117,182,40808,6,0,P|171:210|281:105,1,220,6|2,0:0|0:0,0:0:0:0:
347,34,41708,1,2,0:0:0:0:
414,121,42008,2,0,P|428:184|429:244,1,110,6|6,0:0|0:0,0:0:0:0:
414,338,42608,2,0,L|346:349,1,55,6|0,0:0|0:0,0:0:0:0:
311,319,42908,2,0,L|256:310,1,55,2|0,0:0|0:0,0:0:0:0:
211,341,43208,5,0,0:0:0:0:
99,68,45608,6,0,P|105:98|101:193,1,110,4|0,0:0|0:0,0:0:0:0:
100,231,46058,2,0,L|36:240,2,55
140,267,46508,1,0,0:0:0:0:
168,373,46808,2,0,L|278:382,1,110
324,352,47258,1,0,0:0:0:0:
433,348,47558,2,0,P|437:315|449:276,1,55
462,191,48008,6,0,L|334:180,1,110
297,175,48458,1,0,0:0:0:0:
242,171,48608,2,0,P|235:124|219:50,1,110
127,16,49208,5,0,0:0:0:0:
97,122,49508,1,0,0:0:0:0:
65,166,49658,1,0,0:0:0:0:
35,212,49808,2,0,P|42:253|44:347,1,110
146,363,50408,5,4,0:0:0:0:
237,301,50708,1,0,0:0:0:0:
277,263,50858,2,0,L|268:189,2,55,0|4|0,0:0|0:0|0:0,0:0:0:0:
321,295,51308,1,0,0:0:0:0:
416,349,51608,1,4,0:0:0:0:
482,261,51908,1,0,0:0:0:0:
468,207,52058,2,0,P|459:164|467:86,1,110
483,46,52508,1,0,0:0:0:0:
256,192,52808,12,6,54008,0:0:0:0:
47,48,55208,5,4,0:0:0:0:
116,133,55508,1,8,0:0:0:0:
199,61,55808,1,0,0:0:0:0:
240,163,56108,2,0,P|251:203|256:237,1,55,8|0,0:0|0:0,0:0:0:0:
268,269,56408,2,0,L|391:286,1,110,0|8,0:0|0:0,0:0:0:0:
465,217,57008,2,0,L|519:209,2,55,4|0|12,0:0|0:0|0:0,0:0:0:0:
358,188,57608,6,0,P|354:137|367:68,1,110,0|8,0:0|0:0,0:0:0:0:
388,30,58058,1,0,0:0:0:0:
341,0,58208,2,0,L|219:15,1,110,0|8,0:0|0:0,0:0:0:0:
127,49,58808,2,0,P|136:94|132:168,1,110,0|8,0:0|0:0,0:0:0:0:
121,211,59258,1,0,0:0:0:0:
108,264,59408,2,0,L|229:286,1,110,4|12,0:0|0:0,0:0:0:0:
307,345,60008,6,0,P|353:349|410:197,1,220,4|0,0:0|0:0,0:0:0:0:
327,159,60908,2,0,L|334:90,1,55,12|0,0:0|0:0,0:0:0:0:
342,49,61208,1,0,0:0:0:0:
248,106,61508,1,8,0:0:0:0:
164,34,61808,2,0,P|154:73|148:164,1,110,4|12,0:0|0:0,0:0:0:0:
181,247,62408,6,0,L|296:262,1,110,0|8,0:0|0:0,0:0:0:0:
344,270,62858,1,0,0:0:0:0:
398,276,63008,2,0,P|413:229|417:152,1,110,0|8,0:0|0:0,0:0:0:0:
390,61,63608,1,4,0:0:0:0:
321,147,63908,1,12,0:0:0:0:
236,76,64208,1,4,0:0:0:0:
191,176,64508,1,12,0:0:0:0:
101,112,64808,6,0,P|79:166|180:283,1,220,4|0,0:0|0:0,0:0:0:0:
259,221,65708,2,0,P|270:255|276:286,1,55,12|0,0:0|0:0,0:0:0:0:
294,324,66008,2,0,L|418:336,1,110,0|8,0:0|0:0,0:0:0:0:
482,257,66608,2,0,L|491:197,2,55,4|0|12,0:0|0:0|0:0,0:0:0:0:
372,245,67208,6,0,P|363:194|367:132,1,110,0|8,0:0|0:0,0:0:0:0:
381,82,67658,1,0,0:0:0:0:
400,31,67808,2,0,L|264:21,1,110,0|8,0:0|0:0,0:0:0:0:
250,125,68408,2,0,L|123:142,1,110,4|8,0:0|0:0,0:0:0:0:
42,91,69008,2,0,P|30:137|41:208,1,110,4|12,0:0|0:0,0:0:0:0:
118,272,69608,6,0,B|226:255|226:329|335:311,1,220
437,334,70508,1,12,0:0:0:0:
428,227,70808,2,0,P|420:169|429:101,1,110,0|8,0:0|0:0,0:0:0:0:
440,8,71408,1,4,0:0:0:0:
341,78,71708,1,12,0:0:0:0:
253,11,72008,5,4,0:0:0:0:
125,190,72608,1,0,0:0:0:0:
255,367,73208,1,4,0:0:0:0:
386,190,73808,1,2,0:0:0:0:
253,365,74408,6,0,L|123:373,1,110,4|2,0:0|0:0,0:0:0:0:
92,273,75008,2,0,L|222:265,1,110,0|2,0:0|0:0,0:0:0:0:
243,163,75608,2,0,L|113:171,1,110,0|2,0:0|0:0,0:0:0:0:
82,71,76208,2,0,L|212:63,1,110,4|2,0:0|0:0,0:0:0:0:
284,3,76808,5,0,0:0:0:0:
335,100,77108,1,2,0:0:0:0:
418,28,77408,2,0,P|434:86|437:155,1,110,0|2,0:0|0:0,0:0:0:0:
420,244,78008,2,0,L|303:261,1,110,0|2,0:0|0:0,0:0:0:0:
202,273,78608,1,2,0:0:0:0:
138,362,78908,1,2,0:0:0:0:
55,289,79208,6,0,L|38:60,1,220,6|2,0:0|0:0,0:0:0:0:
128,5,80108,2,0,P|150:44|162:78,1,55,2|0,0:0|0:0,0:0:0:0:
171,105,80408,2,0,L|402:125,1,220,2|6,0:0|0:0,0:0:0:0:
499,138,81308,1,6,0:0:0:0:
425,219,81608,6,0,P|417:262|410:327,1,110,6|2,0:0|0:0,0:0:0:0:
308,371,82208,2,0,L|179:380,1,110,6|2,0:0|0:0,0:0:0:0:
102,324,82808,2,0,P|75:271|261:197,1,330,6|0,0:0|0:0,0:0:0:0:
256,192,84008,12,0,86408,0:0:0:0:
109,52,96008,6,0,P|116:100|120:178,1,110,4|0,0:0|0:0,0:0:0:0:
107,270,96608,2,0,L|27:282,2,55,0|0|2,0:0|0:0|0:0,0:0:0:0:
216,260,97208,1,0,0:0:0:0:
395,371,97808,1,0,0:0:0:0:
488,172,98408,5,0,0:0:0:0:
320,29,99008,2,0,P|308:60|293:149,1,110,0|2,0:0|0:0,0:0:0:0:
285,189,99458,1,0,0:0:0:0:
280,243,99608,2,0,L|153:259,1,110
116,264,100058,1,0,0:0:0:0:
146,100,100508,2,0,P|141:75|122:27,1,55
99,4,100808,5,4,1:0:0:0:
255,158,101408,1,0,0:0:0:0:
339,87,101708,2,0,P|354:125|361:162,1,55,0|0,0:0|1:0,0:0:0:0:
364,193,102008,1,4,1:0:0:0:
252,382,102608,1,0,0:0:0:0:
187,293,102908,2,0,P|181:258|170:224,1,55,2|0,0:0|1:0,0:0:0:0:
152,188,103208,6,0,L|273:199,1,110,4|0,0:0|0:0,0:0:0:0:
353,259,103808,2,0,P|362:211|356:137,1,110,4|0,0:0|0:0,0:0:0:0:
351,95,104258,1,0,0:0:0:0:
331,43,104408,1,4,0:0:0:0:
203,222,105008,1,0,1:0:0:0:
77,41,105608,1,4,0:0:0:0:
77,41,106808,6,0,P|90:105|90:160,1,110,6|8,0:0|0:0,0:0:0:0:
86,204,107258,1,2,0:0:0:0:
77,258,107408,2,0,L|194:275,1,110,0|8,0:0|0:0,0:0:0:0:
272,341,108008,2,0,L|386:329,1,110,0|10,0:0|0:0,0:0:0:0:
490,316,108608,1,4,0:0:0:0:
425,227,108908,2,0,P|428:189|435:157,1,55,12|0,0:0|0:0,0:0:0:0:
446,119,109208,6,0,L|314:131,1,110,6|8,0:0|0:0,0:0:0:0:
281,133,109658,1,2,0:0:0:0:
226,137,109808,2,0,P|216:94|214:22,1,110,0|8,0:0|0:0,0:0:0:0:
105,8,110408,2,0,L|93:126,1,110,0|8,0:0|0:0,0:0:0:0:
142,215,111008,2,0,L|150:328,1,110,4|12,0:0|0:0,0:0:0:0:
253,361,111608,6,0,P|316:369|375:350,1,110,6|8,0:0|0:0,0:0:0:0:
407,328,112058,1,2,0:0:0:0:
452,296,112208,1,0,0:0:0:0:
367,225,112508,2,0,P|370:175|376:150,1,55,8|0,0:0|0:0,0:0:0:0:
389,118,112808,2,0,L|270:106,1,110,2|8,0:0|0:0,0:0:0:0:
225,97,113258,1,2,0:0:0:0:
170,89,113408,1,4,0:0:0:0:
207,192,113708,2,0,P|214:225|215:258,1,55,12|0,0:0|0:0,0:0:0:0:
223,300,114008,5,6,0:0:0:0:
323,255,114308,1,8,0:0:0:0:
356,359,114608,1,2,0:0:0:0:
444,294,114908,1,8,0:0:0:0:
408,189,115208,2,0,P|399:143|408:62,1,110,4|12,0:0|0:0,0:0:0:0:
424,29,115658,1,2,0:0:0:0:
375,2,115808,2,0,L|253:18,1,110,2|10,0:0|0:0,0:0:0:0:
156,4,116408,6,0,P|157:55|169:124,1,110,6|0,0:0|0:0,0:0:0:0:
179,166,116858,1,2,0:0:0:0:
192,219,117008,2,0,L|320:233,1,110,0|8,0:0|0:0,0:0:0:0:
381,161,117608,2,0,P|404:199|305:327,1,220,2|6,0:0|0:0,0:0:0:0:
216,363,118508,2,0,L|142:369,1,55,12|2,0:0|0:0,0:0:0:0:
115,336,118808,6,0,P|105:287|86:224,1,110,6|8,0:0|0:0,0:0:0:0:
62,180,119258,1,2,0:0:0:0:
44,127,119408,2,0,L|170:138,1,110,2|8,0:0|0:0,0:0:0:0:
263,148,120008,1,0,0:0:0:0:
266,38,120308,1,0,0:0:0:0:
349,109,120608,1,4,0:0:0:0:
364,0,120908,1,0,0:0:0:0:
442,77,121208,6,0,P|457:124|464:195,1,110,4|8,0:0|0:0,0:0:0:0:
461,239,121658,1,0,0:0:0:0:
449,292,121808,1,0,0:0:0:0:
352,238,122108,1,8,0:0:0:0:
280,326,122408,2,0,L|165:340,1,110,4|8,0:0|0:0,0:0:0:0:
103,251,123008,2,0,L|218:237,1,110,4|12,0:0|0:0,0:0:0:0:
320,220,123608,6,0,P|329:165|309:102,1,110,4|8,0:0|0:0,0:0:0:0:
292,62,124058,1,0,0:0:0:0:
238,47,124208,2,0,L|111:40,1,110,12|8,0:0|0:0,0:0:0:0:
85,142,124808,2,0,L|212:149,1,110,4|4,0:0|0:0,0:0:0:0:
232,251,125408,2,0,L|105:244,1,110,4|4,0:0|0:0,0:0:0:0:
256,192,126008,12,0,129608,2:0:0:0:
