osu file format v14

[General]
AudioFilename: Din Don Dan.mp3
AudioLeadIn: 1500
PreviewTime: 16030
Countdown: 0
SampleSet: Soft
StackLeniency: 0.7
Mode: 0
LetterboxInBreaks: 1
EpilepsyWarning: 1
WidescreenStoryboard: 1

[Editor]
DistanceSpacing: 1.2
BeatDivisor: 4
GridSize: 4
TimelineZoom: 2.7

[Metadata]
Title:Din Don Dan
TitleUnicode:Din Don Dan
Artist:Ryu* feat.Mayumi Morinaga
ArtistUnicode:Ryu☆ feat.Mayumi Morinaga
Creator:moonlightleaf
Version:Hard
Source:DanceDanceRevolution
Tags:-ClariS- sahuang karen Pata-Mon senya
BeatmapID:1004557
BeatmapSetID:469782

[Difficulty]
HPDrainRate:5
CircleSize:4
OverallDifficulty:6
ApproachRate:7
SliderMultiplier:1.4
SliderTickRate:1

[Events]
//Background and Video events
0,0,"bg.jpg",0,0
//Break Periods
//Storyboard Layer 0 (Background)
//Storyboard Layer 1 (Fail)
//Storyboard Layer 2 (Pass)
//Storyboard Layer 3 (Foreground)
Sprite,Foreground,Centre,"SB\light.jpg",320,240 R,0,30172,,-0.148645 C,0,30172,,0,0,0 V,0,30172,,1.5,1 F,0,30172,30601,0,0.245 M,0,30172,43458,312.5677,122.9161 F,0,43030,43458,0.245,0
Sprite,Foreground,Centre,"SB\light.jpg",320,240 R,0,30172,,0.148645 C,0,30172,,0,0,0 V,0,30172,,1.5,1 F,0,30172,30601,0,0.245 M,0,30172,43458,286.9677,258.0774 F,0,43030,43458,0.245,0
Sprite,Foreground,Centre,"SB\light.jpg",320,240 R,0,30172,,-0.1486456 C,0,30172,,0,0,0 V,0,30172,,1.5,1 F,0,30172,30601,0,0.245 M,0,30172,43458,349.729,397.3677 F,0,43030,43458,0.245,0
Sprite,Foreground,Centre,"SB\moonlightleaf+.png",320,240 R,0,30172,,0.1486456 C,0,30172,,128,0,255 M,0,30172,43458,471.1226,284.7742,296.0516,260 F,0,31458,31887,0,1 F,0,31887,33172,1 F,0,33172,33387,1,0 F,0,33387,33601,0,1 F,0,33601,43030,1 F,0,43030,43458,1,0
Sprite,Foreground,Centre,"SB\moonlightleaf.png",320,240 R,0,30172,,0.1486456 C,0,30172,,255,179,217 M,0,30172,43458,471.1226,284.7742,296.0516,260 F,0,31458,31887,0,1 F,0,31887,33172,1 F,0,33172,33387,1,0 F,0,33387,33601,0,1 F,0,33601,43030,1 F,0,43030,43458,1,0
//Storyboard Sound Samples

[TimingPoints]
1030,428.571428571429,4,2,1,90,1,0
1030,-100,4,2,1,90,0,0
7887,-100,4,2,1,90,0,0
11315,-100,4,2,1,92,0,0
11637,-100,4,2,1,92,0,0
11958,-100,4,2,1,92,0,0
12172,-100,4,2,1,93,0,0
12387,-100,4,2,1,93,0,0
12601,-100,4,2,1,93,0,0
12815,-100,4,2,1,93,0,0
13030,-100,4,2,1,94,0,0
13351,-100,4,2,1,94,0,0
13672,-100,4,2,1,94,0,0
13887,-100,4,2,1,95,0,0
14101,-100,4,2,1,95,0,0
14315,-100,4,2,1,95,0,0
14530,-100,4,2,1,95,0,0
14744,-100,4,2,1,96,0,0
14958,-100,4,2,1,96,0,0
15065,-100,4,2,1,96,0,0
15172,-100,4,2,1,96,0,0
15494,-100,4,2,1,96,0,0
15601,-100,4,2,1,97,0,0
15815,-100,4,2,1,97,0,0
16030,-100,4,2,1,97,0,0
16244,-100,4,2,1,97,0,0
16458,-100,4,2,1,100,0,1
30172,-100,4,2,1,98,0,0
43887,-100,4,2,1,96,0,0
57601,-100,4,2,1,98,0,0
73030,-100,4,2,1,100,0,1
100458,-100,4,2,1,100,0,0

[Colours]
Combo1 : 255,128,192
Combo2 : 202,202,255
Combo3 : 254,251,180

[HitObjects]
324,232,1030,6,0,P|273:243|224:226,2,105,2|0|0,0:0|0:0|0:0,0:0:0:0:
324,232,2101,2,0,L|333:301,2,70,0|0|0,0:0|0:0|0:0,0:0:0:0:
396,188,2744,6,0,P|446:199|495:182,2,105,0|0|0,0:0|0:0|0:0,0:0:0:0:
396,188,3815,1,0,0:0:0:0:
352,116,4030,2,0,L|316:80,3,35,2|2|2|2,0:0|0:0|0:0|0:0,0:0:0:0:
296,64,4458,6,0,P|245:52|196:69,2,105,2|0|0,0:0|0:0|0:0,0:0:0:0:
296,64,5530,2,0,L|364:51,2,70,0|0|0,0:0|0:0|0:0,0:0:0:0:
248,132,6172,6,0,P|231:181|242:231,2,105,0|0|0,0:0|0:0|0:0,0:0:0:0:
248,132,7244,1,2,0:0:0:0:
168,112,7458,2,0,P|133:112|100:101,1,70,2|2,0:0|0:0,0:0:0:0:
51,32,7887,6,0,P|21:74|20:125,2,105,2|0|0,0:0|0:0|0:0,0:0:0:0:
51,32,8958,1,0,0:0:0:0:
135,35,9172,2,0,P|170:39|205:36,1,70,0|0,0:0|0:0,0:0:0:0:
252,108,9601,6,0,P|265:157|248:206,2,105,0|0|0,0:0|0:0|0:0,0:0:0:0:
252,108,10672,1,0,0:0:0:0:
332,84,10887,2,0,L|366:76,3,35,2|2|2|2,0:0|0:0|0:0|0:0,0:0:0:0:
400,100,11315,6,0,P|399:151|428:194,2,105,0|0|0,2:3|2:3|2:3,0:0:0:0:
400,100,12387,1,0,2:3:0:0:
332,52,12601,2,0,P|297:47|264:57,1,70,0|0,2:3|2:3,0:0:0:0:
200,116,13030,6,0,P|150:100|116:61,2,105,0|0|0,2:3|2:3|2:3,0:0:0:0:
200,116,14101,1,0,2:3:0:0:
231,191,14315,2,0,P|233:226|229:261,1,70,0|0,2:3|2:3,0:0:0:0:
160,308,14744,6,0,L|125:314,3,35,0|0|0|0,2:3|2:3|2:3|2:3,0:0:0:0:
84,304,15172,2,0,L|70:271,3,35,0|0|0|0,2:3|2:3|2:3|2:3,0:0:0:0:
68,228,15601,2,0,L|80:195,3,35,0|0|0|0,0:0|0:0|0:0|0:0,0:0:0:0:
96,156,16030,1,2,0:0:0:0:
164,104,16244,1,2,0:0:0:0:
228,160,16458,6,0,P|258:176|293:179,1,70,4|0,2:1|0:0,0:0:0:0:
355,119,16887,2,0,P|325:103|290:99,1,70,8|0,0:0|0:0,0:0:0:0:
228,160,17315,1,0,0:0:0:0:
208,78,17530,1,0,0:0:0:0:
148,136,17744,2,0,L|72:168,1,70,8|0,0:0|0:0,0:0:0:0:
20,216,18172,5,2,0:0:0:0:
16,300,18387,1,0,0:0:0:0:
92,264,18601,2,0,P|124:253|159:254,1,70,8|0,0:0|0:0,0:0:0:0:
203,348,19030,2,0,P|169:347|136:335,1,70
92,264,19458,1,8,0:0:0:0:
52,336,19672,1,8,0:0:0:0:
4,268,19887,6,0,L|0:198,1,70,2|0,0:0|0:0,0:0:0:0:
80,168,20315,2,0,L|145:192,1,70,8|0,0:0|0:0,0:0:0:0:
228,216,20744,1,0,0:0:0:0:
244,298,20958,1,0,0:0:0:0:
308,244,21172,6,0,P|306:176|253:134,1,140,8|2,0:0|0:0,0:0:0:0:
170,123,21815,2,0,P|205:65|272:55,1,140
352,84,22458,2,0,B|390:99|378:187|414:205,1,140,0|8,0:0|0:0,0:0:0:0:
466,139,23101,1,0,0:0:0:0:
436,60,23315,6,0,P|412:34|383:15,1,70,4|0,2:1|0:0,0:0:0:0:
300,20,23744,2,0,P|266:30|231:32,1,70,8|0,0:0|0:0,0:0:0:0:
148,24,24172,1,0,0:0:0:0:
92,88,24387,1,0,0:0:0:0:
113,169,24601,2,0,P|140:190|174:198,1,70,8|0,0:0|0:0,0:0:0:0:
252,168,25030,6,0,P|281:149|315:144,1,70,2|0,0:0|0:0,0:0:0:0:
376,204,25458,2,0,P|346:222|312:227,1,70,8|0,0:0|0:0,0:0:0:0:
383,131,25887,2,0,P|439:170|439:237,1,140,0|8,0:0|0:0,0:0:0:0:
439,237,26744,6,0,L|376:204,1,70,2|0,0:0|0:0,0:0:0:0:
300,236,27172,2,0,L|237:268,1,70,8|0,0:0|0:0,0:0:0:0:
164,308,27601,1,0,0:0:0:0:
168,224,27815,1,0,0:0:0:0:
92,264,28030,2,0,L|22:257,1,70,8|0,0:0|0:0,0:0:0:0:
16,172,28458,6,0,P|40:132|136:104,1,140,2|0,0:0|2:3,0:0:0:0:
208,100,29101,1,0,2:3:0:0:
284,136,29315,2,0,L|345:102,1,70,0|0,2:3|2:3,0:0:0:0:
416,56,29744,1,2,0:0:0:0:
484,108,29958,1,2,0:0:0:0:
412,151,30172,6,0,P|404:186|405:221,1,70,4|0,2:1|0:0,0:0:0:0:
440,295,30601,2,0,P|405:302|372:294,1,70,8|0,0:0|0:0,0:0:0:0:
320,228,31030,1,0,0:0:0:0:
320,144,31244,1,0,0:0:0:0:
248,187,31458,2,0,P|213:191|179:183,1,70,8|0,0:0|0:0,0:0:0:0:
136,112,31887,5,2,0:0:0:0:
88,180,32101,1,0,0:0:0:0:
47,108,32315,2,0,P|55:74|77:47,1,70,8|0,0:0|0:0,0:0:0:0:
159,32,32744,2,0,P|194:35|226:50,1,70,0|0,0:0|0:0,0:0:0:0:
280,116,33172,1,8,0:0:0:0:
352,76,33387,1,8,0:0:0:0:
428,108,33601,6,0,L|436:177,1,70,2|0,0:0|0:0,0:0:0:0:
364,221,34030,2,0,L|356:152,1,70,8|0,0:0|0:0,0:0:0:0:
280,116,34458,1,0,0:0:0:0:
216,172,34672,1,0,0:0:0:0:
144,128,34887,2,0,P|110:116|76:116,1,70,8|0,0:0|0:0,0:0:0:0:
43,195,35315,6,0,P|47:230|46:265,1,70,2|0,0:0|0:0,0:0:0:0:
46,265,35637,1,0,0:0:0:0:
46,265,35744,1,8,0:0:0:0:
96,336,35958,1,0,0:0:0:0:
139,264,36172,2,0,P|174:256|208:256,1,70,2|0,0:0|0:0,0:0:0:0:
280,300,36601,1,8,0:0:0:0:
348,348,36815,1,8,0:0:0:0:
372,268,37030,6,0,L|391:200,1,70,2|0,0:0|0:0,0:0:0:0:
416,120,37458,1,8,0:0:0:0:
360,56,37672,1,0,0:0:0:0:
328,136,37887,2,0,L|308:203,1,70,0|0,0:0|0:0,0:0:0:0:
224,208,38315,2,0,L|243:140,1,70,8|0,0:0|0:0,0:0:0:0:
268,60,38744,5,2,0:0:0:0:
188,32,38958,1,0,0:0:0:0:
108,51,39172,2,0,P|73:52|40:41,1,70,8|0,0:0|0:0,0:0:0:0:
16,120,39601,1,0,0:0:0:0:
12,204,39815,1,0,0:0:0:0:
88,168,40030,2,0,L|157:174,1,70,8|0,0:0|0:0,0:0:0:0:
168,92,40458,6,0,P|227:126|242:193,1,140,2|8,0:0|0:0,0:0:0:0:
188,352,41315,1,0,0:0:0:0:
156,272,41530,1,0,0:0:0:0:
240,284,41744,2,0,L|309:277,1,70,8|0,0:0|0:0,0:0:0:0:
380,232,42172,5,2,0:0:0:0:
491,255,42387,1,0,2:3:0:0:
387,301,42601,1,0,2:3:0:0:
444,203,42815,1,0,2:3:0:0:
456,316,43030,1,0,2:3:0:0:
456,316,43458,5,10,0:0:0:0:
491,255,43672,1,2,0:0:0:0:
444,203,43887,6,0,P|410:195|375:198,1,70,4|0,2:1|0:0,0:0:0:0:
292,180,44315,2,0,L|292:110,1,70,8|0,0:0|0:0,0:0:0:0:
232,48,44744,1,0,0:0:0:0:
168,104,44958,1,0,0:0:0:0:
100,156,45172,2,0,L|65:159,3,35,10|2|2|2,0:0|0:0|0:0|0:0,0:0:0:0:
32,184,45601,6,0,P|21:217|18:252,1,70,0|0,2:3|0:0,0:0:0:0:
84,304,46030,2,0,P|94:270|97:235,1,70,8|0,0:0|0:0,0:0:0:0:
164,184,46458,2,0,L|244:168,1,70
305,212,46887,2,0,L|248:252,1,70,8|0,0:0|0:0,0:0:0:0:
335,292,47315,6,0,P|385:245|382:177,1,140,2|8,0:0|0:0,0:0:0:0:
316,128,47958,1,0,0:0:0:0:
392,92,48172,2,0,L|458:70,1,70,0|0,0:0|0:0,0:0:0:0:
500,144,48601,2,0,L|502:213,1,70,8|0,0:0|0:0,0:0:0:0:
500,300,49030,5,0,0:0:0:0:
496,316,49458,5,8,0:0:0:0:
492,331,49887,6,0,P|459:343|424:345,1,70,0|0,0:0|0:0,0:0:0:0:
360,292,50315,1,8,0:0:0:0:
348,376,50530,1,8,0:0:0:0:
283,326,50744,6,0,P|250:314|216:312,1,70,2|0,0:0|0:0,0:0:0:0:
144,350,51172,2,0,P|134:316|140:282,1,70,8|0,0:0|0:0,0:0:0:0:
204,228,51601,1,0,0:0:0:0:
216,312,51815,1,0,0:0:0:0:
276,252,52030,2,0,L|310:248,3,35,8|0|0|0,0:0|0:0|0:0|0:0,0:0:0:0:
352,244,52458,5,0,2:3:0:0:
368,240,52887,5,8,0:0:0:0:
396,160,53101,1,0,0:0:0:0:
316,180,53315,2,0,L|247:167,1,70,0|0,0:0|0:0,0:0:0:0:
296,96,53744,2,0,L|364:83,1,70,8|0,0:0|0:0,0:0:0:0:
447,103,54172,6,0,P|472:167|437:225,2,140,0|8|0,0:0|0:0|0:0,0:0:0:0:
364,82,55244,1,0,0:0:0:0:
328,157,55458,2,0,P|361:166|396:160,1,70,8|2,0:0|0:0,0:0:0:0:
364,82,55887,6,0,P|296:80|250:128,1,140,2|8,0:0|0:0,0:0:0:0:
216,208,56530,1,0,0:0:0:0:
145,252,56744,2,0,L|118:228,3,35
89,200,57172,2,0,L|61:172,3,35,8|0|8|0,0:0|0:0|0:0|0:0,0:0:0:0:
32,148,57601,5,2,0:0:0:0:
28,132,58030,5,8,0:0:0:0:
24,116,58458,5,0,0:0:0:0:
36,32,58672,1,0,0:0:0:0:
104,80,58887,2,0,L|173:72,1,70,8|0,0:0|0:0,0:0:0:0:
239,124,59315,6,0,P|231:175|237:227,2,105,0|0|0,0:0|0:0|0:0,0:0:0:0:
296,60,60172,2,0,L|372:48,1,70,0|0,0:0|0:0,0:0:0:0:
448,72,60601,1,8,0:0:0:0:
492,144,60815,1,8,0:0:0:0:
448,216,61030,5,2,0:0:0:0:
440,230,61458,5,8,0:0:0:0:
432,245,61887,5,0,0:0:0:0:
351,268,62101,1,0,0:0:0:0:
267,260,62315,2,0,P|235:244|214:217,1,70,8|0,0:0|0:0,0:0:0:0:
168,147,62744,6,0,P|206:112|256:96,2,105,0|0|0,0:0|0:0|0:0,0:0:0:0:
144,228,63601,2,0,L|144:298,1,70,0|0,0:0|0:0,0:0:0:0:
88,360,64030,1,8,0:0:0:0:
22,308,64244,1,8,0:0:0:0:
24,224,64458,6,0,L|27:154,1,70,2|0,0:0|0:0,0:0:0:0:
92,100,64887,2,0,L|158:122,1,70,8|0,0:0|0:0,0:0:0:0:
240,148,65315,1,0,0:0:0:0:
280,72,65530,1,0,0:0:0:0:
331,139,65744,2,0,P|339:174|334:208,1,70,8|0,0:0|0:0,0:0:0:0:
272,264,66172,6,0,P|228:236|176:241,2,105,0|0|0,0:0|0:0|0:0,0:0:0:0:
323,331,67030,2,0,P|357:339|392:335,1,70,0|0,0:0|0:0,0:0:0:0:
476,328,67458,1,8,0:0:0:0:
492,244,67672,1,8,0:0:0:0:
408,256,67887,6,0,P|373:260|339:252,1,70,2|0,0:0|0:0,0:0:0:0:
312,172,68315,2,0,P|346:167|380:175,1,70,8|0,0:0|0:0,0:0:0:0:
408,256,68744,1,0,0:0:0:0:
464,192,68958,1,0,0:0:0:0:
440,112,69172,2,0,P|407:98|373:92,1,70,8|0,0:0|0:0,0:0:0:0:
288,79,69601,6,0,P|231:118|214:184,1,140,0|2,0:0|0:0,0:0:0:0:
236,268,70244,1,0,0:0:0:0:
152,256,70458,2,0,B|112:248|112:248|56:268|56:268|17:260,1,140,0|8,0:0|0:0,0:0:0:0:
48,180,71101,1,8,0:0:0:0:
120,136,71315,6,0,L|153:127,3,35,0|0|0|0,2:3|2:3|2:3|2:3,0:0:0:0:
196,128,71744,2,0,L|229:136,3,35,8|0|0|8,0:0|2:3|2:3|0:0,0:0:0:0:
272,144,72172,1,8,0:0:0:0:
312,216,72387,1,0,2:3:0:0:
360,148,72601,1,2,0:0:0:0:
400,220,72816,1,2,0:0:0:0:
308,296,73030,6,0,P|274:286|248:264,1,70,4|0,2:1|0:0,0:0:0:0:
184,212,73458,2,0,L|114:218,1,70,8|0,0:0|0:0,0:0:0:0:
56,280,73887,1,0,0:0:0:0:
0,216,74101,1,0,0:0:0:0:
59,156,74315,2,0,P|91:141|126:137,1,70,8|0,0:0|0:0,0:0:0:0:
212,140,74744,6,0,P|243:154|278:158,1,70,0|0,0:0|0:0,0:0:0:0:
352,116,75172,1,8,0:0:0:0:
356,200,75387,1,0,0:0:0:0:
431,127,75601,2,0,P|431:93|413:63,1,70,0|0,0:0|0:0,0:0:0:0:
332,39,76030,2,0,P|299:52|277:79,1,70,8|8,0:0|0:0,0:0:0:0:
252,160,76458,6,0,L|245:229,1,70,0|0,0:0|0:0,0:0:0:0:
180,284,76887,2,0,L|157:217,1,70,8|0,0:0|0:0,0:0:0:0:
104,156,77315,1,0,0:0:0:0:
36,208,77530,1,0,0:0:0:0:
27,124,77744,2,0,P|47:95|77:78,1,70,8|0,0:0|0:0,0:0:0:0:
160,72,78172,5,0,0:0:0:0:
215,135,78387,2,0,P|219:170|217:205,2,70,0|8|0,0:0|0:0|0:0,0:0:0:0:
252,60,79030,2,0,L|320:44,1,70,0|0,0:0|0:0,0:0:0:0:
388,92,79458,1,8,0:0:0:0:
452,36,79672,1,0,0:0:0:0:
464,140,79887,6,0,L|467:209,1,70,0|0,0:0|0:0,0:0:0:0:
396,252,80315,2,0,L|350:198,1,70,8|0,0:0|0:0,0:0:0:0:
298,132,80744,1,0,0:0:0:0:
288,48,80958,1,0,0:0:0:0:
212,83,81172,2,0,P|179:94|144:93,1,70,8|0,0:0|0:0,0:0:0:0:
69,130,81601,6,0,L|96:194,1,70
168,239,82030,2,0,P|146:266|114:279,1,70,8|0,0:0|0:0,0:0:0:0:
159,168,82458,2,0,P|222:194|238:260,1,140,0|8,0:0|0:0,0:0:0:0:
238,258,83315,6,0,L|307:247,1,70,0|0,0:0|0:0,0:0:0:0:
371,304,83744,2,0,P|388:273|393:238,1,70,8|0,0:0|0:0,0:0:0:0:
344,172,84172,1,0,0:0:0:0:
307,247,84387,1,0,0:0:0:0:
260,176,84601,2,0,P|225:174|192:185,1,70,8|0,0:0|0:0,0:0:0:0:
112,156,85030,6,0,L|100:122,3,35,0|0|0|0,2:3|2:3|2:3|2:3,0:0:0:0:
96,80,85458,2,0,L|108:36,3,35,0|0|0|0,2:3|2:3|2:3|2:3,0:0:0:0:
143,31,85887,1,0,2:3:0:0:
204,88,86101,1,0,2:3:0:0:
266,31,86315,1,2,0:0:0:0:
327,88,86529,1,2,0:0:0:0:
260,183,86744,6,0,P|225:184|193:169,1,70,4|0,2:1|0:0,0:0:0:0:
120,208,87172,2,0,L|120:278,1,70,8|0,0:0|0:0,0:0:0:0:
160,352,87601,1,0,0:0:0:0:
228,304,87815,1,0,0:0:0:0:
296,352,88030,2,0,P|330:357|365:352,1,70,8|0,0:0|0:0,0:0:0:0:
443,328,88458,6,0,P|459:296|465:262,1,70,2|0,0:0|0:0,0:0:0:0:
412,196,88887,2,0,P|417:161|433:130,1,70,8|0,0:0|0:0,0:0:0:0:
368,75,89315,2,0,P|333:76|299:66,1,70,0|0,0:0|0:0,0:0:0:0:
224,32,89744,1,8,0:0:0:0:
196,112,89958,1,8,0:0:0:0:
140,48,90172,6,0,P|105:47|71:56,1,70,0|0,0:0|0:0,0:0:0:0:
27,127,90601,2,0,P|32:162|27:197,1,70,8|0,0:0|0:0,0:0:0:0:
16,280,91030,1,0,0:0:0:0:
76,340,91244,1,0,0:0:0:0:
147,296,91458,2,0,P|158:262|159:227,1,70,8|0,0:0|0:0,0:0:0:0:
132,148,91887,5,0,0:0:0:0:
216,164,92101,2,0,L|250:166,2,35,0|0|8,0:0|0:0|0:0,0:0:0:0:
188,84,92530,1,0,0:0:0:0:
271,83,92744,2,0,P|302:99|325:126,1,70,0|0,0:0|0:0,0:0:0:0:
325,126,93065,1,0,0:0:0:0:
325,126,93172,1,8,0:0:0:0:
336,208,93387,1,8,0:0:0:0:
400,156,93601,6,0,L|467:138,1,70,0|0,0:0|0:0,0:0:0:0:
420,68,94030,2,0,L|352:50,1,70,8|0,0:0|0:0,0:0:0:0:
272,72,94458,1,0,0:0:0:0:
236,148,94672,1,0,0:0:0:0:
247,231,94887,2,0,P|249:266|238:299,1,70,8|0,0:0|0:0,0:0:0:0:
176,356,95315,5,0,0:0:0:0:
128,288,95530,1,0,0:0:0:0:
151,208,95744,2,0,P|157:173|151:139,1,70,8|0,0:0|0:0,0:0:0:0:
236,136,96172,2,0,P|267:151|301:157,1,70,0|0,0:0|0:0,0:0:0:0:
380,180,96600,1,8,0:0:0:0:
428,248,96815,1,8,0:0:0:0:
464,172,97030,6,0,P|454:138|430:112,1,70,2|0,0:0|0:0,0:0:0:0:
356,75,97458,2,0,P|321:67|287:65,1,70,8|0,0:0|0:0,0:0:0:0:
220,116,97887,1,0,0:0:0:0:
160,56,98101,1,0,0:0:0:0:
96,108,98315,2,0,L|90:177,1,70,8|0,0:0|0:0,0:0:0:0:
104,260,98744,6,0,L|144:284,3,35,0|0|0|0,0:0|0:0|0:0|0:0,0:0:0:0:
176,284,99172,2,0,L|210:278,3,35,8|0|0|0,0:0|0:0|0:0|0:0,0:0:0:0:
252,276,99601,1,2,0:0:0:0:
349,218,99815,1,2,0:0:0:0:
304,322,100030,1,2,0:0:0:0:
280,211,100244,1,2,0:0:0:0:
365,287,100458,5,4,2:1:0:0:
