osu file format v14

[General]
AudioFilename: Din Don Dan.mp3
AudioLeadIn: 1500
PreviewTime: 16030
Countdown: 0
SampleSet: Soft
StackLeniency: 0.7
Mode: 0
LetterboxInBreaks: 1
EpilepsyWarning: 1
WidescreenStoryboard: 1

[Editor]
DistanceSpacing: 0.7
BeatDivisor: 4
GridSize: 4
TimelineZoom: 3

[Metadata]
Title:Din Don Dan
TitleUnicode:Din Don Dan
Artist:Ryu* feat.Mayumi Morinaga
ArtistUnicode:Ryu☆ feat.Mayumi Morinaga
Creator:moonlightleaf
Version:Din Don Dan
Source:DanceDanceRevolution
Tags:-ClariS- sahuang karen Pata-Mon senya
BeatmapID:1004556
BeatmapSetID:469782

[Difficulty]
HPDrainRate:6.5
CircleSize:4.2
OverallDifficulty:8
ApproachRate:8.5
SliderMultiplier:1.6
SliderTickRate:1

[Events]
//Background and Video events
0,0,"bg.jpg",0,0
//Break Periods
//Storyboard Layer 0 (Background)
//Storyboard Layer 1 (Fail)
//Storyboard Layer 2 (Pass)
//Storyboard Layer 3 (Foreground)
Sprite,Foreground,Centre,"SB\light.jpg",320,240 R,0,30172,,-0.148645 C,0,30172,,0,0,0 V,0,30172,,1.5,1 F,0,30172,30601,0,0.245 M,0,30172,43458,312.5677,122.9161 F,0,43030,43458,0.245,0
Sprite,Foreground,Centre,"SB\light.jpg",320,240 R,0,30172,,0.148645 C,0,30172,,0,0,0 V,0,30172,,1.5,1 F,0,30172,30601,0,0.245 M,0,30172,43458,286.9677,258.0774 F,0,43030,43458,0.245,0
Sprite,Foreground,Centre,"SB\light.jpg",320,240 R,0,30172,,-0.1486456 C,0,30172,,0,0,0 V,0,30172,,1.5,1 F,0,30172,30601,0,0.245 M,0,30172,43458,349.729,397.3677 F,0,43030,43458,0.245,0
Sprite,Foreground,Centre,"SB\moonlightleaf+.png",320,240 R,0,30172,,0.1486456 C,0,30172,,128,0,255 M,0,30172,43458,471.1226,284.7742,296.0516,260 F,0,31458,31887,0,1 F,0,31887,33172,1 F,0,33172,33387,1,0 F,0,33387,33601,0,1 F,0,33601,43030,1 F,0,43030,43458,1,0
Sprite,Foreground,Centre,"SB\moonlightleaf.png",320,240 R,0,30172,,0.1486456 C,0,30172,,255,179,217 M,0,30172,43458,471.1226,284.7742,296.0516,260 F,0,31458,31887,0,1 F,0,31887,33172,1 F,0,33172,33387,1,0 F,0,33387,33601,0,1 F,0,33601,43030,1 F,0,43030,43458,1,0
//Storyboard Sound Samples

[TimingPoints]
1030,428.571428571429,4,2,1,70,1,0
1130,-66.6666666666667,4,2,1,70,0,0
16458,-66.6666666666667,4,2,1,80,0,1
30172,-66.6666666666667,4,2,1,60,0,0
73030,-66.6666666666667,4,2,1,80,0,1
100458,-66.6666666666667,4,2,1,70,0,0

[Colours]
Combo1 : 255,128,192
Combo2 : 202,202,255
Combo3 : 254,251,180

[HitObjects]
208,120,1030,5,2,0:0:0:0:
256,252,1244,1,0,0:0:0:0:
272,292,1351,1,0,0:0:0:0:
288,332,1458,1,0,0:0:0:0:
446,182,1672,2,0,P|391:161|331:165,1,120.000004577637
184,200,2101,1,0,0:0:0:0:
288,80,2315,1,0,0:0:0:0:
360,232,2530,1,0,0:0:0:0:
140,120,2744,5,0,0:0:0:0:
332,165,2958,1,0,0:0:0:0:
372,160,3065,1,0,0:0:0:0:
404,176,3172,1,0,0:0:0:0:
219,311,3387,2,0,P|207:253|219:195,1,120.000004577637,0|0,0:0|0:0,0:0:0:0:
332,165,3815,1,0,0:0:0:0:
135,200,4030,1,2,0:0:0:0:
108,203,4137,1,2,0:0:0:0:
80,200,4244,1,2,0:0:0:0:
54,189,4351,1,2,0:0:0:0:
32,172,4458,5,2,0:0:0:0:
48,316,4672,1,0,0:0:0:0:
52,304,4780,1,0,0:0:0:0:
56,292,4887,1,0,0:0:0:0:
120,95,5101,2,0,P|175:76|234:84,1,120.000004577637,0|0,0:0|0:0,0:0:0:0:
336,160,5530,1,0,0:0:0:0:
160,264,5744,1,0,0:0:0:0:
234,84,5958,1,0,0:0:0:0:
292,280,6172,5,0,0:0:0:0:
132,148,6387,1,0,0:0:0:0:
146,166,6494,1,0,0:0:0:0:
160,184,6601,1,0,0:0:0:0:
332,120,6815,2,0,P|301:71|244:58,1,120.000004577637,0|0,0:0|0:0,0:0:0:0:
56,128,7244,1,2,0:0:0:0:
256,136,7458,1,2,0:0:0:0:
104,52,7672,1,2,0:0:0:0:
116,212,7887,5,2,0:0:0:0:
188,72,8101,1,0,0:0:0:0:
148,52,8208,1,0,0:0:0:0:
104,52,8315,1,2,0:0:0:0:
196,256,8530,2,0,P|254:243|297:203,1,120.000004577637,0|0,0:0|0:0,0:0:0:0:
404,136,8958,1,0,0:0:0:0:
416,284,9172,1,0,0:0:0:0:
448,60,9387,1,0,0:0:0:0:
512,200,9601,5,0,0:0:0:0:
344,208,9815,1,0,0:0:0:0:
321,242,9922,1,0,0:0:0:0:
313,282,10030,1,0,0:0:0:0:
439,178,10244,2,0,P|402:133|347:110,1,120.000004577637
156,108,10672,1,0,0:0:0:0:
205,296,10887,1,2,0:0:0:0:
240,278,10994,1,2,0:0:0:0:
267,248,11101,1,2,0:0:0:0:
281,211,11208,1,2,0:0:0:0:
281,171,11315,5,0,2:3:0:0:
266,134,11422,1,0,2:3:0:0:
239,105,11529,1,0,2:3:0:0:
204,88,11637,1,0,2:3:0:0:
164,81,11744,1,0,2:3:0:0:
125,85,11851,1,0,2:3:0:0:
87,100,11958,1,0,2:3:0:0:
56,124,12065,1,0,2:3:0:0:
32,156,12172,5,0,2:3:0:0:
17,193,12279,1,0,2:3:0:0:
16,233,12387,1,0,2:3:0:0:
27,271,12494,1,0,2:3:0:0:
49,304,12601,1,0,2:3:0:0:
81,328,12708,1,0,2:3:0:0:
119,341,12815,1,0,2:3:0:0:
158,342,12922,1,0,2:3:0:0:
196,330,13029,5,0,2:3:0:0:
229,307,13137,1,0,2:3:0:0:
261,284,13244,1,0,2:3:0:0:
300,273,13351,1,0,2:3:0:0:
339,274,13458,1,0,2:3:0:0:
377,287,13565,1,0,2:3:0:0:
408,312,13672,1,0,2:3:0:0:
429,346,13780,1,0,2:3:0:0:
439,307,13887,5,0,2:3:0:0:
448,268,13994,1,0,2:3:0:0:
457,229,14101,1,0,2:3:0:0:
467,190,14208,1,0,2:3:0:0:
476,152,14315,1,0,2:3:0:0:
437,144,14422,1,0,2:3:0:0:
401,126,14529,1,0,2:3:0:0:
372,99,14636,1,0,2:3:0:0:
352,64,14743,5,0,2:3:0:0:
339,66,14851,1,0,2:3:0:0:
326,68,14958,1,0,2:3:0:0:
312,70,15065,1,0,2:3:0:0:
273,75,15172,1,0,2:3:0:0:
233,80,15279,1,0,2:3:0:0:
193,86,15386,1,0,2:3:0:0:
235,110,15493,1,0,2:3:0:0:
276,134,15600,5,0,0:0:0:0:
317,159,15707,1,0,0:0:0:0:
262,173,15815,1,0,0:0:0:0:
208,187,15922,1,0,0:0:0:0:
154,201,16029,5,2,0:0:0:0:
468,224,16243,1,2,0:0:0:0:
251,310,16458,6,0,P|192:318|138:295,1,120.000004577637,4|0,2:1|0:0,0:0:0:0:
342,236,16887,2,0,P|365:290|360:350,1,120.000004577637,8|0,0:0|0:0,0:0:0:0:
400,132,17315,1,0,0:0:0:0:
488,324,17530,1,0,0:0:0:0:
290,124,17744,2,0,P|238:150|212:203,1,120.000004577637,8|0,0:0|0:0,0:0:0:0:
360,350,18172,5,2,0:0:0:0:
500,184,18387,1,0,0:0:0:0:
304,216,18601,1,8,0:0:0:0:
496,332,18815,1,0,0:0:0:0:
290,124,19030,2,0,P|238:150|212:203,1,120.000004577637,0|0,0:0|0:0,0:0:0:0:
212,204,19351,1,0,0:0:0:0:
212,204,19458,1,8,0:0:0:0:
400,168,19672,1,8,0:0:0:0:
151,291,19887,6,0,P|113:247|106:188,1,120.000004577637,2|0,0:0|0:0,0:0:0:0:
352,252,20315,2,0,P|342:310|303:354,1,120.000004577637,8|0,0:0|0:0,0:0:0:0:
32,208,20744,1,0,0:0:0:0:
248,264,20958,1,0,0:0:0:0:
238,145,21172,2,0,L|248:264,1,120.000004577637,8|0,0:0|0:0,0:0:0:0:
152,132,21601,6,0,L|42:83,1,120.000004577637,2|0,0:0|0:0,0:0:0:0:
158,221,22030,2,0,P|212:198|238:146,1,120.000004577637,8|0,0:0|0:0,0:0:0:0:
236,16,22458,1,0,0:0:0:0:
296,232,22672,1,0,0:0:0:0:
456,112,22887,2,0,L|502:73,1,60.0000022888184,8|0,0:0|0:0,0:0:0:0:
334,94,23101,2,0,L|384:60,1,60.0000022888184,0|0,0:0|0:0,0:0:0:0:
359,162,23315,6,0,P|278:140|271:56,1,180.000006866455,4|0,2:1|0:0,0:0:0:0:
252,52,23744,2,0,L|132:47,1,120.000004577637,8|0,0:0|0:0,0:0:0:0:
28,212,24172,1,0,0:0:0:0:
12,48,24387,1,0,0:0:0:0:
196,207,24601,2,0,P|216:152|208:93,1,120.000004577637,8|0,0:0|0:0,0:0:0:0:
32,136,25030,5,2,0:0:0:0:
256,152,25244,1,0,0:0:0:0:
114,260,25458,1,8,0:0:0:0:
108,80,25672,1,0,0:0:0:0:
216,248,25887,2,0,B|276:268|276:268|331:254,1,120.000004577637,0|0,0:0|0:0,0:0:0:0:
440,80,26315,2,0,B|380:60|380:60|324:73,1,120.000004577637,8|0,0:0|0:0,0:0:0:0:
384,334,26744,6,0,P|414:283|415:224,1,120.000004577637,2|0,0:0|0:0,0:0:0:0:
235,40,27172,2,0,P|238:99|268:150,1,120.000004577637,8|0,0:0|0:0,0:0:0:0:
456,296,27601,1,0,0:0:0:0:
440,80,27815,1,0,0:0:0:0:
310,232,28030,2,0,P|252:237|201:208,1,120.000004577637,8|0,0:0|0:0,0:0:0:0:
356,164,28458,5,2,0:0:0:0:
383,194,28565,1,0,2:3:0:0:
392,235,28672,1,0,2:3:0:0:
380,275,28779,1,0,2:3:0:0:
350,303,28886,1,0,2:3:0:0:
308,279,28994,1,0,2:3:0:0:
261,268,29101,1,0,2:3:0:0:
213,271,29208,1,0,2:3:0:0:
168,286,29315,5,0,2:3:0:0:
128,313,29422,1,0,2:3:0:0:
117,253,29530,1,0,2:3:0:0:
106,194,29637,1,0,2:3:0:0:
95,135,29744,5,2,0:0:0:0:
16,276,29958,1,2,0:0:0:0:
264,178,30172,6,0,P|323:173|381:186,1,120,4|0,2:1|0:0,0:0:0:0:
157,249,30601,2,0,P|136:194|144:135,1,120.000004577637,8|0,0:0|0:0,0:0:0:0:
381,186,31030,1,0,0:0:0:0:
264,260,31244,1,0,0:0:0:0:
349,100,31458,2,0,P|407:97|456:131,1,120.000004577637,8|0,0:0|0:0,0:0:0:0:
476,288,31887,5,2,0:0:0:0:
492,56,32101,1,0,0:0:0:0:
460,212,32315,1,8,0:0:0:0:
420,24,32530,1,0,0:0:0:0:
386,252,32744,2,0,P|329:263|274:242,1,120.000004577637,0|0,0:0|0:0,0:0:0:0:
160,76,33172,1,8,0:0:0:0:
104,272,33387,1,8,0:0:0:0:
328,168,33601,6,0,P|327:110|290:63,1,120.000004577637,2|0,0:0|0:0,0:0:0:0:
112,160,34030,2,0,P|169:172|223:148,1,120.000004577637,8|0,0:0|0:0,0:0:0:0:
160,76,34458,1,0,0:0:0:0:
184,288,34672,1,0,0:0:0:0:
36,200,34887,2,0,P|29:141|61:92,1,120.000004577637,8|0,0:0|0:0,0:0:0:0:
223,148,35315,5,2,0:0:0:0:
364,36,35530,1,0,0:0:0:0:
364,36,35637,1,0,0:0:0:0:
364,36,35744,1,8,0:0:0:0:
276,280,35958,1,0,0:0:0:0:
368,168,36172,2,0,B|404:160|404:160|460:168|460:168|486:163,1,120.000004577637,2|0,0:0|0:0,0:0:0:0:
500,40,36601,1,8,0:0:0:0:
464,264,36815,1,8,0:0:0:0:
272,138,37030,6,0,P|301:88|356:66,1,120.000004577637,2|0,0:0|0:0,0:0:0:0:
236,272,37458,1,8,0:0:0:0:
136,136,37672,1,0,0:0:0:0:
336,244,37887,2,0,P|332:303|297:350,1,120.000004577637,0|0,0:0|0:0,0:0:0:0:
56,240,38315,2,0,L|173:217,1,120.000004577637,8|0,0:0|0:0,0:0:0:0:
424,96,38744,5,2,0:0:0:0:
388,248,38957,1,0,0:0:0:0:
316,156,39171,1,8,0:0:0:0:
496,192,39386,1,0,0:0:0:0:
432,68,39601,1,0,0:0:0:0:
380,280,39815,1,0,0:0:0:0:
336,160,40030,1,8,0:0:0:0:
476,188,40244,1,0,0:0:0:0:
339,55,40458,6,0,P|281:50|229:80,1,120.000004577637,2|0,0:0|0:0,0:0:0:0:
280,319,40887,2,0,P|319:238|303:151,1,180.000006866455,8|0,0:0|0:0,0:0:0:0:
304,152,41315,2,0,L|422:131,1,120.000004577637
200,292,41744,2,0,L|81:271,1,120.000004577637,8|0,0:0|0:0,0:0:0:0:
117,78,42172,5,2,0:0:0:0:
152,56,42279,1,0,2:3:0:0:
194,55,42386,1,0,2:3:0:0:
235,65,42493,1,0,2:3:0:0:
274,80,42600,1,0,2:3:0:0:
315,91,42707,1,0,2:3:0:0:
356,91,42814,1,0,2:3:0:0:
393,72,42921,1,0,2:3:0:0:
396,114,43029,5,0,2:3:0:0:
398,156,43136,1,0,2:3:0:0:
400,198,43243,1,0,2:3:0:0:
402,240,43350,1,0,2:3:0:0:
404,282,43458,1,10,0:0:0:0:
492,116,43672,1,2,0:0:0:0:
238,250,43887,6,0,P|182:232|145:186,1,120.000004577637,4|0,2:1|0:0,0:0:0:0:
145,186,44208,1,0,0:0:0:0:
145,186,44315,1,8,0:0:0:0:
308,204,44530,1,0,0:0:0:0:
308,204,44637,1,0,0:0:0:0:
308,204,44744,2,0,P|319:261|291:312,1,120.000004577637,0|0,0:0|0:0,0:0:0:0:
232,147,45172,5,10,0:0:0:0:
265,123,45279,1,2,0:0:0:0:
306,115,45386,1,2,0:0:0:0:
346,125,45493,1,2,0:0:0:0:
379,151,45600,5,0,2:3:0:0:
372,308,45815,1,0,0:0:0:0:
372,308,45922,1,0,2:3:0:0:
372,308,46029,1,8,0:0:0:0:
504,228,46244,1,0,0:0:0:0:
300,224,46458,2,0,B|264:232|264:232|208:216|208:216|183:218,1,120.000004577637
36,344,46887,2,0,B|72:336|72:336|128:352|128:352|152:349,1,120.000004577637,8|0,0:0|0:0,0:0:0:0:
188,128,47315,6,0,P|132:144|99:193,1,120.000004577637,2|0,0:0|0:0,0:0:0:0:
340,301,47744,2,0,P|380:259|384:200,1,120.000004577637,8|0,0:0|0:0,0:0:0:0:
292,48,48172,1,0,0:0:0:0:
252,136,48387,1,0,0:0:0:0:
356,100,48601,1,8,0:0:0:0:
188,80,48815,1,0,0:0:0:0:
384,199,49030,6,0,P|434:170|459:116,1,120.000004577637
148,152,49458,2,0,P|172:205|223:235,1,120.000004577637,8|0,0:0|0:0,0:0:0:0:
356,100,49887,1,0,0:0:0:0:
340,284,50101,1,0,0:0:0:0:
284,68,50315,1,8,0:0:0:0:
416,308,50530,1,8,0:0:0:0:
220,120,50744,6,0,B|188:128|188:128|184:176|166:211,1,120.000004577637,2|0,0:0|0:0,0:0:0:0:
80,320,51172,1,8,0:0:0:0:
32,160,51387,1,0,0:0:0:0:
252,188,51601,1,0,0:0:0:0:
40,240,51815,1,0,0:0:0:0:
283,280,52030,5,8,0:0:0:0:
318,256,52137,1,0,0:0:0:0:
340,221,52244,1,0,0:0:0:0:
346,179,52351,1,0,0:0:0:0:
335,139,52458,5,0,2:3:0:0:
190,68,52672,1,0,0:0:0:0:
190,68,52780,1,0,2:3:0:0:
190,68,52887,2,0,P|133:83|75:71,1,120.000004577637,8|0,0:0|0:0,0:0:0:0:
96,275,53315,2,0,P|111:218|100:160,1,120.000004577637,0|0,0:0|0:0,0:0:0:0:
11,311,53744,2,0,P|49:355|107:367,1,120.000004577637,8|0,0:0|0:0,0:0:0:0:
280,272,54172,6,0,B|326:310|326:310|378:218|476:240,1,240.000009155274,0|8,0:0|0:0,0:0:0:0:
440,356,54815,1,0,0:0:0:0:
305,193,55030,2,0,P|247:194|206:236,1,120.000004577637
116,352,55458,1,8,0:0:0:0:
48,176,55672,1,2,0:0:0:0:
343,121,55887,6,0,P|382:165|383:223,1,120.000004577637,2|0,0:0|0:0,0:0:0:0:
300,340,56315,1,8,0:0:0:0:
472,300,56530,1,0,0:0:0:0:
292,208,56744,5,0,0:0:0:0:
252,193,56851,1,0,0:0:0:0:
213,178,56958,1,0,0:0:0:0:
173,163,57065,1,0,0:0:0:0:
134,149,57172,1,8,0:0:0:0:
140,190,57279,1,0,0:0:0:0:
147,232,57386,1,8,0:0:0:0:
153,273,57493,1,0,0:0:0:0:
159,315,57601,6,0,L|41:292,1,120.000004577637,2|0,0:0|0:0,0:0:0:0:
252,193,58030,2,0,L|369:170,1,120.000004577637,8|0,0:0|0:0,0:0:0:0:
180,48,58458,1,0,0:0:0:0:
120,248,58672,1,0,0:0:0:0:
284,104,58887,1,8,0:0:0:0:
56,40,59101,1,0,0:0:0:0:
168,326,59315,6,0,P|208:283|216:225,1,120.000004577637,0|0,0:0|0:0,0:0:0:0:
216,224,59637,2,0,L|393:195,1,180.000006866455
432,192,60065,1,0,0:0:0:0:
432,192,60172,1,0,0:0:0:0:
472,352,60387,1,0,0:0:0:0:
352,132,60601,1,8,0:0:0:0:
496,280,60815,1,8,0:0:0:0:
422,78,61030,6,0,P|371:49|312:54,1,120.000004577637,2|0,0:0|0:0,0:0:0:0:
296,307,61458,2,0,P|333:262|344:203,1,120.000004577637,8|0,0:0|0:0,0:0:0:0:
144,112,61887,1,0,0:0:0:0:
340,128,62101,1,0,0:0:0:0:
100,136,62315,1,8,0:0:0:0:
376,96,62530,1,0,0:0:0:0:
227,299,62744,6,0,P|191:254|198:196,1,120.000004577637
259,235,63065,2,0,P|176:246|135:172,1,180.000006866455
140,128,63494,1,0,0:0:0:0:
140,128,63601,2,0,L|152:44,1,60.0000022888184
231,160,63815,2,0,L|260:236,1,60.0000022888184
320,128,64030,2,0,L|332:44,1,60.0000022888184,8|0,0:0|0:0,0:0:0:0:
411,160,64244,2,0,L|440:236,1,60.0000022888184
231,160,64458,6,0,P|176:181|136:225,1,120.000004577637,2|0,0:0|0:0,0:0:0:0:
402,276,64887,2,0,P|398:217|371:164,1,120.000004577637,8|0,0:0|0:0,0:0:0:0:
248,68,65315,1,0,0:0:0:0:
76,144,65530,1,0,0:0:0:0:
240,260,65744,1,8,0:0:0:0:
156,76,65958,1,0,0:0:0:0:
72,287,66172,6,0,P|122:255|152:204,1,120.000004577637,0|0,0:0|0:0,0:0:0:0:
152,172,66494,1,0,0:0:0:0:
152,172,66601,2,0,L|270:156,1,120.000004577637,8|0,0:0|0:0,0:0:0:0:
312,120,66922,1,0,0:0:0:0:
312,120,67030,2,0,L|334:237,1,120.000004577637,0|0,0:0|0:0,0:0:0:0:
344,284,67351,1,0,0:0:0:0:
344,284,67458,1,8,0:0:0:0:
452,152,67672,1,8,0:0:0:0:
228,216,67887,6,0,B|192:208|192:208|184:164|148:139,1,120.000004577637,2|0,0:0|0:0,0:0:0:0:
68,320,68315,2,0,B|102:331|102:331|122:283|156:270,1,120.000004577637,8|0,0:0|0:0,0:0:0:0:
256,136,68744,1,0,0:0:0:0:
208,372,68958,1,0,0:0:0:0:
96,216,69172,1,8,0:0:0:0:
316,284,69387,1,0,0:0:0:0:
152,128,69601,5,0,0:0:0:0:
134,307,69815,1,2,0:0:0:0:
144,300,69922,1,2,0:0:0:0:
154,294,70030,2,0,L|205:262,1,60.0000022888184,2|0,0:0|0:0,0:0:0:0:
281,212,70244,1,0,0:0:0:0:
315,188,70351,1,0,0:0:0:0:
351,166,70458,5,0,0:0:0:0:
386,143,70565,1,0,0:0:0:0:
420,119,70672,1,0,0:0:0:0:
430,166,70779,1,0,0:0:0:0:
440,213,70886,1,8,0:0:0:0:
450,259,70993,1,0,0:0:0:0:
391,250,71101,1,8,0:0:0:0:
332,240,71208,1,0,0:0:0:0:
270,229,71315,5,0,2:3:0:0:
257,224,71422,1,0,2:3:0:0:
243,220,71530,1,0,2:3:0:0:
229,220,71637,1,0,2:3:0:0:
191,239,71744,1,8,0:0:0:0:
161,268,71851,1,0,2:3:0:0:
129,295,71958,1,0,2:3:0:0:
89,307,72066,1,8,0:0:0:0:
48,304,72172,5,8,0:0:0:0:
22,271,72280,1,8,0:0:0:0:
8,231,72387,1,0,2:3:0:0:
7,189,72494,1,0,2:3:0:0:
19,150,72601,6,0,L|46:96,1,60.0000022888184,2|0,0:0|0:0,0:0:0:0:
136,104,72815,2,0,L|109:50,1,60.0000022888184,2|0,0:0|0:0,0:0:0:0:
98,184,73030,6,0,P|156:192|205:161,1,120.000004577637,4|0,2:1|0:0,0:0:0:0:
459,35,73458,2,0,P|401:27|352:58,1,120.000004577637,8|0,0:0|0:0,0:0:0:0:
296,316,73887,1,0,0:0:0:0:
206,160,74101,1,0,0:0:0:0:
391,152,74315,2,0,P|446:174|482:222,1,120.000004577637,8|0,0:0|0:0,0:0:0:0:
208,264,74744,5,0,0:0:0:0:
288,112,74958,1,0,0:0:0:0:
140,152,75172,1,8,0:0:0:0:
368,256,75387,1,0,0:0:0:0:
118,342,75601,2,0,P|105:285|128:231,1,120.000004577637,0|0,0:0|0:0,0:0:0:0:
129,230,75922,1,0,0:0:0:0:
129,230,76030,2,0,L|248:214,1,120.000004577637,8|8,0:0|0:0,0:0:0:0:
460,72,76458,6,0,L|341:55,1,120.000004577637,0|0,0:0|0:0,0:0:0:0:
284,302,76887,2,0,P|323:258|332:200,1,120.000004577637,8|0,0:0|0:0,0:0:0:0:
220,40,77315,1,0,0:0:0:0:
396,120,77530,1,0,0:0:0:0:
245,215,77744,2,0,P|188:200|142:162,1,120.000004577637,8|0,0:0|0:0,0:0:0:0:
141,161,78065,1,0,0:0:0:0:
142,162,78172,5,0,0:0:0:0:
328,160,78387,2,0,P|344:217|328:274,1,120.000004577637,0|8,0:0|0:0,0:0:0:0:
208,336,78815,1,0,0:0:0:0:
256,91,79030,2,0,P|308:63|367:68,1,120.000004577637,0|0,0:0|0:0,0:0:0:0:
448,224,79458,1,8,0:0:0:0:
264,272,79672,1,0,0:0:0:0:
236,280,79780,1,0,0:0:0:0:
204,288,79887,6,0,L|87:317,1,120.000004577637,0|0,0:0|0:0,0:0:0:0:
208,132,80315,2,0,L|316:182,1,120.000004577637,8|0,0:0|0:0,0:0:0:0:
484,132,80744,1,0,0:0:0:0:
452,324,80958,1,0,0:0:0:0:
239,239,81172,2,0,P|223:183|238:126,1,120.000004577637,8|0,0:0|0:0,0:0:0:0:
380,200,81601,5,0,0:0:0:0:
224,312,81815,1,0,0:0:0:0:
332,128,82030,1,8,0:0:0:0:
288,360,82244,1,0,0:0:0:0:
468,276,82458,2,0,B|436:260|436:260|355:284,1,120.000004577637,0|0,0:0|0:0,0:0:0:0:
111,320,82887,2,0,B|143:336|143:336|223:311,1,120.000004577637,8|0,0:0|0:0,0:0:0:0:
330,126,83315,6,0,P|278:99|219:104,1,120.000004577637
222,309,83744,2,0,P|255:260|256:201,1,120.000004577637,8|0,0:0|0:0,0:0:0:0:
128,56,84172,1,0,0:0:0:0:
331,127,84387,1,0,0:0:0:0:
127,239,84601,2,0,P|114:182|137:128,1,120.000004577637,8|0,0:0|0:0,0:0:0:0:
301,256,85030,5,0,2:3:0:0:
282,292,85137,1,0,2:3:0:0:
243,303,85244,1,0,2:3:0:0:
208,281,85351,1,0,2:3:0:0:
201,241,85458,1,0,2:3:0:0:
225,209,85565,1,0,2:3:0:0:
260,183,85672,1,0,2:3:0:0:
300,174,85779,1,0,2:3:0:0:
340,186,85886,5,0,2:3:0:0:
369,215,85993,1,0,2:3:0:0:
412,224,86100,1,0,2:3:0:0:
452,212,86207,1,0,2:3:0:0:
484,184,86315,2,0,L|501:241,1,60.0000022888184,2|0,0:0|0:0,0:0:0:0:
440,296,86530,2,0,L|436:355,1,60.0000022888184,2|0,0:0|0:0,0:0:0:0:
408,136,86744,6,0,B|392:104|392:104|307:100,1,120.000004577637,4|0,2:1|0:0,0:0:0:0:
220,270,87172,2,0,P|264:232|283:175,1,120.000004577637,8|0,0:0|0:0,0:0:0:0:
152,76,87601,1,0,0:0:0:0:
307,100,87815,1,0,0:0:0:0:
111,247,88030,2,0,P|92:191|101:133,1,120.000004577637,8|0,0:0|0:0,0:0:0:0:
248,44,88458,5,2,0:0:0:0:
368,232,88672,1,0,0:0:0:0:
192,180,88887,1,8,0:0:0:0:
392,64,89101,1,0,0:0:0:0:
264,264,89315,2,0,P|295:314|349:338,1,120.000004577637,0|0,0:0|0:0,0:0:0:0:
464,140,89744,1,8,0:0:0:0:
304,180,89958,1,8,0:0:0:0:
440,327,90172,6,0,P|467:275|464:216,1,120.000004577637,0|0,0:0|0:0,0:0:0:0:
275,100,90601,2,0,P|230:136|222:194,1,120.000004577637,8|0,0:0|0:0,0:0:0:0:
320,316,91030,1,0,0:0:0:0:
152,228,91244,1,0,0:0:0:0:
264,23,91458,2,0,P|321:36|351:86,1,120.000004577637,8|0,0:0|0:0,0:0:0:0:
215,300,91887,5,0,0:0:0:0:
24,192,92101,1,0,0:0:0:0:
24,192,92208,1,0,0:0:0:0:
24,192,92315,1,8,0:0:0:0:
124,68,92530,1,0,0:0:0:0:
222,194,92744,2,0,P|277:212|328:185,1,120.000004577637,0|0,0:0|0:0,0:0:0:0:
270,134,93065,1,0,0:0:0:0:
270,134,93172,2,0,P|214:118|162:144,1,120.000004577637,8|8,0:0|0:0,0:0:0:0:
372,266,93601,6,0,P|409:221|410:162,1,120.000004577637,0|0,0:0|0:0,0:0:0:0:
292,328,94030,2,0,P|339:363|398:363,1,120.000004577637,8|0,0:0|0:0,0:0:0:0:
344,84,94458,1,0,0:0:0:0:
496,196,94672,1,0,0:0:0:0:
371,266,94887,2,0,P|372:208|410:162,1,120.000004577637,8|0,0:0|0:0,0:0:0:0:
496,352,95315,5,0,0:0:0:0:
496,196,95530,1,0,0:0:0:0:
280,216,95744,1,8,0:0:0:0:
448,276,95958,1,0,0:0:0:0:
223,283,96172,1,0,0:0:0:0:
280,36,96387,1,0,0:0:0:0:
368,220,96601,1,8,0:0:0:0:
120,196,96815,1,8,0:0:0:0:
281,341,97030,6,0,P|304:288|286:232,1,120.000004577637,2|0,0:0|0:0,0:0:0:0:
63,136,97458,2,0,P|39:189|58:245,1,120.000004577637,8|0,0:0|0:0,0:0:0:0:
192,364,97887,1,0,0:0:0:0:
368,256,98101,1,0,0:0:0:0:
202,124,98315,2,0,P|192:182|212:237,1,120.000004577637,8|0,0:0|0:0,0:0:0:0:
286,94,98744,6,0,P|250:48|193:34,1,120.000004577637,0|0,0:0|0:0,0:0:0:0:
64,76,99172,1,8,0:0:0:0:
104,216,99387,1,0,0:0:0:0:
92,240,99494,1,0,0:0:0:0:
76,268,99601,1,2,0:0:0:0:
280,176,99815,1,2,0:0:0:0:
92,352,100030,1,2,0:0:0:0:
104,56,100244,1,2,0:0:0:0:
336,248,100458,5,4,2:1:0:0:
