osu file format v14

[General]
AudioFilename: Ryu feat.Mayumi Morinaga - Din Don Dan.MP3
AudioLeadIn: 0
PreviewTime: 72494
Countdown: 0
SampleSet: Normal
StackLeniency: 0.7
Mode: 1
LetterboxInBreaks: 0
WidescreenStoryboard: 0

[Editor]
Bookmarks: 43887,57601,86744
DistanceSpacing: 1.2
BeatDivisor: 4
GridSize: 32
TimelineZoom: 0.9

[Metadata]
Title:Din Don Dan
TitleUnicode:Din Don Dan
Artist:Ryu* feat.Mayumi Morinaga
ArtistUnicode:Ryu☆ feat.Mayumi Morinaga
Creator:[R]
Version:Kantan
Source:DanceDanceRevolution
Tags:ddr moimoi 森永真由美 Seventh Heaven DanceDanceRevolution(2014) ミライダガッキ FutureTomTom Ver.2 Senya Charlotte
BeatmapID:865235
BeatmapSetID:397834

[Difficulty]
HPDrainRate:8
CircleSize:5
OverallDifficulty:3
ApproachRate:5
SliderMultiplier:1.4
SliderTickRate:1

[Events]
//Background and Video events
0,0,"BG.jpg",0,0
//Break Periods
//Storyboard Layer 0 (Background)
//Storyboard Layer 1 (Fail)
//Storyboard Layer 2 (Pass)
//Storyboard Layer 3 (Foreground)
//Storyboard Sound Samples

[TimingPoints]
1030,428.571428571429,4,1,0,80,1,0
16458,-100,4,1,0,90,0,1
30172,-100,4,1,0,80,0,0
73030,-100,4,1,0,90,0,1
100458,-100,4,1,0,80,0,0

[HitObjects]
256,192,1030,5,4,0:0:0:0:
256,192,2315,1,8,0:0:0:0:
252,192,2744,1,8,0:0:0:0:
252,192,4458,1,0,0:0:0:0:
252,192,5744,1,8,0:0:0:0:
252,192,6172,1,8,0:0:0:0:
252,192,7887,1,4,0:0:0:0:
252,192,9172,1,8,0:0:0:0:
252,192,9601,1,8,0:0:0:0:
252,192,11315,1,0,0:0:0:0:
252,192,12172,1,0,0:0:0:0:
252,192,12601,1,8,0:0:0:0:
252,192,13030,1,8,0:0:0:0:
252,192,13887,1,8,0:0:0:0:
252,192,14744,1,0,0:0:0:0:
256,192,16458,5,4,0:0:0:0:
256,192,17315,1,8,0:0:0:0:
256,192,18172,1,0,0:0:0:0:
256,192,18601,1,8,0:0:0:0:
256,192,19030,1,0,0:0:0:0:
256,192,19887,5,4,0:0:0:0:
256,192,20744,1,8,0:0:0:0:
256,192,21601,1,8,0:0:0:0:
256,192,22030,1,0,0:0:0:0:
256,192,22458,1,8,0:0:0:0:
256,192,23315,5,4,0:0:0:0:
256,192,24172,1,8,0:0:0:0:
256,192,25029,1,0,0:0:0:0:
256,192,25458,1,0,0:0:0:0:
256,192,25887,1,8,0:0:0:0:
256,192,26744,5,4,0:0:0:0:
256,192,28458,1,8,0:0:0:0:
256,192,28887,1,8,0:0:0:0:
256,192,29315,1,8,0:0:0:0:
256,192,30172,5,4,0:0:0:0:
256,192,31029,1,0,0:0:0:0:
256,192,31886,1,8,0:0:0:0:
256,192,32315,1,0,0:0:0:0:
256,192,32744,1,8,0:0:0:0:
256,192,33601,5,0,0:0:0:0:
256,192,34458,1,0,0:0:0:0:
256,192,35744,1,8,0:0:0:0:
256,192,36172,1,8,0:0:0:0:
256,192,37030,5,4,0:0:0:0:
256,192,37887,1,0,0:0:0:0:
256,192,38744,1,8,0:0:0:0:
256,192,39173,1,0,0:0:0:0:
256,192,39602,1,8,0:0:0:0:
256,192,40459,5,0,0:0:0:0:
256,192,41316,1,0,0:0:0:0:
256,192,42601,1,8,0:0:0:0:
256,192,43030,1,8,0:0:0:0:
256,192,43887,5,4,0:0:0:0:
256,192,45172,1,8,0:0:0:0:
256,192,45601,1,0,0:0:0:0:
256,192,46458,1,8,0:0:0:0:
256,192,47315,1,0,0:0:0:0:
256,192,48601,1,8,0:0:0:0:
256,192,49030,1,0,0:0:0:0:
256,192,49458,1,8,0:0:0:0:
256,192,50315,1,8,0:0:0:0:
256,192,50744,5,4,0:0:0:0:
256,192,52030,1,8,0:0:0:0:
256,192,52458,1,0,0:0:0:0:
256,192,53315,1,0,0:0:0:0:
256,192,54172,1,8,0:0:0:0:
256,192,55458,1,8,0:0:0:0:
256,192,55887,1,0,0:0:0:0:
256,192,57601,1,12,0:0:0:0:
256,192,58459,1,8,0:0:0:0:
256,192,58887,1,0,0:0:0:0:
256,192,59315,1,8,0:0:0:0:
256,192,60172,1,0,0:0:0:0:
256,192,61030,1,12,0:0:0:0:
256,192,61888,1,0,0:0:0:0:
256,192,62316,1,8,0:0:0:0:
256,192,62744,1,0,0:0:0:0:
256,192,63601,1,0,0:0:0:0:
256,192,64458,1,12,0:0:0:0:
256,192,65316,1,8,0:0:0:0:
256,192,65744,1,0,0:0:0:0:
256,192,66172,1,8,0:0:0:0:
256,192,67029,1,0,0:0:0:0:
256,192,67887,1,12,0:0:0:0:
256,192,68745,1,0,0:0:0:0:
256,192,69173,1,8,0:0:0:0:
256,192,69601,5,0,0:0:0:0:
256,192,70458,1,0,0:0:0:0:
256,192,71315,1,0,0:0:0:0:
256,192,73030,5,4,0:0:0:0:
256,192,73887,1,8,0:0:0:0:
256,192,74744,1,0,0:0:0:0:
256,192,75173,1,8,0:0:0:0:
256,192,75602,1,0,0:0:0:0:
256,192,76459,5,4,0:0:0:0:
256,192,77316,1,8,0:0:0:0:
256,192,78172,1,8,0:0:0:0:
256,192,78601,1,0,0:0:0:0:
256,192,79030,1,8,0:0:0:0:
256,192,79887,5,4,0:0:0:0:
256,192,80744,1,8,0:0:0:0:
256,192,81601,1,0,0:0:0:0:
256,192,82030,1,0,0:0:0:0:
256,192,82459,1,8,0:0:0:0:
256,192,83316,5,4,0:0:0:0:
256,192,85030,1,8,0:0:0:0:
256,192,85458,1,8,0:0:0:0:
256,192,85887,1,8,0:0:0:0:
256,192,86744,5,4,0:0:0:0:
256,192,87601,1,8,0:0:0:0:
256,192,88458,1,8,0:0:0:0:
256,192,88887,1,8,0:0:0:0:
256,192,89316,1,0,0:0:0:0:
256,192,90173,5,4,0:0:0:0:
256,192,91030,1,8,0:0:0:0:
256,192,91887,1,0,0:0:0:0:
256,192,92316,1,8,0:0:0:0:
256,192,92744,1,8,0:0:0:0:
256,192,93601,5,4,0:0:0:0:
256,192,94458,1,8,0:0:0:0:
256,192,95315,1,8,0:0:0:0:
256,192,95744,1,0,0:0:0:0:
256,192,96173,1,8,0:0:0:0:
256,192,97030,5,4,0:0:0:0:
256,192,97887,1,8,0:0:0:0:
256,192,98744,1,0,0:0:0:0:
256,192,99172,1,0,0:0:0:0:
256,192,99601,1,8,0:0:0:0:
256,192,100458,5,4,0:0:0:0:
