osu file format v14

[General]
AudioFilename: Ryu feat.Mayumi Morinaga - Din Don Dan.MP3
AudioLeadIn: 0
PreviewTime: 72494
Countdown: 0
SampleSet: Normal
StackLeniency: 0.7
Mode: 1
LetterboxInBreaks: 0
WidescreenStoryboard: 0

[Editor]
Bookmarks: 43887,57601,86744
DistanceSpacing: 1.2
BeatDivisor: 4
GridSize: 32
TimelineZoom: 1

[Metadata]
Title:Din Don Dan
TitleUnicode:Din Don Dan
Artist:Ryu* feat.Mayumi Morinaga
ArtistUnicode:Ryu☆ feat.Mayumi Morinaga
Creator:[R]
Version:Futsuu
Source:DanceDanceRevolution
Tags:ddr moimoi 森永真由美 Seventh Heaven DanceDanceRevolution(2014) ミライダガッキ FutureTomTom Ver.2 Senya Charlotte
BeatmapID:865234
BeatmapSetID:397834

[Difficulty]
HPDrainRate:7
CircleSize:5
OverallDifficulty:4
ApproachRate:5
SliderMultiplier:1.4
SliderTickRate:1

[Events]
//Background and Video events
0,0,"BG.jpg",0,0
//Break Periods
//Storyboard Layer 0 (Background)
//Storyboard Layer 1 (Fail)
//Storyboard Layer 2 (Pass)
//Storyboard Layer 3 (Foreground)
//Storyboard Sound Samples

[TimingPoints]
1030,428.571428571429,4,1,0,80,1,0
16458,-100,4,1,0,90,0,1
30172,-100,4,1,0,80,0,0
73030,-100,4,1,0,90,0,1
100458,-100,4,1,0,80,0,0

[HitObjects]
256,192,1030,5,4,0:0:0:0:
252,192,1672,1,0,0:0:0:0:
256,192,2315,1,8,0:0:0:0:
252,192,2744,1,8,0:0:0:0:
256,192,3387,1,8,0:0:0:0:
252,192,4458,1,0,0:0:0:0:
252,192,5101,1,0,0:0:0:0:
256,192,5744,1,8,0:0:0:0:
252,192,6172,1,8,0:0:0:0:
252,192,6815,1,8,0:0:0:0:
252,192,7887,1,4,0:0:0:0:
252,192,8530,1,0,0:0:0:0:
256,192,9172,1,8,0:0:0:0:
252,192,9601,1,8,0:0:0:0:
252,192,10244,1,8,0:0:0:0:
252,192,11315,1,0,0:0:0:0:
256,192,11958,1,0,0:0:0:0:
256,192,12387,1,0,0:0:0:0:
256,192,12601,1,8,0:0:0:0:
252,192,13029,1,8,0:0:0:0:
252,192,13672,1,8,0:0:0:0:
252,192,14101,1,0,0:0:0:0:
252,192,14315,1,8,0:0:0:0:
256,192,14744,12,0,16030,0:0:0:0:
256,192,16458,5,4,0:0:0:0:
256,192,16887,1,8,0:0:0:0:
256,192,17315,1,0,0:0:0:0:
256,192,17530,1,8,0:0:0:0:
256,192,17744,1,0,0:0:0:0:
256,192,18172,1,0,0:0:0:0:
256,192,18601,1,8,0:0:0:0:
256,192,19030,1,0,0:0:0:0:
256,192,19887,5,4,0:0:0:0:
256,192,20315,1,8,0:0:0:0:
256,192,20744,1,0,0:0:0:0:
256,192,20958,1,8,0:0:0:0:
256,192,21172,1,0,0:0:0:0:
256,192,21815,1,8,0:0:0:0:
256,192,22244,1,0,0:0:0:0:
256,192,22458,1,8,0:0:0:0:
256,192,22887,1,8,0:0:0:0:
256,192,23315,5,4,0:0:0:0:
256,192,23744,1,8,0:0:0:0:
256,192,24172,1,0,0:0:0:0:
256,192,24387,1,8,0:0:0:0:
256,192,24601,1,0,0:0:0:0:
256,192,25029,1,8,0:0:0:0:
256,192,25458,1,0,0:0:0:0:
256,192,25887,1,8,0:0:0:0:
256,192,26744,5,4,0:0:0:0:
256,192,27172,1,8,0:0:0:0:
256,192,27601,1,0,0:0:0:0:
256,192,27815,1,8,0:0:0:0:
256,192,28030,1,0,0:0:0:0:
256,192,28672,1,8,0:0:0:0:
256,192,29101,1,0,0:0:0:0:
256,192,29315,1,8,0:0:0:0:
256,192,29744,1,8,0:0:0:0:
256,192,30172,5,4,0:0:0:0:
256,192,30601,1,8,0:0:0:0:
256,192,31029,1,0,0:0:0:0:
256,192,31458,1,0,0:0:0:0:
256,192,31887,1,8,0:0:0:0:
256,192,32315,1,8,0:0:0:0:
256,192,32530,1,0,0:0:0:0:
256,192,32744,1,8,0:0:0:0:
256,192,33601,1,0,0:0:0:0:
256,192,34030,1,8,0:0:0:0:
256,192,34458,1,0,0:0:0:0:
256,192,34887,1,0,0:0:0:0:
256,192,35530,1,8,0:0:0:0:
256,192,35958,1,8,0:0:0:0:
256,192,36172,1,8,0:0:0:0:
256,192,37030,5,4,0:0:0:0:
240,292,37458,1,8,0:0:0:0:
256,192,37887,1,0,0:0:0:0:
256,192,38315,1,0,0:0:0:0:
256,192,38744,1,8,0:0:0:0:
256,192,39173,1,8,0:0:0:0:
256,192,39387,1,0,0:0:0:0:
256,192,39602,1,8,0:0:0:0:
256,192,40459,5,0,0:0:0:0:
240,292,40887,1,8,0:0:0:0:
256,192,41316,1,0,0:0:0:0:
256,192,41744,1,0,0:0:0:0:
256,192,42387,1,8,0:0:0:0:
256,192,42601,1,8,0:0:0:0:
256,192,42815,1,8,0:0:0:0:
256,192,43030,1,8,0:0:0:0:
256,192,43887,5,4,0:0:0:0:
256,192,44315,1,8,0:0:0:0:
256,192,44744,1,0,0:0:0:0:
256,192,45172,1,8,0:0:0:0:
256,192,45387,1,8,0:0:0:0:
256,192,45601,1,0,0:0:0:0:
256,192,46458,1,8,0:0:0:0:
256,192,46887,1,0,0:0:0:0:
256,192,47315,1,0,0:0:0:0:
256,192,48387,1,8,0:0:0:0:
256,192,48601,1,8,0:0:0:0:
256,192,49030,1,0,0:0:0:0:
256,192,49458,1,8,0:0:0:0:
256,192,50101,1,0,0:0:0:0:
256,192,50315,1,8,0:0:0:0:
256,192,50744,5,4,0:0:0:0:
256,192,51172,1,8,0:0:0:0:
256,192,51601,1,0,0:0:0:0:
256,192,52030,1,8,0:0:0:0:
256,192,52244,1,8,0:0:0:0:
256,192,52458,1,0,0:0:0:0:
256,192,53315,1,0,0:0:0:0:
256,192,53744,1,8,0:0:0:0:
256,192,54172,1,0,0:0:0:0:
256,192,55244,1,0,0:0:0:0:
256,192,55458,1,8,0:0:0:0:
256,192,55887,5,0,0:0:0:0:
256,192,56315,1,8,0:0:0:0:
256,192,56744,5,0,0:0:0:0:
256,192,57601,5,12,0:0:0:0:
256,192,58030,1,0,0:0:0:0:
240,292,58459,1,8,0:0:0:0:
256,192,58672,1,8,0:0:0:0:
256,192,58887,1,0,0:0:0:0:
256,192,59315,1,8,0:0:0:0:
256,192,59744,1,0,0:1:0:0:
256,192,60172,1,0,0:0:0:0:
256,192,61030,1,12,0:0:0:0:
256,192,61458,1,0,0:0:0:0:
256,192,61888,1,8,0:0:0:0:
240,292,62101,1,0,0:0:0:0:
256,192,62316,1,0,0:0:0:0:
256,192,62744,1,8,0:0:0:0:
256,192,63172,1,8,0:0:0:0:
256,192,63601,1,0,0:0:0:0:
256,192,64458,1,12,0:0:0:0:
256,192,64887,1,0,0:0:0:0:
256,192,65316,1,8,0:0:0:0:
240,292,65530,1,8,0:0:0:0:
256,192,65744,1,0,0:0:0:0:
256,192,66172,1,8,0:0:0:0:
256,192,66601,1,0,0:0:0:0:
256,192,67029,1,0,0:0:0:0:
256,192,67887,1,12,0:0:0:0:
256,192,68315,1,0,0:0:0:0:
256,192,68745,1,8,0:0:0:0:
240,292,68958,1,0,0:0:0:0:
256,192,69173,1,0,0:0:0:0:
256,192,69601,1,8,0:0:0:0:
256,192,70458,1,0,0:0:0:0:
256,192,70887,1,8,0:0:0:0:
256,192,71315,12,0,72601,0:0:0:0:
256,192,73030,5,4,0:0:0:0:
256,192,73459,1,8,0:0:0:0:
256,192,73887,1,0,0:0:0:0:
256,192,74102,1,8,0:0:0:0:
256,192,74316,1,0,0:0:0:0:
256,192,74744,1,0,0:0:0:0:
256,192,75173,1,8,0:0:0:0:
256,192,75602,1,0,0:0:0:0:
256,192,76459,5,4,0:0:0:0:
256,192,76887,1,8,0:0:0:0:
256,192,77316,1,0,0:0:0:0:
256,192,77530,1,8,0:0:0:0:
256,192,77744,1,0,0:0:0:0:
256,192,78387,1,8,0:0:0:0:
256,192,78816,1,0,0:0:0:0:
256,192,79030,1,8,0:0:0:0:
256,192,79458,1,8,0:0:0:0:
256,192,79887,5,4,0:0:0:0:
256,192,80316,1,8,0:0:0:0:
256,192,80744,1,0,0:0:0:0:
256,192,80959,1,8,0:0:0:0:
256,192,81173,1,0,0:0:0:0:
256,192,81601,1,8,0:0:0:0:
256,192,82030,1,0,0:0:0:0:
256,192,82459,1,8,0:0:0:0:
256,192,83316,5,4,0:0:0:0:
256,192,83744,1,8,0:0:0:0:
256,192,84173,1,0,0:0:0:0:
256,192,84387,1,8,0:0:0:0:
256,192,84602,1,0,0:0:0:0:
256,192,85244,1,8,0:0:0:0:
256,192,85673,5,0,0:0:0:0:
256,192,85887,1,8,0:0:0:0:
256,192,86315,1,8,0:0:0:0:
256,192,86744,5,4,0:0:0:0:
256,192,87173,5,8,0:0:0:0:
256,192,87601,1,0,0:0:0:0:
256,192,87816,1,8,0:0:0:0:
256,192,88030,1,0,0:0:0:0:
256,192,88458,1,8,0:0:0:0:
256,192,88887,1,0,0:0:0:0:
256,192,89102,1,0,0:0:0:0:
256,192,89316,1,8,0:0:0:0:
256,192,90173,5,4,0:0:0:0:
256,192,90602,1,8,0:0:0:0:
256,192,91030,1,0,0:0:0:0:
256,192,91244,1,8,0:0:0:0:
256,192,91459,1,0,0:0:0:0:
256,192,92102,1,8,0:0:0:0:
256,192,92530,1,8,0:0:0:0:
256,192,92744,1,8,0:0:0:0:
256,192,93172,1,8,0:0:0:0:
256,192,93602,5,4,0:0:0:0:
240,292,94030,1,8,0:0:0:0:
256,192,94459,1,0,0:0:0:0:
240,292,94672,1,8,0:0:0:0:
256,192,94887,1,0,0:0:0:0:
256,192,95316,1,8,0:0:0:0:
256,192,95530,1,0,0:0:0:0:
256,192,95744,1,0,0:0:0:0:
256,192,96172,1,8,0:0:0:0:
256,192,97031,5,4,0:0:0:0:
240,292,97459,1,8,0:0:0:0:
256,192,97888,1,0,0:0:0:0:
256,192,98102,1,8,0:0:0:0:
256,192,98316,1,0,0:0:0:0:
240,292,98959,1,8,0:0:0:0:
256,192,99387,1,8,0:0:0:0:
256,192,99602,1,8,0:0:0:0:
256,192,100030,1,8,0:0:0:0:
256,192,100244,1,8,0:0:0:0:
256,192,100458,1,4,0:0:0:0:
