osu file format v14

[General]
AudioFilename: audio.mp3
AudioLeadIn: 0
PreviewTime: 1682
Countdown: 0
SampleSet: Soft
StackLeniency: 0.7
Mode: 0
LetterboxInBreaks: 0
WidescreenStoryboard: 0

[Editor]
Bookmarks: 69779,84351,94637,95279,111351
DistanceSpacing: 1
BeatDivisor: 2
GridSize: 4
TimelineZoom: 1

[Metadata]
Title:OOO
TitleUnicode:OOO
Artist:Ryu* feat. moimoi
ArtistUnicode:Ryu☆ feat. moimoi
Creator:Yales
Version:Normal
Source:beatmania IIDX 24 SINOBUZ
Tags:森永真由美 Mayumi Morinaga Kawashiro
BeatmapID:1527465
BeatmapSetID:712539

[Difficulty]
HPDrainRate:5
CircleSize:3.5
OverallDifficulty:5
ApproachRate:5
SliderMultiplier:0.999999999999999
SliderTickRate:1

[Events]
//Background and Video events
0,0,"bgooo.jpg",0,0
//Break Periods
2,13453,14196
2,56739,69053
2,95739,96482
//Storyboard Layer 0 (Background)
//Storyboard Layer 1 (Fail)
//Storyboard Layer 2 (Pass)
//Storyboard Layer 3 (Foreground)
//Storyboard Sound Samples

[TimingPoints]
1682,428.571428571429,4,2,1,50,1,0
15396,-100,4,2,1,80,0,1
15503,-100,4,2,1,80,0,0
42824,-100,4,2,1,80,0,1
54824,-100,4,2,1,60,0,0
69824,-100,4,2,1,80,0,0
70253,-100,4,2,1,50,0,0
83539,-100,4,2,1,80,0,0
83967,-100,4,2,1,90,0,1
95753,-100,4,2,1,70,0,0
97467,-100,4,2,1,80,0,0
97682,-100,4,2,1,80,0,1
97789,-100,4,2,1,80,0,0
109682,-100,4,2,1,60,0,0
111396,-100,4,2,1,5,0,0
113110,-100,4,2,1,30,0,0

[Colours]
Combo1 : 127,255,0
Combo2 : 234,255,0
Combo3 : 255,50,0

[HitObjects]
159,25,1682,5,6,0:0:0:0:
60,42,2110,1,2,0:0:0:0:
13,130,2539,1,8,0:0:0:0:
29,228,2967,1,2,0:0:0:0:
29,228,3182,6,0,P|74:240|163:225,1,99.9999999999999,2|2,0:0|0:0,0:0:0:0:
171,215,3824,2,0,P|216:203|305:218,1,99.9999999999999,2|8,0:0|0:0,0:0:0:0:
311,231,4467,1,2,0:0:0:0:
311,231,4682,1,2,0:0:0:0:
318,330,5110,5,4,0:0:0:0:
413,301,5539,1,2,0:0:0:0:
405,201,5967,1,8,0:0:0:0:
324,141,6396,1,2,0:0:0:0:
324,141,6610,6,0,P|317:84|326:26,1,99.9999999999999,2|2,0:0|0:0,0:0:0:0:
359,8,7253,2,0,L|465:13,1,99.9999999999999,2|8,0:0|0:0,0:0:0:0:
508,22,7896,1,2,0:0:0:0:
508,22,8110,1,2,0:0:0:0:
459,109,8539,5,4,0:0:0:0:
497,203,8967,1,2,0:0:0:0:
443,287,9396,1,2,0:0:0:0:
349,266,9824,1,0,0:0:0:0:
349,266,10039,6,0,P|290:247|228:243,1,99.9999999999999,2|2,0:0|0:0,0:0:0:0:
202,243,10682,2,0,P|142:255|89:293,1,99.9999999999999,0|8,0:0|0:0,0:0:0:0:
76,312,11324,1,0,0:0:0:0:
76,312,11539,1,0,0:0:0:0:
17,230,11967,5,0,0:0:0:0:
29,130,12396,1,0,0:0:0:0:
123,98,12824,1,0,0:0:0:0:
163,6,13253,1,0,0:0:0:0:
317,298,15396,6,0,P|372:296|416:276,1,99.9999999999999,6|10,1:0|1:0,0:0:0:0:
461,190,16253,2,0,P|459:135|439:91,1,99.9999999999999,2|10,1:0|1:0,0:0:0:0:
399,66,16896,2,0,P|344:68|300:88,1,99.9999999999999,2|2,0:0|0:0,0:0:0:0:
267,121,17539,2,0,P|238:123|204:113,1,50,8|8,1:2|0:0,0:0:0:0:
194,74,17967,2,0,P|165:71|131:82,1,50,2|2,1:2|0:0,0:0:0:0:
111,113,18396,2,0,P|82:115|48:105,1,50,8|2,1:2|1:0,0:0:0:0:
16,90,18824,5,6,1:0:0:0:
5,189,19253,1,10,1:0:0:0:
44,281,19682,1,2,1:0:0:0:
137,315,20110,1,10,1:0:0:0:
137,315,20324,2,0,P|189:310|251:330,1,99.9999999999999,2|2,0:0|0:0,0:0:0:0:
332,336,21181,1,8,0:0:0:0:
332,336,21396,2,0,P|363:338|394:323,1,50,2|0,1:2|0:0,0:0:0:0:
420,300,21824,2,0,L|409:231,1,50,8|2,1:2|1:0,0:0:0:0:
432,204,22253,5,6,1:0:0:0:
364,132,22682,1,10,1:0:0:0:
456,93,23110,1,2,1:0:0:0:
372,37,23539,1,10,1:0:0:0:
372,37,23753,2,0,L|262:29,1,99.9999999999999,2|2,0:0|0:0,0:0:0:0:
222,30,24396,2,0,L|218:97,1,50,8|8,1:2|0:0,0:0:0:0:
197,125,24824,2,0,L|201:192,1,50,2|2,1:2|0:0,0:0:0:0:
215,222,25253,2,0,L|211:289,1,50,8|2,1:2|1:0,0:0:0:0:
210,322,25682,6,0,P|137:322|94:303,1,99.9999999999999,2|10,1:0|1:0,0:0:0:0:
39,244,26539,2,0,P|39:171|58:128,1,99.9999999999999,2|10,1:0|1:0,0:0:0:0:
81,109,27182,2,0,P|154:109|197:128,1,99.9999999999999,2|2,0:0|0:0,0:0:0:0:
264,168,28039,1,2,0:0:0:0:
264,168,28253,2,0,P|325:171|386:140,1,99.9999999999999,2|8,0:0|0:0,0:0:0:0:
407,139,28896,1,8,0:0:0:0:
407,139,29110,5,4,1:0:0:0:
436,43,29539,1,0,1:0:0:0:
341,11,29967,2,0,P|280:8|219:39,1,99.9999999999999,0|0,1:0|1:0,0:0:0:0:
155,67,30824,2,0,P|94:70|33:39,2,99.9999999999999,0|0|0,1:0|1:0|1:0,0:0:0:0:
247,105,32110,1,0,1:0:0:0:
252,204,32539,6,0,L|237:334,1,99.9999999999999,2|0,1:0|1:0,0:0:0:0:
324,357,33396,2,0,P|386:365|441:352,1,99.9999999999999,0|0,1:0|1:0,0:0:0:0:
480,276,34253,2,0,L|468:154,1,99.9999999999999,2|0,1:0|1:0,0:0:0:0:
370,185,35110,2,0,L|382:307,2,99.9999999999999,2|0|6,1:0|1:0|1:0,0:0:0:0:
400,88,36396,5,0,1:0:0:0:
301,101,36824,2,0,P|246:104|202:86,1,99.9999999999999,0|0,1:0|1:0,0:0:0:0:
108,64,37682,2,0,P|53:61|9:79,1,99.9999999999999,0|0,1:0|1:0,0:0:0:0:
5,176,38539,1,0,1:0:0:0:
94,220,38967,1,0,1:0:0:0:
174,160,39396,1,2,1:0:0:0:
253,220,39824,6,0,P|293:264|259:185,1,300,0|2,1:0|0:0,0:0:0:0:
8,271,42824,5,6,1:0:0:0:
78,341,43253,1,10,1:0:0:0:
151,272,43682,1,2,1:0:0:0:
224,339,44110,1,10,1:0:0:0:
224,339,44324,6,0,P|272:333|332:341,1,99.9999999999999,2|2,0:0|0:0,0:0:0:0:
372,349,44967,2,0,P|420:355|480:347,1,99.9999999999999,8|2,1:2|1:2,0:0:0:0:
501,309,45610,1,2,0:0:0:0:
501,309,45824,1,8,1:0:0:0:
496,209,46253,5,6,1:0:0:0:
424,138,46682,1,10,1:0:0:0:
325,155,47110,1,2,1:0:0:0:
295,250,47539,1,10,1:0:0:0:
295,250,47753,6,0,P|240:255|176:243,1,99.9999999999999,2|2,0:0|0:0,0:0:0:0:
157,216,48396,2,0,L|169:106,1,99.9999999999999,8|2,1:2|1:2,0:0:0:0:
180,68,49039,1,2,0:0:0:0:
180,68,49253,1,8,1:0:0:0:
89,24,49682,5,6,1:0:0:0:
7,81,50110,1,10,1:0:0:0:
5,181,50539,1,2,1:0:0:0:
87,237,50967,1,10,1:0:0:0:
87,237,51182,6,0,P|142:234|212:205,1,99.9999999999999,2|2,0:0|0:0,0:0:0:0:
233,209,51824,2,0,P|288:212|358:241,1,99.9999999999999,8|2,1:2|1:2,0:0:0:0:
368,258,52467,1,2,0:0:0:0:
368,258,52682,1,8,1:0:0:0:
458,216,53110,5,6,1:0:0:0:
493,122,53539,1,10,1:0:0:0:
436,39,53967,1,2,1:0:0:0:
335,41,54396,1,10,1:0:0:0:
335,41,54610,6,0,L|208:26,1,99.9999999999999,0|2,0:0|0:0,0:0:0:0:
157,91,55467,1,2,0:0:0:0:
157,91,55681,2,0,L|30:106,1,99.9999999999999,2|12,0:0|0:0,0:0:0:0:
11,82,56324,1,0,0:0:0:0:
11,82,56539,5,6,0:0:0:0:
488,208,70253,5,6,0:0:0:0:
393,174,70682,1,8,0:0:0:0:
298,205,71110,1,8,0:0:0:0:
270,301,71539,1,2,0:0:0:0:
270,301,71753,6,0,P|204:311|136:291,1,99.9999999999999,2|2,0:0|0:0,0:0:0:0:
124,289,72396,2,0,P|104:283|72:263,1,50,8|2,0:0|0:0,0:0:0:0:
53,225,72824,2,0,P|44:196|42:153,1,50,8|2,0:0|0:0,0:0:0:0:
46,126,73253,2,0,P|52:105|66:65,1,50,2|8,0:0|0:0,0:0:0:0:
98,44,73682,5,6,0:0:0:0:
196,62,74110,1,8,0:0:0:0:
222,158,74539,1,8,0:0:0:0:
303,216,74967,1,2,0:0:0:0:
303,216,75182,6,0,P|364:208|440:178,1,99.9999999999999,8|2,0:0|0:0,0:0:0:0:
432,101,76039,2,0,P|427:69|418:39,1,50,2|8,0:0|0:0,0:0:0:0:
332,7,76682,2,0,P|302:11|261:27,1,50,2|2,0:0|0:0,0:0:0:0:
236,32,77110,5,6,0:0:0:0:
152,88,77539,1,8,0:0:0:0:
140,188,77967,1,8,0:0:0:0:
204,264,78396,1,8,0:0:0:0:
204,264,78610,2,0,P|265:270|336:243,1,99.9999999999999,8|8,0:0|0:0,0:0:0:0:
332,220,79253,2,0,P|360:224|392:244,1,50,8|10,0:0|0:0,0:0:0:0:
424,208,79682,2,0,P|440:244|436:280,1,50,8|10,0:0|0:0,0:0:0:0:
488,272,80110,2,0,P|476:300|448:328,1,50,2|2,0:0|0:0,0:0:0:0:
432,352,80539,5,4,0:0:0:0:
332,348,80967,1,2,0:0:0:0:
236,376,81396,1,8,0:0:0:0:
140,348,81824,1,8,0:0:0:0:
415,118,83539,2,0,L|407:44,1,50,4|0,0:0|0:0,0:0:0:0:
404,18,83967,5,6,1:0:0:0:
322,75,84396,1,10,1:0:0:0:
222,69,84824,1,2,1:0:0:0:
128,33,85253,1,10,1:0:0:0:
128,33,85467,2,0,P|79:35|13:56,1,99.9999999999999,2|2,0:0|0:0,0:0:0:0:
24,98,86110,2,0,L|35:178,1,50,8|10,1:2|0:0,0:0:0:0:
67,181,86539,2,0,L|56:261,1,50,2|10,1:2|0:0,0:0:0:0:
30,270,86967,2,0,L|41:350,1,50,8|2,1:0|1:0,0:0:0:0:
48,368,87396,5,6,1:0:0:0:
147,378,87824,1,10,1:0:0:0:
224,314,88253,1,2,1:0:0:0:
223,213,88682,1,10,1:0:0:0:
223,213,88896,6,0,L|206:93,1,99.9999999999999,8|2,0:0|0:0,0:0:0:0:
208,63,89539,2,0,P|236:57|267:58,1,50,8|10,1:2|0:0,0:0:0:0:
298,85,89967,2,0,P|321:94|345:100,1,50,2|10,1:2|0:0,0:0:0:0:
386,71,90396,2,0,P|414:65|445:66,1,50,8|2,1:0|1:0,0:0:0:0:
477,92,90824,5,6,1:0:0:0:
492,190,91253,1,10,1:0:0:0:
418,258,91682,1,2,1:0:0:0:
318,252,92110,1,10,1:0:0:0:
318,252,92324,6,0,P|259:243|193:263,1,99.9999999999999,8|2,0:0|0:0,0:0:0:0:
173,270,92967,2,0,P|140:271|105:263,1,50,8|10,1:2|0:0,0:0:0:0:
74,256,93396,2,0,P|62:228|57:192,1,50,0|10,1:0|1:2,0:0:0:0:
42,161,93824,2,0,P|46:121|67:82,1,50,8|2,1:0|1:0,0:0:0:0:
90,84,94253,5,6,1:0:0:0:
182,46,94682,1,2,1:0:0:0:
220,139,95110,1,2,1:0:0:0:
127,176,95539,1,2,1:0:0:0:
74,315,97682,6,0,L|182:310,1,99.9999999999999,6|2,1:0|1:0,0:0:0:0:
273,307,98539,2,0,L|335:304,2,50,2|2|8,1:0|0:0|1:0,0:0:0:0:
240,268,99182,6,0,P|235:215|238:168,1,99.9999999999999,2|2,0:0|0:0,0:0:0:0:
247,119,99824,2,0,P|266:89|287:67,1,50,8|8,1:2|0:0,0:0:0:0:
317,51,100253,2,0,P|355:45|393:42,1,50,0|2,1:0|0:0,0:0:0:0:
416,46,100682,2,0,P|454:56|480:71,1,50,8|2,1:2|1:0,0:0:0:0:
503,90,101110,5,6,1:0:0:0:
499,190,101539,1,2,1:0:0:0:
424,257,101967,1,2,1:0:0:0:
323,254,102396,1,8,1:0:0:0:
275,239,102610,6,0,P|222:237|170:257,1,99.9999999999999,2|2,0:0|0:0,0:0:0:0:
155,297,103253,2,0,P|119:308|89:309,1,50,8|8,1:2|0:0,0:0:0:0:
57,301,103682,2,0,P|30:285|11:263,1,50,0|2,1:0|0:0,0:0:0:0:
5,223,104110,2,0,P|5:195|19:155,1,50,8|2,1:2|1:0,0:0:0:0:
24,125,104539,5,6,1:0:0:0:
103,64,104967,1,2,1:0:0:0:
201,47,105396,2,0,P|233:45|265:52,2,50,2|2|8,1:0|0:0|1:0,0:0:0:0:
176,91,106039,6,0,P|176:137|192:208,1,99.9999999999999,2|2,0:0|0:0,0:0:0:0:
230,214,106682,2,0,P|250:217|296:216,1,50,8|8,1:2|0:0,0:0:0:0:
324,195,107110,2,0,P|369:187|396:187,1,50,0|2,1:0|0:0,0:0:0:0:
420,203,107539,2,0,P|454:205|492:204,1,50,8|2,1:2|1:0,0:0:0:0:
496,162,107967,5,6,1:0:0:0:
485,62,108396,1,2,1:0:0:0:
390,29,108824,1,2,1:0:0:0:
296,64,109253,1,8,1:0:0:0:
266,104,109467,6,0,P|265:172|275:229,1,99.9999999999999,2|2,0:0|0:0,0:0:0:0:
290,249,110110,2,0,P|296:276|298:323,1,50,8|8,0:0|0:0,0:0:0:0:
285,346,110539,2,0,P|263:357|223:363,1,50,8|0,0:0|0:0,0:0:0:0:
188,368,110967,2,0,P|152:370|114:357,1,50,8|8,0:0|0:0,0:0:0:0:
256,192,111396,12,2,113110,0:0:0:0:
