osu file format v14

[General]
AudioFilename: audio.mp3
AudioLeadIn: 0
PreviewTime: 1682
Countdown: 0
SampleSet: Soft
StackLeniency: 0.3
Mode: 0
LetterboxInBreaks: 0
WidescreenStoryboard: 0

[Editor]
Bookmarks: 84351,94637,95279,111351
DistanceSpacing: 1.3
BeatDivisor: 4
GridSize: 4
TimelineZoom: 1.9

[Metadata]
Title:OOO
TitleUnicode:OOO
Artist:Ryu* feat. moimoi
ArtistUnicode:Ryu☆ feat. moimoi
Creator:Yales
Version:Kawa's Hyper
Source:beatmania IIDX 24 SINOBUZ
Tags:森永真由美 Mayumi Morinaga Kawashiro
BeatmapID:1532172
BeatmapSetID:712539

[Difficulty]
HPDrainRate:6
CircleSize:4
OverallDifficulty:6.5
ApproachRate:7.3
SliderMultiplier:1.7
SliderTickRate:1

[Events]
//Background and Video events
0,0,"bgooo.jpg",0,0
//Break Periods
2,56739,68410
//Storyboard Layer 0 (Background)
//Storyboard Layer 1 (Fail)
//Storyboard Layer 2 (Pass)
//Storyboard Layer 3 (Foreground)
//Storyboard Sound Samples

[TimingPoints]
1682,428.571428571429,4,2,1,50,1,0
1682,-133.333333333333,4,2,1,50,0,0
14324,-400,4,2,1,50,0,0
15396,-100,4,2,1,80,0,1
15503,-100,4,2,1,80,0,0
42824,-100,4,2,1,80,0,1
54824,-100,4,2,1,60,0,0
55467,-400,4,2,1,60,0,0
69610,-133.333333333333,4,2,1,60,0,0
69824,-133.333333333333,4,2,1,80,0,0
70253,-133.333333333333,4,2,1,50,0,0
83324,-133.333333333333,4,2,1,50,0,0
83539,-100,4,2,1,80,0,0
83967,-100,4,2,1,90,0,1
95753,-100,4,2,1,70,0,0
96824,-400,4,2,1,70,0,0
97467,-100,4,2,1,80,0,0
97682,-100,4,2,1,80,0,1
97789,-100,4,2,1,80,0,0
109682,-100,4,2,1,60,0,0
111396,-400,4,2,1,70,0,0
111503,-400,4,2,1,5,0,0
113110,-400,4,2,1,40,0,0

[Colours]
Combo1 : 127,255,0
Combo2 : 234,255,0
Combo3 : 255,50,0

[HitObjects]
72,116,1682,5,2,0:0:0:0:
72,116,2110,1,2,0:0:0:0:
72,116,2539,1,8,0:0:0:0:
72,116,2967,1,2,0:0:0:0:
144,156,3182,6,0,L|280:144,1,127.500004863739,2|2,0:0|0:0,0:0:0:0:
320,76,3824,2,0,P|344:68|328:92,1,63.7500024318696,2|2,0:0|1:2,0:0:0:0:
388,160,4253,2,0,P|410:171|382:176,1,63.7500024318696,8|2,0:0|0:0,0:0:0:0:
376,267,4682,2,0,P|384:290|360:275,1,63.7500024318696,2|2,0:0|0:0,0:0:0:0:
292,232,5110,5,4,0:0:0:0:
292,232,5539,1,2,0:0:0:0:
292,232,5967,1,8,0:0:0:0:
292,232,6396,1,2,0:0:0:0:
216,264,6610,6,0,L|208:128,1,127.500004863739,2|2,0:0|0:0,0:0:0:0:
212,52,7253,2,0,P|200:29|195:57,1,63.7500024318696,2|2,0:0|1:2,0:0:0:0:
104,63,7682,2,0,P|80:55|96:78,1,63.7500024318696,8|2,0:0|0:0,0:0:0:0:
37,147,8111,2,0,P|15:157|42:163,1,63.7500024318696,2|0,0:0|0:0,0:0:0:0:
112,208,8539,5,4,0:0:0:0:
112,208,8967,1,2,0:0:0:0:
112,208,9396,1,2,0:0:0:0:
112,208,9824,1,0,0:0:0:0:
188,244,10039,6,0,B|216:228|251:244|251:244|284:260|312:244,1,127.500004863739,2|2,0:0|0:0,0:0:0:0:
372,304,10682,2,0,P|396:312|380:288,1,63.7500024318696,0|0,0:0|0:0,0:0:0:0:
440,219,11111,2,0,P|462:207|434:203,1,63.7500024318696,8|0,0:0|0:0,0:0:0:0:
428,113,11540,2,0,P|436:90|412:104,1,63.7500024318696,0|0,0:0|0:0,0:0:0:0:
336,132,11967,5,0,0:0:0:0:
336,132,12396,1,0,0:0:0:0:
336,132,12824,1,0,0:0:0:0:
336,132,13253,1,0,0:0:0:0:
260,160,13467,6,0,B|264:264|264:264|245:249,1,127.500004863739,0|0,0:0|0:0,0:0:0:0:
184,196,14110,1,0,0:0:0:0:
340,236,14324,6,0,L|408:228,1,63.75,0|12,0:0|0:0,0:0:0:0:
216,148,15396,6,0,L|112:160,1,85,6|0,1:0|0:0,0:0:0:0:
64,108,15824,2,0,P|45:145|51:187,1,85,10|0,1:0|0:0,0:0:0:0:
0,256,16253,2,0,B|28:272|28:272|112:268,1,85,2|0,1:0|0:0,0:0:0:0:
164,248,16682,1,10,1:0:0:0:
321,293,16896,6,0,P|249:304|260:232,1,170,2|2,0:0|0:0,0:0:0:0:
344,212,17539,2,0,L|435:219,1,85,8|8,1:2|0:0,0:0:0:0:
503,259,17967,2,0,P|513:218|501:177,1,85,2|2,1:2|0:0,0:0:0:0:
428,136,18396,1,8,1:2:0:0:
500,88,18610,1,2,1:0:0:0:
424,52,18824,6,0,L|320:64,1,85,6|0,1:0|0:0,0:0:0:0:
272,12,19252,2,0,P|253:49|259:91,1,85,10|0,1:0|0:0,0:0:0:0:
308,160,19681,2,0,B|280:176|280:176|196:172,1,85,2|0,1:0|0:0,0:0:0:0:
144,152,20110,1,10,1:0:0:0:
114,311,20324,6,0,B|138:351|138:351|168:232,1,170,2|2,0:0|0:0,0:0:0:0:
144,152,20967,2,0,P|128:124|72:104,1,85,8|8,1:2|0:0,0:0:0:0:
0,136,21396,2,0,L|8:44,1,85,2|0,1:2|0:0,0:0:0:0:
88,20,21824,1,8,1:2:0:0:
160,64,22038,1,2,1:0:0:0:
240,40,22253,6,0,L|344:52,1,85,6|0,1:0|0:0,0:0:0:0:
392,0,22681,2,0,P|411:37|405:79,1,85,10|0,1:0|0:0,0:0:0:0:
456,148,23110,2,0,B|428:164|428:164|344:160,1,85,2|0,1:0|0:0,0:0:0:0:
292,140,23539,1,10,1:0:0:0:
400,256,23753,6,0,B|524:248|524:248|480:296,1,170,2|2,0:0|0:0,0:0:0:0:
428,335,24396,2,0,P|385:338|347:321,1,85,8|8,1:2|0:0,0:0:0:0:
264,336,24824,2,0,L|260:240,1,85,2|2,1:2|0:0,0:0:0:0:
220,176,25253,1,8,1:2:0:0:
304,176,25467,1,2,1:0:0:0:
264,104,25682,6,0,L|160:92,1,85,2|0,1:0|0:0,0:0:0:0:
111,47,26110,2,0,P|92:84|98:126,1,85,10|0,1:0|0:0,0:0:0:0:
144,196,26539,2,0,B|116:212|116:212|32:208,1,85,2|0,1:0|0:0,0:0:0:0:
0,264,26968,1,10,1:0:0:0:
97,125,27182,5,2,0:0:0:0:
97,125,27610,1,2,0:0:0:0:
97,125,28039,1,2,0:0:0:0:
20,155,28253,2,0,B|4:196|4:196|53:194,1,85,2|0,0:0|0:0,0:0:0:0:
97,125,28682,2,0,P|110:84|99:44,1,85,8|8,0:0|0:0,0:0:0:0:
20,80,29110,1,4,1:0:0:0:
168,168,29324,6,0,L|256:160,1,85,2|0,0:0|1:0,0:0:0:0:
336,172,29753,1,8,0:0:0:0:
308,316,29967,2,0,P|284:281|283:239,1,85,0|2,1:0|0:0,0:0:0:0:
420,192,30395,2,0,P|401:229|366:251,1,85,0|8,1:0|0:0,0:0:0:0:
336,172,30824,1,0,1:0:0:0:
216,288,31039,6,0,P|207:329|218:369,1,85,2|0,0:0|1:0,0:0:0:0:
291,327,31467,1,8,0:0:0:0:
132,280,31682,2,0,L|40:284,1,85,0|2,1:0|0:0,0:0:0:0:
28,132,32110,1,0,1:0:0:0:
28,132,32324,1,10,1:0:0:0:
28,132,32539,1,2,1:0:0:0:
84,196,32753,6,0,L|180:200,1,85,2|0,0:0|1:0,0:0:0:0:
252,204,33182,1,8,0:0:0:0:
220,88,33396,2,0,B|176:84|176:84|205:120,1,85,0|2,1:0|0:0,0:0:0:0:
344,196,33824,2,0,B|370:164|370:164|326:167,1,85,0|8,1:0|0:0,0:0:0:0:
208,280,34253,6,0,L|216:380,1,85,2|2,1:0|0:0,0:0:0:0:
136,332,34682,1,0,1:0:0:0:
296,232,35110,6,0,L|288:332,1,85,2|2,1:0|0:0,0:0:0:0:
352,372,35539,1,0,1:0:0:0:
352,372,35753,1,2,1:0:0:0:
352,372,35967,1,6,1:0:0:0:
436,232,36182,6,0,P|435:189|414:153,1,85,2|0,0:0|1:0,0:0:0:0:
332,128,36610,1,8,0:0:0:0:
484,72,36824,2,0,B|504:60|504:60|442:51,1,85,0|2,1:0|0:0,0:0:0:0:
290,107,37253,2,0,B|270:119|270:119|331:127,1,85,0|8,1:0|0:0,0:0:0:0:
360,48,37682,1,0,1:0:0:0:
292,199,37896,6,0,P|284:241|300:284,1,85,2|0,0:0|1:0,0:0:0:0:
368,236,38324,1,8,0:0:0:0:
228,328,38539,2,0,B|204:360|204:360|247:347,1,85,0|2,1:0|0:0,0:0:0:0:
368,236,38967,1,0,1:0:0:0:
368,236,39182,1,2,1:0:0:0:
368,236,39396,1,2,1:0:0:0:
443,276,39610,6,0,P|417:308|378:323,1,85,2|0,0:0|1:0,0:0:0:0:
300,288,40039,1,8,0:0:0:0:
440,192,40253,2,0,L|436:96,1,85,0|10,1:0|0:0,0:0:0:0:
312,140,40682,2,0,B|304:180|304:180|344:157,1,85,0|10,1:0|0:0,0:0:0:0:
432,24,41110,5,2,0:0:0:0:
432,24,42182,1,2,0:0:0:0:
356,60,42396,1,6,0:0:0:0:
272,64,42610,1,0,0:0:0:0:
192,36,42824,5,6,1:0:0:0:
192,36,43253,1,10,1:0:0:0:
192,36,43682,1,2,1:0:0:0:
192,36,44110,1,10,1:0:0:0:
152,112,44324,6,0,B|192:136|232:112|232:112|272:88|312:112,1,170,2|2,0:0|0:0,0:0:0:0:
388,72,44967,2,0,P|400:112|389:152,1,85,8|10,1:2|0:0,0:0:0:0:
248,240,45396,2,0,P|276:209|317:198,1,85,2|2,1:2|0:0,0:0:0:0:
464,280,45824,1,8,1:0:0:0:
464,280,46039,1,2,1:0:0:0:
388,72,46253,5,6,1:0:0:0:
388,72,46682,1,10,1:0:0:0:
388,72,47110,1,2,1:0:0:0:
388,72,47539,1,10,1:0:0:0:
444,139,47753,6,0,P|364:155|305:97,1,170,2|2,0:0|0:0,0:0:0:0:
168,168,48396,2,0,P|208:178|256:168,1,85,8|10,1:2|0:0,0:0:0:0:
216,4,48824,2,0,L|212:92,1,85,2|2,1:2|0:0,0:0:0:0:
200,264,49253,1,8,1:0:0:0:
200,264,49467,1,2,1:0:0:0:
52,172,49682,5,6,1:0:0:0:
52,172,50110,1,10,1:0:0:0:
52,172,50539,1,2,1:0:0:0:
52,172,50967,1,10,1:0:0:0:
136,180,51182,6,0,L|316:196,1,170,2|2,0:0|0:0,0:0:0:0:
280,316,51824,2,0,B|268:332|268:332|252:256,1,85,8|10,1:2|0:0,0:0:0:0:
388,172,52253,2,0,P|390:213|369:250,1,85,2|2,1:2|0:0,0:0:0:0:
188,320,52682,1,8,1:0:0:0:
188,320,52896,1,2,1:0:0:0:
380,352,53110,5,6,1:0:0:0:
380,352,53539,1,10,1:0:0:0:
380,352,53967,1,2,1:0:0:0:
380,352,54396,1,10,1:0:0:0:
420,280,54610,6,0,B|412:152|412:152|444:188,1,170,0|2,0:0|0:0,0:0:0:0:
500,244,55253,1,0,0:0:0:0:
500,244,55467,1,2,0:0:0:0:
336,192,55682,6,0,L|292:196,1,42.5,2|12,0:0|0:0,0:0:0:0:
220,204,56324,1,0,0:0:0:0:
439,183,56539,5,6,0:0:0:0:
440,376,69610,5,0,0:0:0:0:
480,300,69824,1,8,0:0:0:0:
464,216,70039,1,0,0:0:0:0:
384,188,70253,5,6,0:0:0:0:
384,188,70682,1,8,0:0:0:0:
384,188,71110,1,8,0:0:0:0:
384,188,71539,1,2,0:0:0:0:
446,132,71753,6,0,P|457:101|457:70,1,63.7500024318696,2|8,0:0|0:0,0:0:0:0:
396,16,72182,1,2,0:0:0:0:
396,16,72396,2,0,L|320:20,1,63.7500024318696,8|2,0:0|0:0,0:0:0:0:
272,76,72824,2,0,L|196:72,1,63.7500024318696,8|2,0:0|0:0,0:0:0:0:
188,68,73146,1,8,0:0:0:0:
168,64,73253,2,0,P|180:104|168:140,1,63.7500024318696,2|8,0:0|0:0,0:0:0:0:
116,180,73682,5,6,0:0:0:0:
116,180,74110,1,8,0:0:0:0:
116,180,74539,1,8,0:0:0:0:
116,180,74967,1,2,0:0:0:0:
144,260,75182,6,0,P|174:268|206:264,1,63.7500024318696,8|8,0:0|0:0,0:0:0:0:
284,236,75610,2,0,P|314:227|346:231,1,63.7500024318696,2|8,0:0|0:0,0:0:0:0:
416,276,76039,1,2,0:0:0:0:
480,224,76253,2,0,L|488:148,1,63.7500024318696,8|8,0:0|0:0,0:0:0:0:
496,80,76682,1,2,0:0:0:0:
476,76,76789,1,8,0:0:0:0:
456,72,76896,1,2,0:0:0:0:
436,68,77003,1,8,0:0:0:0:
416,64,77110,6,0,P|385:74|354:70,1,63.7500024318696,6|10,0:0|0:0,0:0:0:0:
288,20,77539,2,0,P|256:15|226:25,1,63.7500024318696,8|10,0:0|0:0,0:0:0:0:
160,76,77967,2,0,L|156:156,1,63.7500024318696,8|10,0:0|0:0,0:0:0:0:
152,224,78396,1,8,0:0:0:0:
144,308,78610,6,0,P|175:305|203:290,1,63.7500024318696,8|12,0:0|0:0,0:0:0:0:
264,232,79039,1,8,0:0:0:0:
324,176,79253,2,0,L|412:176,1,63.7500024318696,8|10,0:0|0:0,0:0:0:0:
428,104,79682,2,0,P|461:132|470:163,1,63.7500024318696,8|10,0:0|0:0,0:0:0:0:
452,232,80110,1,2,0:0:0:0:
424,308,80324,1,2,0:0:0:0:
408,300,80432,1,8,0:0:0:0:
392,292,80539,6,0,P|374:289|344:289,3,31.8750012159348,4|8|8|8,0:0|0:0|0:0|0:0,0:0:0:0:
316,229,80967,2,0,P|304:242|287:266,3,31.8750012159348,2|8|2|8,0:0|0:0|0:0|0:0,0:0:0:0:
220,253,81396,2,0,P|222:270|228:300,3,31.8750012159348,8|8|2|8,0:0|0:0|0:0|0:0,0:0:0:0:
284,337,81824,1,8,0:0:0:0:
256,184,82039,6,0,B|260:80|260:80|241:95,1,127.500004863739,10|0,0:0|0:0,0:0:0:0:
180,148,82682,1,0,0:0:0:0:
340,188,82896,2,0,L|420:180,1,63.7500024318696
484,172,83324,5,0,0:0:0:0:
288,120,83539,1,4,0:0:0:0:
288,120,83753,1,0,0:0:0:0:
448,48,83967,6,0,P|450:16|433:42,1,85,6|2,1:0|0:0,0:0:0:0:
424,212,84396,2,0,P|449:230|435:201,1,85,10|2,1:0|0:0,0:0:0:0:
288,120,84824,2,0,P|259:133|290:135,1,85,2|2,1:0|0:0,0:0:0:0:
512,116,85253,1,10,1:0:0:0:
352,24,85467,6,0,L|180:20,1,170,2|2,0:0|0:0,0:0:0:0:
216,164,86110,2,0,B|228:180|228:180|243:116,1,85,8|10,1:2|0:0,0:0:0:0:
100,40,86539,2,0,P|117:78|156:101,1,85,2|10,1:2|0:0,0:0:0:0:
340,132,86967,1,8,1:0:0:0:
340,132,87182,1,2,1:0:0:0:
244,248,87396,6,0,P|259:275|258:244,1,85,6|2,1:0|0:0,0:0:0:0:
336,56,87824,2,0,P|320:28|321:59,1,85,10|2,1:0|0:0,0:0:0:0:
440,232,88253,2,0,P|455:259|454:228,1,85,2|2,1:0|0:0,0:0:0:0:
264,144,88682,1,10,1:0:0:0:
351,274,88896,6,0,B|340:308|300:312|300:312|197:327,1,170,8|2,0:0|0:0,0:0:0:0:
48,260,89539,2,0,P|85:278|127:275,1,85,8|10,1:2|0:0,0:0:0:0:
112,112,89967,2,0,L|100:200,1,85,2|10,1:2|0:0,0:0:0:0:
36,40,90396,1,8,1:0:0:0:
36,40,90610,1,2,1:0:0:0:
204,68,90824,6,0,P|231:52|200:53,1,85,6|0,1:0|0:0,0:0:0:0:
20,146,91253,2,0,P|6:117|32:136,1,85,10|0,1:0|0:0,0:0:0:0:
184,252,91682,2,0,P|183:283|199:254,1,85,2|0,1:0|0:0,0:0:0:0:
128,96,92110,1,10,1:0:0:0:
44,256,92324,6,0,B|32:376|32:376|9:331,1,170,8|2,0:0|0:0,0:0:0:0:
168,356,92967,2,0,L|280:344,1,85,8|10,1:2|0:0,0:0:0:0:
380,232,93396,2,0,P|356:267|354:309,1,85,0|10,1:0|1:2,0:0:0:0:
496,384,93824,1,8,1:0:0:0:
496,384,94039,1,2,1:0:0:0:
268,248,94253,6,0,P|265:216|282:242,1,85,6|8,1:0|0:0,0:0:0:0:
468,288,94682,2,0,P|470:256|453:282,1,85,2|8,1:0|0:0,0:0:0:0:
220,344,95110,2,0,P|217:312|234:338,1,85,2|8,1:0|0:0,0:0:0:0:
400,372,95539,1,2,1:0:0:0:
368,196,95753,6,0,B|360:68|360:68|392:104,1,170,0|2,0:0|0:0,0:0:0:0:
448,160,96396,1,0,0:0:0:0:
448,160,96610,1,0,0:0:0:0:
292,272,96825,6,0,L|288:228,1,42.5,2|12,0:0|0:0,0:0:0:0:
280,156,97467,1,4,0:0:0:0:
352,336,97682,6,0,P|319:356|267:356,1,85,6|0,1:0|0:0,0:0:0:0:
212,300,98110,2,0,L|200:188,1,85,2|0,1:0|0:0,0:0:0:0:
144,156,98539,2,0,P|111:176|59:176,2,85,2|2|8,1:0|0:0|1:0,0:0:0:0:
236,44,99182,6,0,B|240:24|208:16|188:44|220:80|256:68|256:68|288:56|320:70,1,170,2|2,0:0|0:0,0:0:0:0:
392,24,99824,2,0,P|408:62|400:103,1,85,8|8,1:2|0:0,0:0:0:0:
284,192,100253,1,0,1:0:0:0:
284,192,100467,1,2,0:0:0:0:
368,184,100682,1,8,1:2:0:0:
452,176,100896,1,2,1:0:0:0:
372,352,101110,6,0,P|329:351|293:330,1,85,6|0,1:0|0:0,0:0:0:0:
216,360,101538,2,0,L|204:248,1,85,2|0,1:0|0:0,0:0:0:0:
128,312,101967,2,0,P|85:311|49:290,2,85,2|2|8,1:0|0:0|1:0,0:0:0:0:
264,208,102610,6,0,B|260:88|260:88|204:40,1,170,2|2,0:0|0:0,0:0:0:0:
152,3,103253,2,0,P|136:43|141:85,1,85,8|8,1:2|0:0,0:0:0:0:
28,184,103682,1,0,1:0:0:0:
28,184,103896,1,2,0:0:0:0:
112,172,104110,1,8,1:2:0:0:
196,160,104324,1,2,1:0:0:0:
100,384,104539,6,0,P|68:340|72:288,1,85,6|0,1:0|0:0,0:0:0:0:
132,256,104967,2,0,L|232:248,1,85,2|0,1:0|0:0,0:0:0:0:
300,276,105396,2,0,P|306:234|334:202,2,85,2|2|8,1:0|0:0|1:0,0:0:0:0:
440,360,106039,6,0,B|464:320|440:280|440:280|416:240|440:200,1,170,2|2,0:0|0:0,0:0:0:0:
508,148,106682,2,0,P|481:122|424:116,1,85,8|8,1:2|0:0,0:0:0:0:
340,0,107110,1,0,1:0:0:0:
340,0,107324,1,2,0:0:0:0:
352,84,107538,1,8,1:2:0:0:
364,168,107752,1,2,1:0:0:0:
136,104,107967,6,0,P|176:72|228:76,1,85,6|0,1:0|0:0,0:0:0:0:
272,128,108396,2,0,L|264:228,1,85,2|0,1:0|0:0,0:0:0:0:
232,292,108824,2,0,P|273:297|304:326,2,85,2|2|8,1:0|0:0|1:0,0:0:0:0:
52,332,109467,6,0,B|76:364|76:364|104:216,1,170,2|2,0:0|0:0,0:0:0:0:
112,152,110110,2,0,P|56:159|30:191,1,85,8|8,0:0|0:0,0:0:0:0:
164,296,110539,1,8,0:0:0:0:
164,296,110753,1,2,0:0:0:0:
248,288,110968,1,8,0:0:0:0:
332,280,111182,1,8,0:0:0:0:
208,208,111396,6,0,P|228:143|262:202,1,170,2|0,0:0|0:0,0:0:0:0:
