osu file format v14

[General]
AudioFilename: audio.mp3
AudioLeadIn: 0
PreviewTime: 1682
Countdown: 0
SampleSet: Soft
StackLeniency: 0.7
Mode: 0
LetterboxInBreaks: 0
WidescreenStoryboard: 0

[Editor]
Bookmarks: 69779,84351,94637,95279,111351
DistanceSpacing: 0.7
BeatDivisor: 4
GridSize: 4
TimelineZoom: 1

[Metadata]
Title:OOO
TitleUnicode:OOO
Artist:Ryu* feat. moimoi
ArtistUnicode:Ryu☆ feat. moimoi
Creator:Yales
Version:O+O+O
Source:beatmania IIDX 24 SINOBUZ
Tags:森永真由美 Mayumi Morinaga Kawashiro
BeatmapID:1506154
BeatmapSetID:712539

[Difficulty]
HPDrainRate:6
CircleSize:4
OverallDifficulty:8
ApproachRate:8.6
SliderMultiplier:2.1
SliderTickRate:1

[Events]
//Background and Video events
0,0,"bgooo.jpg",0,0
//Break Periods
2,56739,69104
//Storyboard Layer 0 (Background)
//Storyboard Layer 1 (Fail)
//Storyboard Layer 2 (Pass)
//Storyboard Layer 3 (Foreground)
//Storyboard Sound Samples

[TimingPoints]
1682,428.571428571429,4,2,1,50,1,0
1682,-200,4,2,1,50,0,0
14324,-333.333333333333,4,2,1,50,0,0
14967,-200,4,2,1,50,0,0
15396,-100,4,2,1,80,0,1
15503,-100,4,2,1,80,0,0
28253,-200,4,2,1,80,0,0
28682,-133.333333333333,4,2,1,80,0,0
29110,-133.333333333333,4,2,1,80,0,0
42396,-200,4,2,1,80,0,0
42824,-66.6666666666667,4,2,1,80,0,1
44110,-100,4,2,1,80,0,1
46253,-66.6666666666667,4,2,1,80,0,1
47539,-100,4,2,1,80,0,1
49682,-66.6666666666667,4,2,1,80,0,1
50967,-100,4,2,1,80,0,1
53110,-66.6666666666667,4,2,1,80,0,1
54396,-100,4,2,1,80,0,1
54717,-100,4,2,1,10,0,1
54824,-200,4,2,1,60,0,0
69824,-200,4,2,1,80,0,0
70253,-133.333333333333,4,2,1,50,0,0
83539,-200,4,2,1,80,0,0
83967,-50,4,2,1,90,0,1
85253,-66.6666666666667,4,2,1,90,0,1
87396,-50,4,2,1,90,0,1
88682,-66.6666666666667,4,2,1,90,0,1
90824,-50,4,2,1,90,0,1
92110,-66.6666666666667,4,2,1,90,0,1
94253,-50,4,2,1,90,0,1
95753,-200,4,2,1,70,0,0
97467,-100,4,2,1,80,0,0
97682,-66.6666666666667,4,2,1,80,0,1
97789,-66.6666666666667,4,2,1,80,0,0
98110,-100,4,2,1,80,0,0
98539,-66.6666666666667,4,2,1,80,0,0
98967,-100,4,2,1,80,0,0
109682,-100,4,2,1,60,0,0
111503,-200,4,2,1,5,0,0
113110,-200,4,2,1,30,0,0

[Colours]
Combo1 : 127,255,0
Combo2 : 234,255,0
Combo3 : 255,50,0

[HitObjects]
140,324,1682,6,0,L|15:318,2,105,6|2|8,0:0|0:0|0:0,0:0:0:0:
304,195,2967,1,2,0:0:0:0:
207,213,3182,6,0,P|203:157|211:101,1,105,2|2,0:0|0:0,0:0:0:0:
248,40,3824,1,2,0:0:0:0:
324,60,4039,1,2,1:2:0:0:
492,96,4253,5,8,0:0:0:0:
416,116,4468,1,2,0:0:0:0:
244,240,4682,5,2,0:0:0:0:
316,272,4896,1,2,0:0:0:0:
320,256,5003,1,0,0:0:0:0:
324,240,5110,6,0,P|318:172|312:132,2,105,4|2|8,0:0|0:0|0:0,0:0:0:0:
440,288,6396,1,2,0:0:0:0:
412,212,6610,6,0,P|417:144|424:104,1,105,2|2,0:0|0:0,0:0:0:0:
472,44,7253,1,2,0:0:0:0:
423,107,7467,1,2,1:2:0:0:
336,28,7682,5,8,0:0:0:0:
344,108,7896,1,2,0:0:0:0:
224,96,8110,5,2,0:0:0:0:
276,156,8324,1,2,0:0:0:0:
156,173,8539,6,0,P|100:161|40:165,2,105,4|2|2,0:0|0:0|0:0,0:0:0:0:
176,300,9824,1,0,0:0:0:0:
228,240,10039,6,0,P|284:228|344:232,1,105,2|2,0:0|0:0,0:0:0:0:
392,280,10682,1,0,0:0:0:0:
376,356,10896,1,0,0:0:0:0:
480,220,11110,5,8,0:0:0:0:
496,296,11324,1,0,0:0:0:0:
392,88,11539,5,0,0:0:0:0:
376,164,11753,1,0,0:0:0:0:
188,52,11967,5,0,0:0:0:0:
208,128,12396,1,0,0:0:0:0:
232,204,12824,1,0,0:0:0:0:
280,36,13253,1,0,0:0:0:0:
336,88,13467,6,0,P|384:96|452:84,1,105
476,24,14110,1,0,0:0:0:0:
465,169,14324,6,0,L|472:241,1,62.9999980773926
377,286,14967,6,0,P|331:291|287:307,1,78.75,12|0,0:0|0:0,0:0:0:0:
204,264,15396,6,0,P|280:276|360:244,1,157.5,6|0,1:0|0:0,0:0:0:0:
372,172,15824,2,0,L|360:40,1,105,10|0,1:0|0:0,0:0:0:0:
492,0,16253,2,0,L|480:184,1,157.5,2|0,1:0|0:0,0:0:0:0:
472,232,16682,1,10,1:0:0:0:
280,104,16896,1,2,0:0:0:0:
372,172,17110,5,0,1:0:0:0:
160,116,17324,1,2,0:0:0:0:
160,116,17432,1,0,0:0:0:0:
160,116,17539,2,0,P|104:108|40:120,1,105,8|8,1:2|0:0,0:0:0:0:
28,204,17967,1,2,1:2:0:0:
280,252,18182,1,2,0:0:0:0:
202,365,18396,1,8,1:2:0:0:
202,365,18610,1,2,1:0:0:0:
202,365,18824,6,0,B|218:313|218:313|198:265|198:265|210:197,1,157.5,6|0,1:0|0:0,0:0:0:0:
162,153,19253,1,10,1:0:0:0:
420,196,19467,1,0,0:0:0:0:
296,96,19682,6,0,L|276:288,1,157.5,2|0,1:0|0:0,0:0:0:0:
312,324,20110,1,10,1:0:0:0:
432,104,20324,1,2,0:0:0:0:
372,264,20539,5,0,1:0:0:0:
356,32,20753,1,2,0:0:0:0:
356,32,20860,1,0,0:0:0:0:
356,32,20967,1,8,1:2:0:0:
420,196,21182,1,8,0:0:0:0:
244,84,21396,2,0,P|192:80|88:144,1,157.5,2|0,1:2|0:0,0:0:0:0:
60,192,21824,5,8,1:2:0:0:
279,252,22039,1,2,1:0:0:0:
60,376,22253,6,0,P|108:328|200:312,1,157.5,6|0,1:0|0:0,0:0:0:0:
256,356,22682,2,0,P|312:372|388:348,1,105,10|0,1:0|0:0,0:0:0:0:
494,274,23110,2,0,P|504:192|488:104,1,157.5,2|0,1:0|0:0,0:0:0:0:
456,52,23539,1,10,1:0:0:0:
276,160,23753,1,2,0:0:0:0:
340,24,23967,5,0,1:0:0:0:
388,200,24182,1,2,0:0:0:0:
384,216,24289,1,0,0:0:0:0:
380,232,24396,1,8,1:2:0:0:
232,364,24610,1,8,0:0:0:0:
200,168,24824,1,2,1:2:0:0:
296,276,25039,5,2,0:0:0:0:
109,217,25253,1,8,1:2:0:0:
252,82,25467,1,2,1:0:0:0:
464,304,25682,6,0,P|368:356|304:324,1,157.5,2|0,1:0|0:0,0:0:0:0:
296,276,26110,2,0,L|288:160,1,105,10|0,1:0|0:0,0:0:0:0:
444,0,26539,2,0,L|432:168,1,157.5,2|0,1:0|0:0,0:0:0:0:
424,232,26967,1,10,1:0:0:0:
152,192,27182,5,2,0:0:0:0:
156,180,27610,5,2,0:0:0:0:
160,168,28039,5,2,0:0:0:0:
216,96,28253,2,0,P|284:88|308:96,1,78.75,2|0,0:0|0:0,0:0:0:0:
304,112,28682,6,0,L|308:168,1,39.3750015020371,8|0,0:0|0:0,0:0:0:0:
400,32,28896,2,0,L|404:88,1,39.3750015020371,8|0,0:0|0:0,0:0:0:0:
336,128,29110,6,0,L|344:232,1,78.7500030040742,4|2,1:0|0:0,0:0:0:0:
342,206,29432,1,8,0:0:0:0:
342,206,29539,1,0,1:0:0:0:
456,156,29753,1,8,0:0:0:0:
256,216,29967,2,0,L|252:284,2,39.3750015020371,0|0|2,1:0|0:0|0:0,0:0:0:0:
176,144,30396,1,0,1:0:0:0:
96,304,30610,1,8,0:0:0:0:
52,224,30824,6,0,P|92:216|136:220,1,78.7500030040742,0|2,1:0|0:0,0:0:0:0:
129,218,31146,1,8,0:0:0:0:
129,218,31253,1,0,1:0:0:0:
192,360,31467,1,8,0:0:0:0:
292,296,31682,2,0,L|340:300,2,39.3750015020371,0|0|2,1:0|0:0|0:0,0:0:0:0:
456,324,32110,1,0,1:0:0:0:
456,324,32324,1,10,1:0:0:0:
456,324,32539,6,0,B|448:284|448:284|456:244,1,78.7500030040742,2|2,1:0|0:0,0:0:0:0:
455,246,32860,1,8,0:0:0:0:
455,246,32967,1,0,1:0:0:0:
412,72,33182,1,8,0:0:0:0:
376,168,33396,2,0,L|384:228,2,39.3750015020371,0|0|2,1:0|0:0|0:0,0:0:0:0:
512,128,33824,1,0,1:0:0:0:
256,180,34039,1,8,0:0:0:0:
296,16,34253,6,0,P|302:54|304:124,1,78.7500030040742,2|2,1:0|0:0,0:0:0:0:
304,94,34574,1,8,0:0:0:0:
304,94,34682,1,0,1:0:0:0:
300,280,34896,1,8,0:0:0:0:
168,64,35110,2,0,P|172:92|180:124,2,39.3750015020371,2|0|2,1:0|0:0|0:0,0:0:0:0:
108,272,35539,1,0,1:0:0:0:
36,104,35753,1,2,1:0:0:0:
36,208,35967,6,0,P|80:196|120:168,1,78.7500030040742,6|2,1:0|0:0,0:0:0:0:
107,178,36289,1,8,0:0:0:0:
107,178,36396,1,0,1:0:0:0:
336,212,36610,1,8,0:0:0:0:
224,204,36824,2,0,P|200:208|176:220,2,39.3750015020371,0|8|2,1:0|0:0|0:0,0:0:0:0:
352,120,37253,1,0,1:0:0:0:
336,212,37467,6,0,P|340:272|348:316,1,78.7500030040742,8|0,0:0|1:0,0:0:0:0:
424,360,37896,1,2,0:0:0:0:
424,360,38003,1,8,0:0:0:0:
424,360,38110,1,0,1:0:0:0:
460,236,38324,1,8,0:0:0:0:
260,336,38539,2,0,L|212:328,2,39.3750015020371,0|0|2,1:0|0:0|0:0,0:0:0:0:
144,260,38967,1,0,1:0:0:0:
76,368,39182,1,2,1:0:0:0:
52,260,39396,6,0,P|52:224|56:176,1,78.7500030040742,2|2,1:0|0:0,0:0:0:0:
76,152,39717,1,8,0:0:0:0:
76,152,39824,1,0,1:0:0:0:
76,152,39932,1,8,0:0:0:0:
76,152,40039,1,8,0:0:0:0:
228,208,40253,1,0,1:0:0:0:
228,208,40360,1,8,0:0:0:0:
228,208,40467,5,10,0:0:0:0:
188,28,40682,1,0,1:0:0:0:
368,80,40896,1,10,0:0:0:0:
360,60,41324,6,0,P|356:88|356:132,1,39.3750015020371,2|0,0:0|0:0,0:0:0:0:
312,248,41646,6,0,P|311:228|307:208,1,39.3750015020371,0|2,0:0|0:0,0:0:0:0:
176,108,41967,6,0,P|172:136|172:180,1,39.3750015020371
168,272,42182,1,2,0:0:0:0:
168,272,42396,6,0,P|165:230|156:180,1,78.75,6|0,0:0|0:0,0:0:0:0:
148,56,42824,6,0,P|105:117|142:49,1,236.250009012223,6|0,1:0|0:0,0:0:0:0:
256,156,43253,6,0,P|299:217|262:149,1,236.250009012223,10|0,1:0|0:0,0:0:0:0:
84,248,43682,6,0,P|41:309|78:241,1,236.250009012223,2|0,1:0|0:0,0:0:0:0:
176,236,44110,5,10,1:0:0:0:
176,236,44324,2,0,P|173:268|172:312,1,52.5,2|0,0:0|0:0,0:0:0:0:
172,372,44539,5,0,1:0:0:0:
420,312,44753,1,2,0:0:0:0:
420,312,44860,1,0,0:0:0:0:
420,312,44967,1,8,1:2:0:0:
264,216,45182,1,10,0:0:0:0:
412,136,45396,2,0,L|416:64,2,52.5,2|0|2,1:2|0:0|0:0,0:0:0:0:
208,96,45824,1,8,1:0:0:0:
416,32,46039,1,2,1:0:0:0:
100,60,46253,6,0,P|57:121|94:53,1,236.250009012223,6|0,1:0|0:0,0:0:0:0:
264,216,46682,6,0,P|325:266|273:205,1,236.250009012223,10|0,1:0|0:0,0:0:0:0:
76,284,47110,6,0,P|33:345|70:277,1,236.250009012223,2|0,1:0|0:0,0:0:0:0:
152,360,47539,5,10,1:0:0:0:
152,360,47753,2,0,P|183:357|212:360,1,52.5,2|0,0:0|0:0,0:0:0:0:
284,316,47967,5,0,0:0:0:0:
372,376,48182,1,2,0:0:0:0:
372,376,48289,1,0,0:0:0:0:
372,376,48396,1,8,1:2:0:0:
384,164,48610,1,10,0:0:0:0:
188,244,48824,2,0,B|161:251|161:251|137:245,1,52.5,2|0,1:2|0:0,0:0:0:0:
62,200,49039,1,2,0:0:0:0:
236,132,49253,1,8,1:0:0:0:
92,8,49467,1,2,1:0:0:0:
376,36,49682,6,0,P|312:84|365:24,1,236.250009012223,6|0,1:0|0:0,0:0:0:0:
424,171,50110,6,0,P|475:232|434:164,1,236.250009012223,10|0,1:0|0:0,0:0:0:0:
332,312,50539,6,0,P|263:355|319:296,1,236.250009012223,2|0,1:0|0:0,0:0:0:0:
204,224,50967,5,10,1:0:0:0:
204,224,51182,2,0,P|200:192|192:152,1,52.5,2|0,0:0|0:0,0:0:0:0:
144,112,51396,5,0,1:0:0:0:
348,152,51610,2,0,P|352:120|360:80,1,52.5,2|0,0:0|0:0,0:0:0:0:
408,40,51824,1,8,1:2:0:0:
256,108,52039,1,10,0:0:0:0:
428,200,52253,2,0,L|432:276,2,52.5,2|0|2,1:2|0:0|0:0,0:0:0:0:
244,248,52682,1,8,1:0:0:0:
440,364,52896,1,2,1:0:0:0:
144,292,53110,6,0,P|83:344|133:282,1,236.250009012223,6|0,1:0|0:0,0:0:0:0:
336,240,53539,6,0,P|401:287|346:228,1,236.250009012223,10|0,1:0|0:0,0:0:0:0:
196,72,53967,6,0,P|142:130|185:64,1,236.250009012223,2|0,1:0|0:0,0:0:0:0:
300,132,54396,5,10,1:0:0:0:
300,132,54610,2,0,P|296:96|300:56,1,52.5
364,24,54824,5,2,0:0:0:0:
448,64,55039,1,2,0:0:0:0:
460,72,55146,1,0,0:0:0:0:
412,144,55360,1,0,0:0:0:0:
404,156,55467,1,2,0:0:0:0:
468,224,55682,6,0,L|476:316,1,78.75,2|0,0:0|0:0,0:0:0:0:
480,352,56110,1,12,0:0:0:0:
348,228,56324,2,0,L|346:253,1,26.25
336,340,56539,5,6,0:0:0:0:
400,372,69824,6,0,L|404:276,1,78.75,8|0,0:0|0:0,0:0:0:0:
404,248,70253,5,6,0:0:0:0:
308,200,70682,5,8,0:0:0:0:
232,272,71111,5,8,0:0:0:0:
172,192,71324,1,2,0:0:0:0:
172,192,71432,1,8,0:0:0:0:
172,192,71539,1,2,0:0:0:0:
80,136,71753,1,2,0:0:0:0:
24,220,71967,5,8,0:0:0:0:
96,268,72182,1,2,0:0:0:0:
97,279,72289,1,0,0:0:0:0:
98,291,72397,1,8,0:0:0:0:
168,204,72610,1,2,0:0:0:0:
232,280,72824,1,8,0:0:0:0:
304,216,73039,1,2,0:0:0:0:
303,227,73146,1,8,0:0:0:0:
302,239,73254,1,2,0:0:0:0:
396,268,73467,1,8,0:0:0:0:
397,279,73574,1,8,0:0:0:0:
398,291,73682,5,6,0:0:0:0:
440,180,74110,5,8,0:0:0:0:
408,64,74539,5,8,0:0:0:0:
302,168,74753,1,2,0:0:0:0:
302,168,74860,1,8,0:0:0:0:
302,168,74967,1,2,0:0:0:0:
334,59,75182,1,8,0:0:0:0:
168,64,75396,5,8,0:0:0:0:
220,144,75610,1,2,0:0:0:0:
219,155,75717,1,0,0:0:0:0:
218,167,75825,1,8,0:0:0:0:
112,208,76039,1,2,0:0:0:0:
252,268,76253,1,8,0:0:0:0:
136,304,76467,1,8,0:0:0:0:
137,315,76574,1,8,0:0:0:0:
138,327,76682,1,2,0:0:0:0:
139,339,76789,1,8,0:0:0:0:
141,351,76896,1,2,0:0:0:0:
142,363,77003,1,8,0:0:0:0:
143,375,77110,5,6,0:0:0:0:
216,192,77324,2,0,L|224:140,2,39.3750015020371,10|0|8,0:0|0:0|0:0,0:0:0:0:
300,248,77753,1,10,0:0:0:0:
336,160,77967,1,8,0:0:0:0:
332,148,78074,1,0,0:0:0:0:
328,136,78182,1,10,0:0:0:0:
428,100,78396,1,8,0:0:0:0:
464,204,78610,1,8,0:0:0:0:
460,216,78717,1,8,0:0:0:0:
456,228,78825,5,12,0:0:0:0:
416,380,79039,1,8,0:0:0:0:
448,304,79254,1,8,0:0:0:0:
297,379,79467,1,10,0:0:0:0:
360,224,79682,1,8,0:0:0:0:
246,274,79896,6,0,L|182:262,1,39.3750015020371,10|8,0:0|0:0,0:0:0:0:
170,354,80110,2,0,L|106:366,1,39.3750015020371,2|8,0:0|0:0,0:0:0:0:
78,266,80324,2,0,L|14:254,1,39.3750015020371,2|8,0:0|0:0,0:0:0:0:
20,128,80539,5,4,0:0:0:0:
40,148,80646,1,8,0:0:0:0:
64,160,80753,1,8,0:0:0:0:
92,164,80860,1,8,0:0:0:0:
120,160,80967,1,2,0:0:0:0:
144,148,81074,1,8,0:0:0:0:
164,128,81182,1,2,0:0:0:0:
180,104,81289,1,8,0:0:0:0:
192,80,81396,1,8,0:0:0:0:
212,64,81503,1,8,0:0:0:0:
236,52,81610,1,2,0:0:0:0:
264,52,81717,1,8,0:0:0:0:
288,64,81824,1,8,0:0:0:0:
308,84,81932,1,8,0:0:0:0:
320,108,82039,6,0,L|312:172,1,39.3750015020371,10|8,0:0|0:0,0:0:0:0:
84,120,83324,1,0,0:0:0:0:
184,240,83539,6,0,L|180:148,1,78.75,4|0,0:0|0:0,0:0:0:0:
208,72,83967,5,6,1:0:0:0:
208,72,84182,2,0,P|236:50|216:76,1,105,2|0,0:0|0:0,0:0:0:0:
242,327,84396,5,10,1:0:0:0:
242,327,84610,2,0,P|235:363|246:328,1,105,2|0,0:0|0:0,0:0:0:0:
452,180,84824,5,2,1:0:0:0:
452,180,85039,2,0,P|456:148|456:182,1,105,2|0,0:0|0:0,0:0:0:0:
164,236,85253,5,10,1:0:0:0:
164,236,85467,2,0,P|220:228|268:240,1,78.7500030040742,2|0,0:0|0:0,0:0:0:0:
360,379,85682,5,0,1:0:0:0:
408,264,85896,1,2,0:0:0:0:
412,256,86003,1,0,0:0:0:0:
416,248,86110,1,8,1:2:0:0:
284,56,86324,1,10,0:0:0:0:
340,176,86539,1,2,1:2:0:0:
344,184,86646,1,0,0:0:0:0:
348,192,86753,1,10,0:0:0:0:
260,300,86967,1,8,1:0:0:0:
436,336,87182,1,2,1:0:0:0:
139,377,87396,5,6,1:0:0:0:
139,377,87610,2,0,P|126:343|146:372,1,105,2|0,0:0|0:0,0:0:0:0:
233,83,87824,5,10,1:0:0:0:
233,83,88039,2,0,P|216:115|229:81,1,105,2|0,0:0|0:0,0:0:0:0:
436,336,88253,5,2,1:0:0:0:
436,336,88467,2,0,P|440:300|428:333,1,105,2|0,0:0|0:0,0:0:0:0:
512,56,88682,5,10,1:0:0:0:
512,56,88896,2,0,L|424:44,1,78.7500030040742,8|0,0:0|0:0,0:0:0:0:
310,50,89110,5,0,1:0:0:0:
340,260,89324,1,2,0:0:0:0:
336,268,89432,1,0,0:0:0:0:
332,276,89539,1,8,1:2:0:0:
448,200,89753,1,10,0:0:0:0:
168,216,89967,1,2,1:2:0:0:
172,224,90075,1,0,0:0:0:0:
176,232,90182,1,10,0:0:0:0:
0,192,90396,1,8,1:0:0:0:
16,372,90610,1,2,1:0:0:0:
124,28,90824,5,6,1:0:0:0:
124,28,91039,2,0,P|107:60|117:26,1,105
452,120,91253,5,10,1:0:0:0:
452,120,91467,2,0,P|423:101|453:115,1,105
176,240,91682,5,2,1:0:0:0:
176,240,91896,2,0,P|191:208|182:243,1,105
508,248,92110,5,10,1:0:0:0:
508,248,92324,2,0,P|465:229|400:232,1,78.7500030040742,8|0,0:0|0:0,0:0:0:0:
288,320,92539,5,0,1:0:0:0:
235,30,92753,1,2,0:0:0:0:
239,36,92860,1,0,0:0:0:0:
243,42,92967,1,8,1:2:0:0:
107,294,93182,1,10,0:0:0:0:
354,166,93396,1,0,1:0:0:0:
360,161,93503,1,0,0:0:0:0:
366,156,93610,1,10,1:2:0:0:
75,115,93824,1,8,1:0:0:0:
132,380,94039,1,2,1:0:0:0:
228,16,94253,5,6,1:0:0:0:
228,16,94467,6,0,P|176:36|147:78,1,105,8|8,0:0|0:0,0:0:0:0:
404,100,94682,2,0,P|385:53|341:19,1,105,2|8,1:0|0:0,0:0:0:0:
312,264,94896,2,0,P|360:242|392:200,1,105,8|8,0:0|0:0,0:0:0:0:
136,176,95110,2,0,P|157:226|200:256,1,105,2|8,1:0|0:0,0:0:0:0:
343,20,95324,1,8,0:0:0:0:
64,216,95539,1,2,1:0:0:0:
370,317,95753,6,0,L|470:303,1,78.75
476,295,96182,1,2,0:0:0:0:
472,287,96289,1,0,0:0:0:0:
468,279,96396,1,0,0:0:0:0:
483,177,96610,1,0,0:0:0:0:
400,116,96824,1,2,0:0:0:0:
392,104,97253,6,0,L|388:68,1,26.25,12|0,0:0|0:0,0:0:0:0:
483,177,97467,6,0,L|499:101,1,52.5,4|0,0:0|0:0,0:0:0:0:
352,196,97682,6,0,L|92:176,1,236.250009012223,6|0,1:0|0:0,0:0:0:0:
56,120,98110,6,0,P|33:187|60:300,1,157.5,2|0,1:0|0:0,0:0:0:0:
88,340,98539,5,2,1:0:0:0:
364,284,98753,1,2,0:0:0:0:
148,264,98967,1,8,1:0:0:0:
354,135,99182,1,2,0:0:0:0:
350,139,99289,1,0,0:0:0:0:
346,143,99396,6,0,L|354:219,1,52.5,0|0,1:0|0:0,0:0:0:0:
452,72,99610,2,0,L|444:148,1,52.5,2|0,0:0|0:0,0:0:0:0:
344,56,99824,6,0,L|336:132,1,52.5,8|0,1:2|0:0,0:0:0:0:
240,120,100039,2,0,L|248:196,1,52.5,8|0,0:0|0:0,0:0:0:0:
228,36,100253,6,0,L|220:112,1,52.5,0|0,1:0|0:0,0:0:0:0:
124,104,100467,2,0,L|132:180,1,52.5,2|0,0:0|0:0,0:0:0:0:
108,20,100682,6,0,L|100:96,1,52.5,8|0,1:2|0:0,0:0:0:0:
0,80,100896,2,0,L|8:156,1,52.5,2|0,1:0|0:0,0:0:0:0:
28,344,101110,6,0,P|144:336|176:300,1,157.5,6|0,1:0|0:0,0:0:0:0:
224,260,101539,2,0,P|284:248|324:260,1,105,2|0,1:0|0:0,0:0:0:0:
352,368,101967,1,2,1:0:0:0:
300,168,102182,1,2,0:0:0:0:
448,312,102396,1,8,1:0:0:0:
488,112,102610,1,2,0:0:0:0:
480,116,102718,1,0,0:0:0:0:
472,120,102825,6,0,L|460:188,1,52.5,0|0,1:0|0:0,0:0:0:0:
396,104,103039,2,0,L|384:172,1,52.5,2|8,0:0|0:0,0:0:0:0:
300,168,103254,6,0,L|312:236,1,52.5,8|0,1:2|0:0,0:0:0:0:
224,184,103468,2,0,L|236:252,1,52.5,8|0,0:0|0:0,0:0:0:0:
200,48,103682,6,0,L|190:99,1,52.5,0|0,1:0|0:0,0:0:0:0:
124,32,103896,2,0,L|114:83,1,52.5,2|0,0:0|0:0,0:0:0:0:
76,164,104110,6,0,L|88:232,1,52.5,8|0,1:2|0:0,0:0:0:0:
0,180,104324,2,0,L|12:248,1,52.5,2|0,1:0|0:0,0:0:0:0:
60,348,104539,6,0,P|120:320|232:348,1,157.5,6|0,1:0|0:0,0:0:0:0:
252,256,104967,2,0,P|288:312|316:336,2,52.5,2|0|0,1:0|0:0|0:0,0:0:0:0:
392,316,105396,1,2,1:0:0:0:
328,188,105610,1,2,0:0:0:0:
328,384,105824,1,8,1:0:0:0:
404,220,106039,1,2,0:0:0:0:
408,212,106146,1,0,0:0:0:0:
412,204,106253,6,0,L|404:140,1,52.5,0|0,1:0|0:0,0:0:0:0:
484,52,106467,2,0,L|490:104,1,52.5,2|8,0:0|0:0,0:0:0:0:
320,220,106682,6,0,L|312:156,1,52.5,8|0,1:2|0:0,0:0:0:0:
392,68,106896,2,0,L|398:120,1,52.5,8|0,0:0|0:0,0:0:0:0:
128,184,107110,6,0,L|136:120,1,52.5,0|0,1:0|0:0,0:0:0:0:
56,32,107324,2,0,L|49:84,1,52.5,2|0,0:0|0:0,0:0:0:0:
220,200,107539,6,0,L|228:136,1,52.5,8|0,1:2|0:0,0:0:0:0:
148,48,107753,2,0,L|141:100,1,52.5,2|0,1:0|0:0,0:0:0:0:
10,274,107967,6,0,P|98:270|174:318,1,157.5,6|0,1:0|0:0,0:0:0:0:
204,361,108396,2,0,P|272:365|336:345,1,105,2|0,1:0|0:0,0:0:0:0:
344,248,108824,1,2,1:0:0:0:
443,349,109039,1,2,0:0:0:0:
459,45,109253,5,8,1:0:0:0:
512,168,109467,1,2,0:0:0:0:
508,176,109574,1,0,0:0:0:0:
504,184,109681,6,0,P|500:220|500:264,1,52.5,8|0,0:0|0:0,0:0:0:0:
420,212,109895,2,0,P|424:256|432:292,1,52.5,2|0,0:0|0:0,0:0:0:0:
348,116,110110,6,0,P|344:152|344:196,1,52.5,8|0,0:0|0:0,0:0:0:0:
264,144,110324,2,0,P|268:188|276:224,1,52.5,8|0,0:0|0:0,0:0:0:0:
192,276,110538,6,0,P|188:312|188:356,1,52.5,8|0,0:0|0:0,0:0:0:0:
108,304,110752,2,0,P|112:348|120:384,1,52.5,2|0,0:0|0:0,0:0:0:0:
88,160,110967,6,0,P|84:196|84:240,1,52.5,8|0,0:0|0:0,0:0:0:0:
4,188,111181,2,0,P|8:232|16:268,1,52.5,8|0,0:0|0:0,0:0:0:0:
24,332,111396,5,2,0:0:0:0:
256,192,111503,12,2,113110,0:0:0:0:
