osu file format v14

[General]
AudioFilename: audio.mp3
AudioLeadIn: 0
PreviewTime: 42824
Countdown: 0
SampleSet: Normal
StackLeniency: 0.7
Mode: 1
LetterboxInBreaks: 0
WidescreenStoryboard: 0

[Editor]
DistanceSpacing: 1.3
BeatDivisor: 2
GridSize: 32
TimelineZoom: 0.4999999

[Metadata]
Title:OOO
TitleUnicode:OOO
Artist:Ryu* feat. moimoi
ArtistUnicode:Ryu☆ feat. moimoi
Creator:[R]
Version:Yales' Kantan
Source:beatmania IIDX 24 SINOBUZ
Tags:森永真由美 Din Don Dan Mayumi Morinaga Yales Ron's
BeatmapID:1607693
BeatmapSetID:764462

[Difficulty]
HPDrainRate:8
CircleSize:2
OverallDifficulty:2
ApproachRate:5
SliderMultiplier:1.4
SliderTickRate:1

[Events]
//Background and Video events
0,0,"BG.jpg",0,0
//Break Periods
//Storyboard Layer 0 (Background)
//Storyboard Layer 1 (Fail)
//Storyboard Layer 2 (Pass)
//Storyboard Layer 3 (Foreground)
//Storyboard Sound Samples

[TimingPoints]
1682,428.571428571429,4,1,0,90,1,0
42824,-100,4,1,0,90,0,1
54824,-100,4,1,0,90,0,0
83967,-100,4,1,0,90,0,1
95753,-100,4,1,0,90,0,0

[HitObjects]
256,192,1682,5,0,0:0:0:0:
256,192,2539,1,8,0:0:0:0:
256,192,3396,1,0,0:0:0:0:
256,192,5110,1,0,0:0:0:0:
256,192,5967,1,8,0:0:0:0:
256,192,6824,1,0,0:0:0:0:
256,192,7682,1,8,0:0:0:0:
256,192,8110,1,8,0:0:0:0:
256,192,8539,1,0,0:0:0:0:
256,192,9396,1,8,0:0:0:0:
256,192,10253,1,0,0:0:0:0:
256,192,11967,1,0,0:0:0:0:
256,192,12824,1,8,0:0:0:0:
256,192,13467,1,0,0:0:0:0:
256,192,15396,5,4,0:0:0:0:
256,192,15824,1,8,0:0:0:0:
256,192,16681,1,8,0:0:0:0:
256,192,17538,1,0,0:0:0:0:
256,192,17968,1,0,0:0:0:0:
256,192,18825,1,0,0:0:0:0:
256,192,19253,1,8,0:0:0:0:
256,192,20110,1,8,0:0:0:0:
256,192,21396,1,0,0:0:0:0:
256,192,22254,1,0,0:0:0:0:
256,192,22682,1,8,0:0:0:0:
256,192,23539,1,8,0:0:0:0:
256,192,24396,1,0,0:0:0:0:
256,192,24824,1,0,0:0:0:0:
256,192,25682,1,0,0:0:0:0:
256,192,26111,1,8,0:0:0:0:
256,192,26968,1,8,0:0:0:0:
256,192,29110,1,4,0:0:0:0:
256,192,29967,1,8,0:0:0:0:
256,192,30824,1,0,0:0:0:0:
256,192,31682,1,8,0:0:0:0:
256,192,32110,1,8,0:0:0:0:
256,192,32539,1,0,0:0:0:0:
256,192,33396,1,0,0:0:0:0:
256,192,34253,1,8,0:0:0:0:
256,192,35967,1,0,0:0:0:0:
256,192,36824,1,8,0:0:0:0:
256,192,37681,1,0,0:0:0:0:
256,192,38539,1,8,0:0:0:0:
256,192,38967,1,8,0:0:0:0:
256,192,39396,1,0,0:0:0:0:
256,192,40253,1,0,0:0:0:0:
256,192,40682,1,0,0:0:0:0:
256,192,41110,1,8,0:0:0:0:
256,192,42824,1,4,0:0:0:0:
256,192,43252,1,8,0:0:0:0:
256,192,44109,1,8,0:0:0:0:
256,192,44966,1,0,0:0:0:0:
256,192,45396,1,0,0:0:0:0:
256,192,46253,1,0,0:0:0:0:
256,192,46681,1,8,0:0:0:0:
256,192,47538,1,8,0:0:0:0:
256,192,48396,1,8,0:0:0:0:
256,192,48824,1,8,0:0:0:0:
256,192,49682,1,0,0:0:0:0:
256,192,50110,1,8,0:0:0:0:
256,192,50967,1,8,0:0:0:0:
256,192,51824,1,0,0:0:0:0:
256,192,52254,1,0,0:0:0:0:
256,192,53110,1,0,0:0:0:0:
256,192,53539,1,8,0:0:0:0:
256,192,54396,1,8,0:0:0:0:
256,192,56110,1,8,0:0:0:0:
256,192,56539,1,4,0:0:0:0:
256,192,57396,1,8,0:0:0:0:
256,192,58253,1,0,0:0:0:0:
256,192,59110,1,8,0:0:0:0:
256,192,59967,1,0,0:0:0:0:
256,192,60824,1,8,0:0:0:0:
256,192,61682,1,8,0:0:0:0:
256,192,63396,1,0,0:0:0:0:
256,192,64253,1,8,0:0:0:0:
256,192,65110,1,0,0:0:0:0:
256,192,65967,1,8,0:0:0:0:
256,192,66824,1,0,0:0:0:0:
256,192,67682,1,0,0:0:0:0:
256,192,68539,1,8,0:0:0:0:
256,192,70253,1,0,0:0:0:0:
256,192,70682,1,8,0:0:0:0:
256,192,71539,1,0,0:0:0:0:
256,192,72396,1,8,0:0:0:0:
256,192,72824,1,8,0:0:0:0:
256,192,73681,1,0,0:0:0:0:
256,192,74110,1,8,0:0:0:0:
256,192,74967,1,0,0:0:0:0:
256,192,76253,1,8,0:0:0:0:
256,192,77110,1,0,0:0:0:0:
256,192,77539,1,8,0:0:0:0:
256,192,78396,1,0,0:0:0:0:
256,192,79253,1,8,0:0:0:0:
256,192,79681,1,8,0:0:0:0:
256,192,80538,1,0,0:0:0:0:
256,192,80967,1,8,0:0:0:0:
256,192,81824,1,0,0:0:0:0:
256,192,83967,1,4,0:0:0:0:
256,192,84396,1,12,0:0:0:0:
256,192,84824,1,4,0:0:0:0:
256,192,85252,1,12,0:0:0:0:
256,192,86110,1,8,0:0:0:0:
256,192,86539,1,0,0:0:0:0:
256,192,87395,1,4,0:0:0:0:
256,192,87824,1,12,0:0:0:0:
256,192,88252,1,4,0:0:0:0:
256,192,88682,1,12,0:0:0:0:
256,192,89967,1,8,0:0:0:0:
256,192,90824,1,4,0:0:0:0:
256,192,91253,1,12,0:0:0:0:
256,192,91682,1,4,0:0:0:0:
256,192,92110,1,12,0:0:0:0:
256,192,92967,1,8,0:0:0:0:
256,192,93397,1,0,0:0:0:0:
256,192,94253,1,4,0:0:0:0:
256,192,94682,1,12,0:0:0:0:
256,192,95110,1,4,0:0:0:0:
256,192,95539,1,12,0:0:0:0:
256,192,97253,1,8,0:0:0:0:
256,192,97682,1,4,0:0:0:0:
256,192,98539,1,0,0:0:0:0:
256,192,99182,1,8,0:0:0:0:
256,192,99824,1,0,0:0:0:0:
256,192,100253,1,8,0:0:0:0:
256,192,101110,1,8,0:0:0:0:
256,192,102610,1,0,0:0:0:0:
256,192,103253,1,8,0:0:0:0:
256,192,103682,1,0,0:0:0:0:
256,192,104539,1,0,0:0:0:0:
256,192,105396,1,0,0:0:0:0:
256,192,106039,1,8,0:0:0:0:
256,192,106682,1,0,0:0:0:0:
256,192,107110,1,8,0:0:0:0:
256,192,107967,1,8,0:0:0:0:
256,192,109467,1,0,0:0:0:0:
256,192,110110,1,8,0:0:0:0:
256,192,110539,1,0,0:0:0:0:
256,192,110967,1,8,0:0:0:0:
256,192,111396,8,0,113110,0:0:0:0:
