osu file format v14

[General]
AudioFilename: audio.mp3
AudioLeadIn: 0
PreviewTime: 109253
Countdown: 0
SampleSet: Normal
StackLeniency: 0.7
Mode: 3
LetterboxInBreaks: 0
SpecialStyle: 0
WidescreenStoryboard: 0

[Editor]
DistanceSpacing: 1.2
BeatDivisor: 4
GridSize: 32
TimelineZoom: 2.1

[Metadata]
Title:CRITICAL LINE (Quarks Remix)
TitleUnicode:CRITICAL LINE (Quarks Remix)
Artist:Ryu* feat. kradness Remixed by Quarks
ArtistUnicode:Ryu☆ feat. kradness Remixed by Quarks
Creator:PianoLuigi
Version:Insane
Source:
Tags:Mira Quarks EXIT TUNES SQCE-00043 Ryu* Ryu☆ Ryutaro Nakahara 中原 龍太郎 かめりあ Electronic Psytrance
BeatmapID:2015270
BeatmapSetID:962448

[Difficulty]
HPDrainRate:8
CircleSize:4
OverallDifficulty:8
ApproachRate:5
SliderMultiplier:1.4
SliderTickRate:1

[Events]
//Background and Video events
0,0,"NewBG.jpg",0,0
//Break Periods
//Storyboard Layer 0 (Background)
//Storyboard Layer 1 (Fail)
//Storyboard Layer 2 (Pass)
//Storyboard Layer 3 (Foreground)
//Storyboard Layer 4 (Overlay)
//Storyboard Sound Samples

[TimingPoints]
2395,352.941176470588,4,1,0,30,1,0
46159,-83.3333333333333,4,1,0,30,0,0
46247,-111.111111111111,4,1,0,30,0,0
46424,-83.3333333333333,4,1,0,30,0,0
46512,-111.111111111111,4,1,0,30,0,0
46689,-83.3333333333333,4,1,0,30,0,0
46777,-111.111111111111,4,1,0,30,0,0
46953,-83.3333333333333,4,1,0,30,0,0
47042,-111.111111111111,4,1,0,30,0,0
47218,-100,4,1,0,30,0,0
68747,-66.6666666666667,4,1,0,30,0,0
68792,-120.481927710843,4,1,0,30,0,0
68924,-66.6666666666667,4,1,0,30,0,0
68969,-120.481927710843,4,1,0,30,0,0
69100,-66.6666666666667,4,1,0,30,0,0
69145,-120.481927710843,4,1,0,30,0,0
69409,-66.6666666666667,4,1,0,30,0,0
69453,-83.3333333333333,4,1,0,30,0,0
69542,-111.111111111111,4,1,0,30,0,0
69718,-83.3333333333333,4,1,0,30,0,0
69806,-111.111111111111,4,1,0,30,0,0
69983,-100,4,1,0,30,0,0
80747,-83.3333333333333,4,1,0,30,0,0
80836,-111.111111111111,4,1,0,30,0,0
81012,-83.3333333333333,4,1,0,30,0,0
81100,-111.111111111111,4,1,0,30,0,0
81277,-100,4,1,0,30,0,0
85689,-66.6666666666667,4,1,0,30,0,0
85777,-133.333333333333,4,1,0,30,0,0
85953,-66.6666666666667,4,1,0,30,0,0
86042,-133.333333333333,4,1,0,30,0,0
86218,-66.6666666666667,4,1,0,30,0,0
86306,-133.333333333333,4,1,0,30,0,0
86483,-100,4,1,0,30,0,0
87100,-66.6666666666667,4,1,0,30,0,0
87189,-200,4,1,0,30,0,0
87365,-66.6666666666667,4,1,0,30,0,0
87453,-100,4,1,0,30,0,0
87806,-66.6666666666667,4,1,0,30,0,0
87895,-200,4,1,0,30,0,0
88071,-66.6666666666667,4,1,0,30,0,0
88159,-100,4,1,0,30,0,0
89218,-83.3333333333333,4,1,0,30,0,0
89262,-125,4,1,0,30,0,0
89350,-83.3333333333333,4,1,0,30,0,0
89439,-125,4,1,0,30,0,0
89527,-83.3333333333333,4,1,0,30,0,0
89571,-100,4,1,0,30,0,0
90277,-76.9230769230769,4,1,0,30,0,0
90321,-142.857142857143,4,1,0,30,0,0
90409,-76.9230769230769,4,1,0,30,0,0
90497,-142.857142857143,4,1,0,30,0,0
90586,-76.9230769230769,4,1,0,30,0,0
90630,-200,4,1,0,30,0,0
90718,-66.6666666666667,4,1,0,30,0,0
90806,-100,4,1,0,30,0,0
90983,-200,4,1,0,30,0,0
91071,-66.6666666666667,4,1,0,30,0,0
91159,-100,4,1,0,30,0,0
91336,-200,4,1,0,30,0,0
91424,-66.6666666666667,4,1,0,30,0,0
91512,-100,4,1,0,30,0,0
91865,-52.6315789473684,4,1,0,30,0,0
91894,-1000,4,1,0,30,0,0
91924,-52.6315789473684,4,1,0,30,0,0
91953,-1000,4,1,0,30,0,0
91983,-52.6315789473684,4,1,0,30,0,0
92012,-1000,4,1,0,30,0,0
92042,-100,4,1,0,30,0,0
92747,-66.6666666666667,4,1,0,30,0,0
92836,-200,4,1,0,30,0,0
93012,-66.6666666666667,4,1,0,30,0,0
93100,-100,4,1,0,30,0,0
93453,-66.6666666666667,4,1,0,30,0,0
93542,-200,4,1,0,30,0,0
93718,-66.6666666666667,4,1,0,30,0,0
93806,-100,4,1,0,30,0,0
94865,-83.3333333333333,4,1,0,30,0,0
94909,-125,4,1,0,30,0,0
94997,-83.3333333333333,4,1,0,30,0,0
95086,-125,4,1,0,30,0,0
95174,-83.3333333333333,4,1,0,30,0,0
95218,-100,4,1,0,30,0,0
96277,-142.857142857143,4,1,0,30,0,0
96321,-76.9230769230769,4,1,0,30,0,0
96365,-100,4,1,0,30,0,0
96453,-142.857142857143,4,1,0,30,0,0
96497,-76.9230769230769,4,1,0,30,0,0
96541,-100,4,1,0,30,0,0
96630,-142.857142857143,4,1,0,30,0,0
96674,-76.9230769230769,4,1,0,30,0,0
96718,-100,4,1,0,30,0,0
96806,-142.857142857143,4,1,0,30,0,0
96850,-76.9230769230769,4,1,0,30,0,0
96894,-100,4,1,0,30,0,0
96983,-83.3333333333333,4,1,0,30,0,0
97071,-111.111111111111,4,1,0,30,0,0
97247,-83.3333333333333,4,1,0,30,0,0
97335,-111.111111111111,4,1,0,30,0,0
97512,-83.3333333333333,4,1,0,30,0,0
97600,-111.111111111111,4,1,0,30,0,0
97777,-83.3333333333333,4,1,0,30,0,0
97865,-111.111111111111,4,1,0,30,0,0
98042,-83.3333333333333,4,1,0,30,0,0
98130,-111.111111111111,4,1,0,30,0,0
98306,-100,4,1,0,30,0,0
99453,-66.6666666666667,4,1,0,30,0,0
99542,-200,4,1,0,30,0,0
99718,-66.6666666666667,4,1,0,30,0,0
99806,-100,4,1,0,30,0,0
100159,-66.6666666666667,4,1,0,30,0,0
100248,-200,4,1,0,30,0,0
100424,-66.6666666666667,4,1,0,30,0,0
100512,-83.3333333333333,4,1,0,30,0,0
100556,-125,4,1,0,30,0,0
100644,-83.3333333333333,4,1,0,30,0,0
100733,-125,4,1,0,30,0,0
100821,-83.3333333333333,4,1,0,30,0,0
100865,-100,4,1,0,30,0,0
101571,-76.9230769230769,4,1,0,30,0,0
101615,-142.857142857143,4,1,0,30,0,0
101703,-76.9230769230769,4,1,0,30,0,0
101791,-142.857142857143,4,1,0,30,0,0
101880,-76.9230769230769,4,1,0,30,0,0
101968,-142.857142857143,4,1,0,30,0,0
102056,-76.9230769230769,4,1,0,30,0,0
102100,-100,4,1,0,30,0,0
102277,-76.9230769230769,4,1,0,30,0,0
102321,-142.857142857143,4,1,0,30,0,0
102409,-76.9230769230769,4,1,0,30,0,0
102497,-142.857142857143,4,1,0,30,0,0
102586,-76.9230769230769,4,1,0,30,0,0
102674,-142.857142857143,4,1,0,30,0,0
102762,-76.9230769230769,4,1,0,30,0,0
102850,-142.857142857143,4,1,0,30,0,0
102939,-76.9230769230769,4,1,0,30,0,0
102983,-100,4,1,0,30,0,0
103159,-52.6315789473684,4,1,0,30,0,0
103188,-1000,4,1,0,30,0,0
103218,-52.6315789473684,4,1,0,30,0,0
103247,-1000,4,1,0,30,0,0
103277,-52.6315789473684,4,1,0,30,0,0
103306,-1000,4,1,0,30,0,0
103336,-100,4,1,0,30,0,0
108277,-66.6666666666667,4,1,0,30,0,0
108365,-133.333333333333,4,1,0,30,0,0
108541,-66.6666666666667,4,1,0,30,0,0
108630,-133.333333333333,4,1,0,30,0,0
108806,-66.6666666666667,4,1,0,30,0,0
108894,-133.333333333333,4,1,0,30,0,0
109071,-100,4,1,0,30,0,0
119571,-71.4285714285714,4,1,0,30,0,0
119659,-125,4,1,0,30,0,0
119836,-71.4285714285714,4,1,0,30,0,0
119924,-125,4,1,0,30,0,0
120100,-100,4,1,0,30,0,0
125042,-76.9230769230769,4,1,0,30,0,0
125130,-142.857142857143,4,1,0,30,0,0
125306,-76.9230769230769,4,1,0,30,0,0
125483,-142.857142857143,4,1,0,30,0,0
125659,-76.9230769230769,4,1,0,30,0,0
125836,-142.857142857143,4,1,0,30,0,0
126012,-76.9230769230769,4,1,0,30,0,0
126100,-100,4,1,0,30,0,0
129453,-83.3333333333333,4,1,0,30,0,0
129542,-111.111111111111,4,1,0,30,0,0
129718,-83.3333333333333,4,1,0,30,0,0
129806,-111.111111111111,4,1,0,30,0,0
129983,-100,4,1,0,30,0,0
131042,-66.6666666666667,4,1,0,30,0,0
131130,-200,4,1,0,30,0,0
131306,-66.6666666666667,4,1,0,30,0,0
131483,-200,4,1,0,30,0,0
131659,-66.6666666666667,4,1,0,30,0,0
131792,-200,4,1,0,30,0,0
131880,-66.6666666666667,4,1,0,30,0,0
131924,-100,4,1,0,30,0,0
147806,-66.6666666666667,4,1,0,30,0,0
147851,-120.481927710843,4,1,0,30,0,0
147983,-66.6666666666667,4,1,0,30,0,0
148028,-120.481927710843,4,1,0,30,0,0
148159,-66.6666666666667,4,1,0,30,0,0
148204,-120.481927710843,4,1,0,30,0,0
148468,-66.6666666666667,4,1,0,30,0,0
148512,-100,4,1,0,30,0,0
159806,-83.3333333333333,4,1,0,30,0,0
159895,-111.111111111111,4,1,0,30,0,0
160071,-83.3333333333333,4,1,0,30,0,0
160159,-111.111111111111,4,1,0,30,0,0
160336,-100,4,1,0,30,0,0
164747,-66.6666666666667,4,1,0,30,0,0
164835,-133.333333333333,4,1,0,30,0,0
165011,-66.6666666666667,4,1,0,30,0,0
165100,-133.333333333333,4,1,0,30,0,0
165276,-66.6666666666667,4,1,0,30,0,0
165364,-133.333333333333,4,1,0,30,0,0
165541,-100,4,1,0,30,0,0
166158,-66.6666666666667,4,1,0,30,0,0
166247,-200,4,1,0,30,0,0
166423,-66.6666666666667,4,1,0,30,0,0
166511,-100,4,1,0,30,0,0
166864,-66.6666666666667,4,1,0,30,0,0
166953,-200,4,1,0,30,0,0
167129,-66.6666666666667,4,1,0,30,0,0
167217,-100,4,1,0,30,0,0
168276,-83.3333333333333,4,1,0,30,0,0
168320,-125,4,1,0,30,0,0
168408,-83.3333333333333,4,1,0,30,0,0
168497,-125,4,1,0,30,0,0
168585,-83.3333333333333,4,1,0,30,0,0
168629,-100,4,1,0,30,0,0
169335,-76.9230769230769,4,1,0,30,0,0
169379,-142.857142857143,4,1,0,30,0,0
169467,-76.9230769230769,4,1,0,30,0,0
169555,-142.857142857143,4,1,0,30,0,0
169644,-76.9230769230769,4,1,0,30,0,0
169688,-200,4,1,0,30,0,0
169776,-66.6666666666667,4,1,0,30,0,0
169864,-100,4,1,0,30,0,0
170041,-200,4,1,0,30,0,0
170129,-66.6666666666667,4,1,0,30,0,0
170217,-100,4,1,0,30,0,0
170394,-200,4,1,0,30,0,0
170482,-66.6666666666667,4,1,0,30,0,0
170570,-100,4,1,0,30,0,0
171100,-66.6666666666667,4,1,0,30,0,0
171189,-200,4,1,0,30,0,0
171365,-66.6666666666667,4,1,0,30,0,0
171542,-200,4,1,0,30,0,0
171718,-66.6666666666667,4,1,0,30,0,0
171806,-66.6666666666667,4,1,0,30,0,0
171895,-200,4,1,0,30,0,0
172071,-66.6666666666667,4,1,0,30,0,0
172159,-100,4,1,0,30,0,0
175336,-142.857142857143,4,1,0,30,0,0
175380,-76.9230769230769,4,1,0,30,0,0
175424,-100,4,1,0,30,0,0
175512,-142.857142857143,4,1,0,30,0,0
175556,-76.9230769230769,4,1,0,30,0,0
175600,-100,4,1,0,30,0,0
175689,-142.857142857143,4,1,0,30,0,0
175733,-76.9230769230769,4,1,0,30,0,0
175777,-100,4,1,0,30,0,0
175865,-142.857142857143,4,1,0,30,0,0
175909,-76.9230769230769,4,1,0,30,0,0
175953,-100,4,1,0,30,0,0
176042,-83.3333333333333,4,1,0,30,0,0
176130,-111.111111111111,4,1,0,30,0,0
176306,-83.3333333333333,4,1,0,30,0,0
176394,-111.111111111111,4,1,0,30,0,0
176571,-83.3333333333333,4,1,0,30,0,0
176659,-111.111111111111,4,1,0,30,0,0
176836,-83.3333333333333,4,1,0,30,0,0
176924,-111.111111111111,4,1,0,30,0,0
177101,-83.3333333333333,4,1,0,30,0,0
177189,-111.111111111111,4,1,0,30,0,0
177365,-100,4,1,0,30,0,0
178159,-66.6666666666667,4,1,0,30,0,0
178248,-200,4,1,0,30,0,0
178424,-66.6666666666667,4,1,0,30,0,0
178512,-100,4,1,0,30,0,0
180630,-76.9230769230769,4,1,0,30,0,0
180674,-142.857142857143,4,1,0,30,0,0
180762,-76.9230769230769,4,1,0,30,0,0
180850,-142.857142857143,4,1,0,30,0,0
180939,-76.9230769230769,4,1,0,30,0,0
180983,-100,4,1,0,30,0,0
182394,-66.6666666666667,4,1,0,30,0,0
182483,-200,4,1,0,30,0,0
182659,-66.6666666666667,4,1,0,30,0,0
182836,-200,4,1,0,30,0,0
183012,-66.6666666666667,4,1,0,30,0,0
183100,-100,4,1,0,30,0,0
187336,-66.6666666666667,4,1,0,30,0,0
187424,-133.333333333333,4,1,0,30,0,0
187600,-66.6666666666667,4,1,0,30,0,0
187689,-133.333333333333,4,1,0,30,0,0
187865,-66.6666666666667,4,1,0,30,0,0
187953,-133.333333333333,4,1,0,30,0,0
188130,-100,4,1,0,30,0,0
198630,-71.4285714285714,4,1,0,30,0,0
198718,-125,4,1,0,30,0,0
198895,-71.4285714285714,4,1,0,30,0,0
198983,-125,4,1,0,30,0,0
199159,-100,4,1,0,30,0,0
204100,-76.9230769230769,4,1,0,30,0,0
204188,-142.857142857143,4,1,0,30,0,0
204364,-76.9230769230769,4,1,0,30,0,0
204541,-142.857142857143,4,1,0,30,0,0
204717,-76.9230769230769,4,1,0,30,0,0
204894,-142.857142857143,4,1,0,30,0,0
205070,-76.9230769230769,4,1,0,30,0,0
205158,-100,4,1,0,30,0,0
208512,-83.3333333333333,4,1,0,30,0,0
208601,-111.111111111111,4,1,0,30,0,0
208777,-83.3333333333333,4,1,0,30,0,0
208865,-111.111111111111,4,1,0,30,0,0
209042,-100,4,1,0,30,0,0
210101,-66.6666666666667,4,1,0,30,0,0
210189,-200,4,1,0,30,0,0
210365,-66.6666666666667,4,1,0,30,0,0
210542,-200,4,1,0,30,0,0
210718,-66.6666666666667,4,1,0,30,0,0
210851,-200,4,1,0,30,0,0
210939,-66.6666666666667,4,1,0,30,0,0
210983,-100,4,1,0,30,0,0
236747,-66.6666666666667,4,1,0,30,0,0
236792,-200,4,1,0,30,0,0
236836,-66.6666666666667,4,1,0,30,0,0
236881,-200,4,1,0,30,0,0
236924,-66.6666666666667,4,1,0,30,0,0
236969,-200,4,1,0,30,0,0
237012,-66.6666666666667,4,1,0,30,0,0
237057,-200,4,1,0,30,0,0
237100,-66.6666666666667,4,1,0,30,0,0
237145,-200,4,1,0,30,0,0
237189,-66.6666666666667,4,1,0,30,0,0
237234,-200,4,1,0,30,0,0
237277,-66.6666666666667,4,1,0,30,0,0
237322,-200,4,1,0,30,0,0
237365,-66.6666666666667,4,1,0,30,0,0
237410,-200,4,1,0,30,0,0
237453,-66.6666666666667,4,1,0,30,0,0
237498,-200,4,1,0,30,0,0
237542,-66.6666666666667,4,1,0,30,0,0
237587,-200,4,1,0,30,0,0
237630,-66.6666666666667,4,1,0,30,0,0
237675,-200,4,1,0,30,0,0
237718,-66.6666666666667,4,1,0,30,0,0
237763,-200,4,1,0,30,0,0
237806,-66.6666666666667,4,1,0,30,0,0
237851,-200,4,1,0,30,0,0
237894,-66.6666666666667,4,1,0,30,0,0
237939,-200,4,1,0,30,0,0
237983,-66.6666666666667,4,1,0,30,0,0
238028,-200,4,1,0,30,0,0
238071,-66.6666666666667,4,1,0,30,0,0
238116,-200,4,1,0,30,0,0
238159,-40,4,1,0,30,0,0
238247,-400,4,1,0,30,0,0
238424,-40,4,1,0,30,0,0
238512,-400,4,1,0,30,0,0
238689,-40,4,1,0,30,0,0
238733,-200,4,1,0,30,0,0
238865,-40,4,1,0,30,0,0
238909,-200,4,1,0,30,0,0
239042,-40,4,1,0,30,0,0
239086,-200,4,1,0,30,0,0
239218,-100,4,1,0,30,0,0
239571,-40,4,1,0,30,0,0
239615,-200,4,1,0,30,0,0
239748,-40,4,1,0,30,0,0
239792,-200,4,1,0,30,0,0
239924,-100,4,1,0,30,0,0
243806,-71.4285714285714,4,1,0,30,0,0
243894,-125,4,1,0,30,0,0
244071,-71.4285714285714,4,1,0,30,0,0
244159,-125,4,1,0,30,0,0
244335,-100,4,1,0,30,0,0
249277,-76.9230769230769,4,1,0,30,0,0
249365,-142.857142857143,4,1,0,30,0,0
249541,-76.9230769230769,4,1,0,30,0,0
249718,-142.857142857143,4,1,0,30,0,0
249894,-76.9230769230769,4,1,0,30,0,0
250071,-142.857142857143,4,1,0,30,0,0
250247,-76.9230769230769,4,1,0,30,0,0
250335,-100,4,1,0,30,0,0
253689,-83.3333333333333,4,1,0,30,0,0
253778,-111.111111111111,4,1,0,30,0,0
253954,-83.3333333333333,4,1,0,30,0,0
254042,-111.111111111111,4,1,0,30,0,0
254219,-100,4,1,0,30,0,0
255278,-66.6666666666667,4,1,0,30,0,0
255366,-200,4,1,0,30,0,0
255542,-66.6666666666667,4,1,0,30,0,0
255719,-200,4,1,0,30,0,0
255895,-66.6666666666667,4,1,0,30,0,0
256028,-200,4,1,0,30,0,0
256116,-66.6666666666667,4,1,0,30,0,0
256160,-100,4,1,0,30,0,0
259512,-66.6666666666667,4,1,0,30,0,0
259556,-200,4,1,0,30,0,0
259644,-66.6666666666667,4,1,0,30,0,0
259689,-100,4,1,0,30,0,0
261012,-83.3333333333333,4,1,0,30,0,0
261100,-111.111111111111,4,1,0,30,0,0
261277,-83.3333333333333,4,1,0,30,0,0
261365,-111.111111111111,4,1,0,30,0,0
261542,-83.3333333333333,4,1,0,30,0,0
261630,-111.111111111111,4,1,0,30,0,0
261806,-100,4,1,0,30,0,0
265689,-142.857142857143,4,1,0,30,0,0
265733,-76.9230769230769,4,1,0,30,0,0
265777,-100,4,1,0,30,0,0
265865,-142.857142857143,4,1,0,30,0,0
265909,-76.9230769230769,4,1,0,30,0,0
265953,-100,4,1,0,30,0,0
266042,-142.857142857143,4,1,0,30,0,0
266086,-76.9230769230769,4,1,0,30,0,0
266130,-100,4,1,0,30,0,0
266218,-142.857142857143,4,1,0,30,0,0
266262,-76.9230769230769,4,1,0,30,0,0
266306,-100,4,1,0,30,0,0
266395,-83.3333333333333,4,1,0,30,0,0
266483,-111.111111111111,4,1,0,30,0,0
266659,-83.3333333333333,4,1,0,30,0,0
266747,-111.111111111111,4,1,0,30,0,0
266924,-83.3333333333333,4,1,0,30,0,0
267012,-111.111111111111,4,1,0,30,0,0
267189,-83.3333333333333,4,1,0,30,0,0
267277,-111.111111111111,4,1,0,30,0,0
267454,-83.3333333333333,4,1,0,30,0,0
267542,-111.111111111111,4,1,0,30,0,0
267718,-100,4,1,0,30,0,0

[HitObjects]
64,192,2395,5,0,0:0:0:0:
192,192,2483,1,0,0:0:0:0:
320,192,2571,1,0,0:0:0:0:
64,192,2659,1,0,0:0:0:0:
448,192,2747,1,0,0:0:0:0:
192,192,2836,1,0,0:0:0:0:
64,192,2924,1,0,0:0:0:0:
320,192,3012,1,0,0:0:0:0:
192,192,3100,1,0,0:0:0:0:
448,192,3189,1,0,0:0:0:0:
64,192,3277,1,0,0:0:0:0:
320,192,3365,1,0,0:0:0:0:
192,192,3453,1,0,0:0:0:0:
64,192,3542,1,0,0:0:0:0:
448,192,3630,1,0,0:0:0:0:
320,192,3718,1,0,0:0:0:0:
192,192,3806,1,0,0:0:0:0:
448,192,3894,1,0,0:0:0:0:
64,192,3983,1,0,0:0:0:0:
192,192,4071,1,0,0:0:0:0:
320,192,4159,1,0,0:0:0:0:
64,192,4247,1,0,0:0:0:0:
448,192,4336,1,0,0:0:0:0:
192,192,4424,1,0,0:0:0:0:
320,192,4512,1,0,0:0:0:0:
64,192,4600,1,0,0:0:0:0:
448,192,4689,1,0,0:0:0:0:
192,192,4777,1,0,0:0:0:0:
320,192,4865,1,0,0:0:0:0:
448,192,4953,1,0,0:0:0:0:
192,192,5042,1,0,0:0:0:0:
64,192,5130,1,0,0:0:0:0:
320,192,5218,1,0,0:0:0:0:
192,192,5306,1,0,0:0:0:0:
448,192,5394,1,0,0:0:0:0:
64,192,5483,1,0,0:0:0:0:
320,192,5571,1,0,0:0:0:0:
192,192,5659,1,0,0:0:0:0:
64,192,5747,1,0,0:0:0:0:
320,192,5836,1,0,0:0:0:0:
448,192,5924,1,0,0:0:0:0:
64,192,6012,1,0,0:0:0:0:
320,192,6100,1,0,0:0:0:0:
192,192,6189,1,0,0:0:0:0:
64,192,6277,1,0,0:0:0:0:
448,192,6365,1,0,0:0:0:0:
192,192,6453,1,0,0:0:0:0:
320,192,6542,1,0,0:0:0:0:
64,192,6630,1,0,0:0:0:0:
192,192,6718,1,0,0:0:0:0:
448,192,6806,1,0,0:0:0:0:
64,192,6894,1,0,0:0:0:0:
320,192,6983,1,0,0:0:0:0:
192,192,7071,1,0,0:0:0:0:
64,192,7159,1,0,0:0:0:0:
448,192,7247,1,0,0:0:0:0:
320,192,7336,1,0,0:0:0:0:
64,192,7424,1,0,0:0:0:0:
448,192,7512,1,0,0:0:0:0:
192,192,7600,1,0,0:0:0:0:
64,192,7689,1,0,0:0:0:0:
320,192,7777,1,0,0:0:0:0:
448,192,7865,1,0,0:0:0:0:
192,192,7953,1,0,0:0:0:0:
320,192,8042,1,0,0:0:0:0:
64,192,8130,1,0,0:0:0:0:
448,192,8218,1,0,0:0:0:0:
192,192,8306,1,0,0:0:0:0:
64,192,8394,1,0,0:0:0:0:
320,192,8483,1,0,0:0:0:0:
192,192,8571,1,0,0:0:0:0:
448,192,8659,1,0,0:0:0:0:
64,192,8747,1,0,0:0:0:0:
320,192,8836,1,0,0:0:0:0:
192,192,8924,1,0,0:0:0:0:
64,192,9012,1,0,0:0:0:0:
320,192,9100,1,0,0:0:0:0:
448,192,9189,1,0,0:0:0:0:
192,192,9277,1,0,0:0:0:0:
320,192,9365,1,0,0:0:0:0:
64,192,9453,1,0,0:0:0:0:
448,192,9542,1,0,0:0:0:0:
192,192,9630,1,0,0:0:0:0:
64,192,9718,1,0,0:0:0:0:
320,192,9806,1,0,0:0:0:0:
192,192,9894,1,0,0:0:0:0:
448,192,9983,1,0,0:0:0:0:
64,192,10071,1,0,0:0:0:0:
320,192,10159,1,0,0:0:0:0:
448,192,10247,1,0,0:0:0:0:
64,192,10336,1,0,0:0:0:0:
192,192,10424,1,0,0:0:0:0:
448,192,10512,1,0,0:0:0:0:
64,192,10600,1,0,0:0:0:0:
320,192,10689,1,0,0:0:0:0:
192,192,10777,1,0,0:0:0:0:
64,192,10865,1,0,0:0:0:0:
448,192,10953,1,0,0:0:0:0:
192,192,11042,1,0,0:0:0:0:
320,192,11130,1,0,0:0:0:0:
448,192,11218,1,0,0:0:0:0:
64,192,11306,1,0,0:0:0:0:
320,192,11394,1,0,0:0:0:0:
192,192,11483,1,0,0:0:0:0:
448,192,11571,1,0,0:0:0:0:
64,192,11659,1,0,0:0:0:0:
320,192,11747,1,0,0:0:0:0:
192,192,11836,1,0,0:0:0:0:
64,192,11924,1,0,0:0:0:0:
448,192,12012,1,0,0:0:0:0:
192,192,12100,1,0,0:0:0:0:
320,192,12189,1,0,0:0:0:0:
64,192,12277,1,0,0:0:0:0:
192,192,12365,1,0,0:0:0:0:
448,192,12453,1,0,0:0:0:0:
320,192,12542,1,0,0:0:0:0:
448,192,12630,1,0,0:0:0:0:
64,192,12718,1,0,0:0:0:0:
320,192,12806,1,0,0:0:0:0:
192,192,12894,1,0,0:0:0:0:
448,192,12983,1,0,0:0:0:0:
64,192,13071,1,0,0:0:0:0:
192,192,13159,1,0,0:0:0:0:
320,192,13247,1,0,0:0:0:0:
64,192,13336,1,0,0:0:0:0:
448,192,13424,1,0,0:0:0:0:
192,192,13512,1,0,0:0:0:0:
320,192,13600,1,0,0:0:0:0:
64,192,13689,1,0,0:0:0:0:
192,192,13777,1,0,0:0:0:0:
320,192,13865,1,0,0:0:0:0:
64,192,13953,1,0,0:0:0:0:
448,192,14042,1,0,0:0:0:0:
192,192,14130,1,0,0:0:0:0:
64,192,14218,1,0,0:0:0:0:
320,192,14306,1,0,0:0:0:0:
192,192,14394,1,0,0:0:0:0:
448,192,14483,1,0,0:0:0:0:
64,192,14571,1,0,0:0:0:0:
320,192,14659,1,0,0:0:0:0:
192,192,14747,1,0,0:0:0:0:
64,192,14836,1,0,0:0:0:0:
448,192,14924,1,0,0:0:0:0:
320,192,15012,1,0,0:0:0:0:
192,192,15100,1,0,0:0:0:0:
448,192,15189,1,0,0:0:0:0:
64,192,15277,1,0,0:0:0:0:
192,192,15365,1,0,0:0:0:0:
320,192,15453,1,0,0:0:0:0:
64,192,15542,1,0,0:0:0:0:
448,192,15630,1,0,0:0:0:0:
192,192,15718,1,0,0:0:0:0:
320,192,15806,1,0,0:0:0:0:
64,192,15894,1,0,0:0:0:0:
448,192,15983,1,0,0:0:0:0:
192,192,16071,1,0,0:0:0:0:
320,192,16159,1,0,0:0:0:0:
448,192,16247,1,0,0:0:0:0:
192,192,16336,1,0,0:0:0:0:
64,192,16424,1,0,0:0:0:0:
320,192,16512,1,0,0:0:0:0:
192,192,16600,1,0,0:0:0:0:
448,192,16689,1,0,0:0:0:0:
64,192,16777,1,0,0:0:0:0:
320,192,16865,1,0,0:0:0:0:
192,192,16953,1,0,0:0:0:0:
64,192,17042,1,0,0:0:0:0:
320,192,17130,1,0,0:0:0:0:
448,192,17218,1,0,0:0:0:0:
64,192,17306,1,0,0:0:0:0:
320,192,17394,1,0,0:0:0:0:
192,192,17483,1,0,0:0:0:0:
64,192,17571,1,0,0:0:0:0:
448,192,17659,1,0,0:0:0:0:
192,192,17747,1,0,0:0:0:0:
320,192,17836,1,0,0:0:0:0:
64,192,17924,1,0,0:0:0:0:
192,192,18012,1,0,0:0:0:0:
448,192,18100,1,0,0:0:0:0:
64,192,18189,1,0,0:0:0:0:
320,192,18277,1,0,0:0:0:0:
192,192,18365,1,0,0:0:0:0:
64,192,18453,1,0,0:0:0:0:
448,192,18542,1,0,0:0:0:0:
320,192,18630,1,0,0:0:0:0:
64,192,18718,1,0,0:0:0:0:
448,192,18806,1,0,0:0:0:0:
192,192,18894,1,0,0:0:0:0:
64,192,18983,1,0,0:0:0:0:
320,192,19071,1,0,0:0:0:0:
448,192,19159,1,0,0:0:0:0:
192,192,19247,1,0,0:0:0:0:
320,192,19336,1,0,0:0:0:0:
64,192,19424,1,0,0:0:0:0:
448,192,19512,1,0,0:0:0:0:
192,192,19600,1,0,0:0:0:0:
64,192,19689,1,0,0:0:0:0:
320,192,19777,1,0,0:0:0:0:
192,192,19865,1,0,0:0:0:0:
448,192,19953,1,0,0:0:0:0:
64,192,20042,1,0,0:0:0:0:
320,192,20130,1,0,0:0:0:0:
192,192,20218,1,0,0:0:0:0:
64,192,20306,1,0,0:0:0:0:
320,192,20394,1,0,0:0:0:0:
448,192,20483,1,0,0:0:0:0:
192,192,20571,1,0,0:0:0:0:
320,192,20659,1,0,0:0:0:0:
64,192,20747,1,0,0:0:0:0:
448,192,20836,1,0,0:0:0:0:
192,192,20924,1,0,0:0:0:0:
64,192,21012,1,0,0:0:0:0:
320,192,21100,1,0,0:0:0:0:
192,192,21189,1,0,0:0:0:0:
448,192,21277,1,0,0:0:0:0:
64,192,21365,1,0,0:0:0:0:
320,192,21453,1,0,0:0:0:0:
448,192,21542,1,0,0:0:0:0:
64,192,21630,1,0,0:0:0:0:
192,192,21718,1,0,0:0:0:0:
448,192,21806,1,0,0:0:0:0:
64,192,21894,1,0,0:0:0:0:
320,192,21983,1,0,0:0:0:0:
192,192,22071,1,0,0:0:0:0:
64,192,22159,1,0,0:0:0:0:
448,192,22247,1,0,0:0:0:0:
192,192,22336,1,0,0:0:0:0:
320,192,22424,1,0,0:0:0:0:
448,192,22512,1,0,0:0:0:0:
64,192,22600,1,0,0:0:0:0:
320,192,22689,1,0,0:0:0:0:
192,192,22777,1,0,0:0:0:0:
448,192,22865,1,0,0:0:0:0:
64,192,22953,1,0,0:0:0:0:
320,192,23042,1,0,0:0:0:0:
192,192,23130,1,0,0:0:0:0:
64,192,23218,1,0,0:0:0:0:
448,192,23306,1,0,0:0:0:0:
192,192,23394,1,0,0:0:0:0:
320,192,23483,1,0,0:0:0:0:
64,192,23571,1,0,0:0:0:0:
192,192,23659,1,0,0:0:0:0:
448,192,23747,1,0,0:0:0:0:
320,192,23836,1,0,0:0:0:0:
448,192,23924,1,0,0:0:0:0:
64,192,24012,1,0,0:0:0:0:
320,192,24100,1,0,0:0:0:0:
192,192,24189,1,0,0:0:0:0:
448,192,24277,1,0,0:0:0:0:
64,192,24365,1,0,0:0:0:0:
192,192,24453,1,0,0:0:0:0:
320,192,24542,1,0,0:0:0:0:
64,192,24630,1,0,0:0:0:0:
448,192,24718,1,0,0:0:0:0:
192,192,24806,1,0,0:0:0:0:
320,192,24894,1,0,0:0:0:0:
448,192,24983,1,0,0:0:0:0:
64,192,24983,1,0,0:0:0:0:
64,192,25336,1,0,0:0:0:0:
320,192,25689,1,0,0:0:0:0:
320,192,26042,1,0,0:0:0:0:
192,192,26394,1,0,0:0:0:0:
192,192,26747,1,0,0:0:0:0:
448,192,27100,1,0,0:0:0:0:
448,192,27453,1,0,0:0:0:0:
192,192,27806,1,0,0:0:0:0:
64,192,27806,1,0,0:0:0:0:
192,192,28159,1,0,0:0:0:0:
64,192,28159,1,0,0:0:0:0:
320,192,28512,1,0,0:0:0:0:
448,192,28512,1,0,0:0:0:0:
320,192,28865,1,0,0:0:0:0:
448,192,28865,1,0,0:0:0:0:
320,192,29218,1,0,0:0:0:0:
64,192,29218,1,0,0:0:0:0:
320,192,29571,1,0,0:0:0:0:
64,192,29571,1,0,0:0:0:0:
448,192,29924,1,0,0:0:0:0:
192,192,29924,1,0,0:0:0:0:
448,192,30277,1,0,0:0:0:0:
192,192,30277,1,0,0:0:0:0:
64,192,30630,1,0,0:0:0:0:
320,192,30718,1,0,0:0:0:0:
192,192,30806,1,0,0:0:0:0:
64,192,30894,1,0,0:0:0:0:
448,192,30983,1,0,0:0:0:0:
192,192,31071,1,0,0:0:0:0:
320,192,31159,1,0,0:0:0:0:
448,192,31247,1,0,0:0:0:0:
64,192,31336,1,0,0:0:0:0:
320,192,31424,1,0,0:0:0:0:
192,192,31512,1,0,0:0:0:0:
64,192,31600,1,0,0:0:0:0:
448,192,31689,1,0,0:0:0:0:
320,192,31777,1,0,0:0:0:0:
192,192,31865,1,0,0:0:0:0:
448,192,31953,1,0,0:0:0:0:
64,192,32042,1,0,0:0:0:0:
320,192,32130,1,0,0:0:0:0:
192,192,32218,1,0,0:0:0:0:
448,192,32306,1,0,0:0:0:0:
64,192,32394,1,0,0:0:0:0:
320,192,32483,1,0,0:0:0:0:
192,192,32571,1,0,0:0:0:0:
448,192,32659,1,0,0:0:0:0:
320,192,32747,1,0,0:0:0:0:
64,192,32836,1,0,0:0:0:0:
448,192,32924,1,0,0:0:0:0:
192,192,33012,1,0,0:0:0:0:
320,192,33100,1,0,0:0:0:0:
64,192,33189,1,0,0:0:0:0:
448,192,33277,1,0,0:0:0:0:
192,192,33365,1,0,0:0:0:0:
320,192,33453,128,0,35924:0:0:0:0:
192,192,34865,128,0,35924:0:0:0:0:
64,192,35924,128,0,36100:0:0:0:0:
448,192,36100,128,0,36277:0:0:0:0:
64,192,36277,1,0,0:0:0:0:
192,192,36277,1,0,0:0:0:0:
320,192,36365,1,0,0:0:0:0:
64,192,36453,1,0,0:0:0:0:
320,192,36542,1,0,0:0:0:0:
192,192,36630,1,0,0:0:0:0:
64,192,36630,1,0,0:0:0:0:
448,192,36718,1,0,0:0:0:0:
192,192,36806,1,0,0:0:0:0:
448,192,36894,1,0,0:0:0:0:
192,192,36983,1,0,0:0:0:0:
64,192,36983,1,0,0:0:0:0:
320,192,37071,1,0,0:0:0:0:
64,192,37159,1,0,0:0:0:0:
320,192,37247,1,0,0:0:0:0:
192,192,37336,1,0,0:0:0:0:
64,192,37336,1,0,0:0:0:0:
448,192,37424,1,0,0:0:0:0:
192,192,37512,1,0,0:0:0:0:
448,192,37600,1,0,0:0:0:0:
320,192,37689,1,0,0:0:0:0:
64,192,37689,1,0,0:0:0:0:
192,192,37777,1,0,0:0:0:0:
448,192,37865,1,0,0:0:0:0:
192,192,37953,1,0,0:0:0:0:
320,192,38042,1,0,0:0:0:0:
448,192,38042,1,0,0:0:0:0:
64,192,38130,1,0,0:0:0:0:
320,192,38218,1,0,0:0:0:0:
64,192,38306,1,0,0:0:0:0:
320,192,38394,1,0,0:0:0:0:
448,192,38394,1,0,0:0:0:0:
192,192,38483,1,0,0:0:0:0:
448,192,38571,1,0,0:0:0:0:
192,192,38659,1,0,0:0:0:0:
320,192,38747,1,0,0:0:0:0:
448,192,38747,1,0,0:0:0:0:
64,192,38836,1,0,0:0:0:0:
320,192,38924,1,0,0:0:0:0:
64,192,39012,1,0,0:0:0:0:
192,192,39100,1,0,0:0:0:0:
448,192,39100,1,0,0:0:0:0:
320,192,39189,1,0,0:0:0:0:
64,192,39277,1,0,0:0:0:0:
320,192,39365,1,0,0:0:0:0:
192,192,39453,1,0,0:0:0:0:
64,192,39453,1,0,0:0:0:0:
448,192,39542,1,0,0:0:0:0:
192,192,39630,1,0,0:0:0:0:
448,192,39718,1,0,0:0:0:0:
192,192,39806,1,0,0:0:0:0:
64,192,39806,1,0,0:0:0:0:
320,192,39894,1,0,0:0:0:0:
64,192,39983,1,0,0:0:0:0:
320,192,40071,1,0,0:0:0:0:
64,192,40159,1,0,0:0:0:0:
192,192,40159,1,0,0:0:0:0:
448,192,40247,1,0,0:0:0:0:
192,192,40336,1,0,0:0:0:0:
448,192,40424,1,0,0:0:0:0:
320,192,40512,1,0,0:0:0:0:
64,192,40512,1,0,0:0:0:0:
192,192,40600,1,0,0:0:0:0:
448,192,40689,1,0,0:0:0:0:
192,192,40777,1,0,0:0:0:0:
320,192,40865,1,0,0:0:0:0:
448,192,40865,1,0,0:0:0:0:
64,192,40953,1,0,0:0:0:0:
320,192,41042,1,0,0:0:0:0:
64,192,41130,1,0,0:0:0:0:
320,192,41218,1,0,0:0:0:0:
448,192,41218,1,0,0:0:0:0:
192,192,41306,1,0,0:0:0:0:
448,192,41394,1,0,0:0:0:0:
192,192,41483,1,0,0:0:0:0:
320,192,41571,1,0,0:0:0:0:
448,192,41571,1,0,0:0:0:0:
64,192,41630,1,0,0:0:0:0:
192,192,41689,1,0,0:0:0:0:
448,192,41747,1,0,0:0:0:0:
320,192,41806,1,0,0:0:0:0:
64,192,41865,1,0,0:0:0:0:
192,192,41924,1,0,0:0:0:0:
448,192,41924,1,0,0:0:0:0:
320,192,42012,1,0,0:0:0:0:
64,192,42100,1,0,0:0:0:0:
320,192,42189,1,0,0:0:0:0:
192,192,42277,1,0,0:0:0:0:
64,192,42277,1,0,0:0:0:0:
448,192,42365,1,0,0:0:0:0:
64,192,42453,1,0,0:0:0:0:
448,192,42542,1,0,0:0:0:0:
64,192,42630,1,0,0:0:0:0:
192,192,42630,1,0,0:0:0:0:
320,192,42718,1,0,0:0:0:0:
64,192,42806,1,0,0:0:0:0:
320,192,42894,1,0,0:0:0:0:
64,192,42983,1,0,0:0:0:0:
192,192,42983,1,0,0:0:0:0:
448,192,43071,1,0,0:0:0:0:
64,192,43159,1,0,0:0:0:0:
448,192,43247,1,0,0:0:0:0:
320,192,43336,1,0,0:0:0:0:
64,192,43336,1,0,0:0:0:0:
192,192,43424,1,0,0:0:0:0:
448,192,43512,1,0,0:0:0:0:
192,192,43600,1,0,0:0:0:0:
320,192,43689,1,0,0:0:0:0:
448,192,43689,1,0,0:0:0:0:
64,192,43777,1,0,0:0:0:0:
448,192,43865,1,0,0:0:0:0:
64,192,43953,1,0,0:0:0:0:
320,192,44042,1,0,0:0:0:0:
448,192,44042,1,0,0:0:0:0:
192,192,44130,1,0,0:0:0:0:
448,192,44218,1,0,0:0:0:0:
192,192,44306,1,0,0:0:0:0:
320,192,44394,1,0,0:0:0:0:
448,192,44394,1,0,0:0:0:0:
64,192,44483,1,0,0:0:0:0:
448,192,44571,1,0,0:0:0:0:
64,192,44659,1,0,0:0:0:0:
192,192,44747,1,0,0:0:0:0:
448,192,44747,1,0,0:0:0:0:
320,192,44836,1,0,0:0:0:0:
192,192,44924,1,0,0:0:0:0:
320,192,45012,1,0,0:0:0:0:
192,192,45100,1,0,0:0:0:0:
64,192,45100,1,0,0:0:0:0:
448,192,45189,1,0,0:0:0:0:
192,192,45277,1,0,0:0:0:0:
448,192,45365,1,0,0:0:0:0:
64,192,45453,1,0,0:0:0:0:
192,192,45453,1,0,0:0:0:0:
320,192,45542,1,0,0:0:0:0:
192,192,45630,1,0,0:0:0:0:
320,192,45718,1,0,0:0:0:0:
64,192,45806,1,0,0:0:0:0:
192,192,45806,1,0,0:0:0:0:
448,192,45894,1,0,0:0:0:0:
320,192,45894,1,0,0:0:0:0:
64,192,45983,1,0,0:0:0:0:
192,192,46027,1,0,0:0:0:0:
320,192,46071,1,0,0:0:0:0:
448,192,46115,1,0,0:0:0:0:
64,192,46159,1,0,0:0:0:0:
192,192,46159,1,0,0:0:0:0:
192,192,46424,1,0,0:0:0:0:
64,192,46424,1,0,0:0:0:0:
64,192,46689,1,0,0:0:0:0:
192,192,46689,1,0,0:0:0:0:
192,192,46953,1,0,0:0:0:0:
64,192,46953,1,0,0:0:0:0:
192,192,47218,1,0,0:0:0:0:
64,192,47218,128,0,47394:0:0:0:0:
448,192,47394,128,0,47571:0:0:0:0:
64,192,47571,1,0,0:0:0:0:
192,192,47571,1,0,0:0:0:0:
320,192,47659,1,0,0:0:0:0:
64,192,47747,1,0,0:0:0:0:
320,192,47836,1,0,0:0:0:0:
192,192,47924,1,0,0:0:0:0:
64,192,47924,1,0,0:0:0:0:
448,192,48012,1,0,0:0:0:0:
192,192,48100,1,0,0:0:0:0:
448,192,48189,1,0,0:0:0:0:
192,192,48277,1,0,0:0:0:0:
64,192,48277,1,0,0:0:0:0:
320,192,48365,1,0,0:0:0:0:
64,192,48453,1,0,0:0:0:0:
320,192,48542,1,0,0:0:0:0:
192,192,48630,1,0,0:0:0:0:
64,192,48630,1,0,0:0:0:0:
448,192,48718,1,0,0:0:0:0:
192,192,48806,1,0,0:0:0:0:
448,192,48894,1,0,0:0:0:0:
320,192,48983,1,0,0:0:0:0:
64,192,48983,1,0,0:0:0:0:
192,192,49071,1,0,0:0:0:0:
448,192,49159,1,0,0:0:0:0:
192,192,49247,1,0,0:0:0:0:
320,192,49336,1,0,0:0:0:0:
448,192,49336,1,0,0:0:0:0:
64,192,49424,1,0,0:0:0:0:
320,192,49512,1,0,0:0:0:0:
64,192,49600,1,0,0:0:0:0:
320,192,49689,1,0,0:0:0:0:
448,192,49689,1,0,0:0:0:0:
192,192,49777,1,0,0:0:0:0:
448,192,49865,1,0,0:0:0:0:
192,192,49953,1,0,0:0:0:0:
320,192,50042,1,0,0:0:0:0:
448,192,50042,1,0,0:0:0:0:
64,192,50130,1,0,0:0:0:0:
320,192,50218,1,0,0:0:0:0:
64,192,50306,1,0,0:0:0:0:
192,192,50394,1,0,0:0:0:0:
448,192,50394,1,0,0:0:0:0:
320,192,50483,1,0,0:0:0:0:
64,192,50571,1,0,0:0:0:0:
320,192,50659,1,0,0:0:0:0:
192,192,50747,1,0,0:0:0:0:
64,192,50747,1,0,0:0:0:0:
448,192,50836,1,0,0:0:0:0:
192,192,50924,1,0,0:0:0:0:
448,192,51012,1,0,0:0:0:0:
192,192,51100,1,0,0:0:0:0:
64,192,51100,1,0,0:0:0:0:
320,192,51189,1,0,0:0:0:0:
64,192,51277,1,0,0:0:0:0:
320,192,51365,1,0,0:0:0:0:
64,192,51453,1,0,0:0:0:0:
192,192,51453,1,0,0:0:0:0:
448,192,51542,1,0,0:0:0:0:
192,192,51630,1,0,0:0:0:0:
448,192,51718,1,0,0:0:0:0:
320,192,51806,1,0,0:0:0:0:
64,192,51806,1,0,0:0:0:0:
192,192,51894,1,0,0:0:0:0:
448,192,51983,1,0,0:0:0:0:
192,192,52071,1,0,0:0:0:0:
320,192,52159,1,0,0:0:0:0:
448,192,52159,1,0,0:0:0:0:
64,192,52247,1,0,0:0:0:0:
320,192,52336,1,0,0:0:0:0:
448,192,52336,1,0,0:0:0:0:
64,192,52424,1,0,0:0:0:0:
192,192,52424,1,0,0:0:0:0:
320,192,52512,1,0,0:0:0:0:
448,192,52512,1,0,0:0:0:0:
192,192,52600,1,0,0:0:0:0:
64,192,52689,1,0,0:0:0:0:
448,192,52777,1,0,0:0:0:0:
320,192,52777,1,0,0:0:0:0:
64,192,52865,1,0,0:0:0:0:
192,192,52924,1,0,0:0:0:0:
448,192,52983,1,0,0:0:0:0:
320,192,53042,1,0,0:0:0:0:
64,192,53100,1,0,0:0:0:0:
192,192,53159,1,0,0:0:0:0:
448,192,53218,1,0,0:0:0:0:
320,192,53218,1,0,0:0:0:0:
64,192,53306,1,0,0:0:0:0:
448,192,53394,1,0,0:0:0:0:
64,192,53483,1,0,0:0:0:0:
320,192,53571,1,0,0:0:0:0:
64,192,53659,1,0,0:0:0:0:
448,192,53747,1,0,0:0:0:0:
64,192,53836,1,0,0:0:0:0:
320,192,53924,1,0,0:0:0:0:
64,192,54012,1,0,0:0:0:0:
448,192,54100,1,0,0:0:0:0:
64,192,54189,1,0,0:0:0:0:
320,192,54277,1,0,0:0:0:0:
64,192,54365,1,0,0:0:0:0:
448,192,54453,1,0,0:0:0:0:
64,192,54542,1,0,0:0:0:0:
448,192,54630,1,0,0:0:0:0:
192,192,54718,1,0,0:0:0:0:
448,192,54806,1,0,0:0:0:0:
64,192,54894,1,0,0:0:0:0:
448,192,54983,1,0,0:0:0:0:
192,192,55071,1,0,0:0:0:0:
448,192,55159,1,0,0:0:0:0:
64,192,55247,1,0,0:0:0:0:
448,192,55336,1,0,0:0:0:0:
192,192,55424,1,0,0:0:0:0:
448,192,55512,1,0,0:0:0:0:
64,192,55600,1,0,0:0:0:0:
448,192,55689,1,0,0:0:0:0:
192,192,55777,1,0,0:0:0:0:
448,192,55865,1,0,0:0:0:0:
64,192,55953,1,0,0:0:0:0:
320,192,56042,1,0,0:0:0:0:
192,192,56130,1,0,0:0:0:0:
320,192,56218,1,0,0:0:0:0:
192,192,56306,1,0,0:0:0:0:
320,192,56394,1,0,0:0:0:0:
192,192,56483,1,0,0:0:0:0:
320,192,56571,1,0,0:0:0:0:
192,192,56659,1,0,0:0:0:0:
448,192,56747,1,0,0:0:0:0:
64,192,56836,1,0,0:0:0:0:
448,192,56924,1,0,0:0:0:0:
64,192,57012,1,0,0:0:0:0:
448,192,57100,1,0,0:0:0:0:
64,192,57189,1,0,0:0:0:0:
448,192,57277,1,0,0:0:0:0:
64,192,57365,1,0,0:0:0:0:
448,192,57453,1,0,0:0:0:0:
320,192,57542,1,0,0:0:0:0:
448,192,57630,1,0,0:0:0:0:
320,192,57718,5,0,0:0:0:0:
64,192,57806,1,0,0:0:0:0:
192,192,57894,1,0,0:0:0:0:
64,192,57983,1,0,0:0:0:0:
192,192,58071,1,0,0:0:0:0:
448,192,58159,1,0,0:0:0:0:
320,192,58247,1,0,0:0:0:0:
192,192,58336,1,0,0:0:0:0:
64,192,58424,1,0,0:0:0:0:
320,192,58512,128,0,58865:0:0:0:0:
64,192,58865,5,0,0:0:0:0:
448,192,58865,1,0,0:0:0:0:
192,192,58865,1,0,0:0:0:0:
320,192,58953,1,0,0:0:0:0:
448,192,59042,1,0,0:0:0:0:
64,192,59042,1,0,0:0:0:0:
192,192,59130,1,0,0:0:0:0:
448,192,59218,1,0,0:0:0:0:
320,192,59218,1,0,0:0:0:0:
192,192,59306,1,0,0:0:0:0:
320,192,59394,1,0,0:0:0:0:
64,192,59394,1,0,0:0:0:0:
448,192,59483,1,0,0:0:0:0:
64,192,59571,1,0,0:0:0:0:
192,192,59571,1,0,0:0:0:0:
320,192,59659,1,0,0:0:0:0:
448,192,59747,1,0,0:0:0:0:
192,192,59747,1,0,0:0:0:0:
64,192,59836,1,0,0:0:0:0:
448,192,59924,1,0,0:0:0:0:
320,192,59924,1,0,0:0:0:0:
64,192,60012,1,0,0:0:0:0:
192,192,60100,1,0,0:0:0:0:
320,192,60189,1,0,0:0:0:0:
64,192,60277,1,0,0:0:0:0:
192,192,60277,1,0,0:0:0:0:
448,192,60365,1,0,0:0:0:0:
64,192,60453,1,0,0:0:0:0:
320,192,60453,1,0,0:0:0:0:
192,192,60542,1,0,0:0:0:0:
448,192,60630,1,0,0:0:0:0:
320,192,60630,1,0,0:0:0:0:
64,192,60718,1,0,0:0:0:0:
320,192,60806,1,0,0:0:0:0:
192,192,60806,1,0,0:0:0:0:
448,192,60894,1,0,0:0:0:0:
192,192,60983,1,0,0:0:0:0:
64,192,60983,1,0,0:0:0:0:
320,192,61071,1,0,0:0:0:0:
448,192,61159,1,0,0:0:0:0:
64,192,61159,1,0,0:0:0:0:
192,192,61247,1,0,0:0:0:0:
448,192,61336,1,0,0:0:0:0:
320,192,61336,1,0,0:0:0:0:
192,192,61424,1,0,0:0:0:0:
448,192,61512,1,0,0:0:0:0:
320,192,61512,1,0,0:0:0:0:
64,192,61600,1,0,0:0:0:0:
448,192,61689,1,0,0:0:0:0:
192,192,61689,1,0,0:0:0:0:
320,192,61777,1,0,0:0:0:0:
64,192,61865,1,0,0:0:0:0:
448,192,61865,1,0,0:0:0:0:
192,192,61953,1,0,0:0:0:0:
448,192,62042,1,0,0:0:0:0:
320,192,62042,1,0,0:0:0:0:
64,192,62130,1,0,0:0:0:0:
448,192,62218,1,0,0:0:0:0:
320,192,62218,1,0,0:0:0:0:
64,192,62306,1,0,0:0:0:0:
448,192,62394,1,0,0:0:0:0:
320,192,62394,1,0,0:0:0:0:
192,192,62483,1,0,0:0:0:0:
320,192,62571,1,0,0:0:0:0:
64,192,62571,1,0,0:0:0:0:
448,192,62659,1,0,0:0:0:0:
192,192,62747,1,0,0:0:0:0:
64,192,62747,1,0,0:0:0:0:
320,192,62836,1,0,0:0:0:0:
448,192,62924,1,0,0:0:0:0:
192,192,62924,1,0,0:0:0:0:
64,192,63012,1,0,0:0:0:0:
448,192,63100,1,0,0:0:0:0:
320,192,63100,1,0,0:0:0:0:
192,192,63189,1,0,0:0:0:0:
448,192,63277,1,0,0:0:0:0:
320,192,63277,1,0,0:0:0:0:
192,192,63365,1,0,0:0:0:0:
320,192,63453,1,0,0:0:0:0:
64,192,63453,1,0,0:0:0:0:
448,192,63542,1,0,0:0:0:0:
192,192,63630,1,0,0:0:0:0:
320,192,63718,1,0,0:0:0:0:
192,192,63806,1,0,0:0:0:0:
64,192,63806,1,0,0:0:0:0:
448,192,63894,1,0,0:0:0:0:
320,192,63983,1,0,0:0:0:0:
64,192,64071,1,0,0:0:0:0:
192,192,64071,1,0,0:0:0:0:
448,192,64159,128,0,64247:0:0:0:0:
320,192,64247,128,0,64336:0:0:0:0:
192,192,64336,128,0,64424:0:0:0:0:
64,192,64424,128,0,64512:0:0:0:0:
448,192,64512,1,0,0:0:0:0:
320,192,64512,1,0,0:0:0:0:
192,192,64600,1,0,0:0:0:0:
448,192,64689,1,0,0:0:0:0:
64,192,64689,1,0,0:0:0:0:
320,192,64777,1,0,0:0:0:0:
192,192,64865,1,0,0:0:0:0:
64,192,64865,1,0,0:0:0:0:
320,192,64953,1,0,0:0:0:0:
448,192,65042,1,0,0:0:0:0:
192,192,65042,1,0,0:0:0:0:
64,192,65130,1,0,0:0:0:0:
448,192,65218,1,0,0:0:0:0:
320,192,65218,1,0,0:0:0:0:
192,192,65306,1,0,0:0:0:0:
320,192,65394,1,0,0:0:0:0:
64,192,65394,1,0,0:0:0:0:
448,192,65483,1,0,0:0:0:0:
64,192,65571,1,0,0:0:0:0:
192,192,65571,1,0,0:0:0:0:
320,192,65659,1,0,0:0:0:0:
192,192,65747,1,0,0:0:0:0:
64,192,65836,1,0,0:0:0:0:
448,192,65924,1,0,0:0:0:0:
320,192,65924,1,0,0:0:0:0:
192,192,66012,1,0,0:0:0:0:
320,192,66100,1,0,0:0:0:0:
64,192,66100,1,0,0:0:0:0:
448,192,66189,1,0,0:0:0:0:
64,192,66277,1,0,0:0:0:0:
192,192,66277,1,0,0:0:0:0:
320,192,66365,1,0,0:0:0:0:
448,192,66453,1,0,0:0:0:0:
64,192,66453,1,0,0:0:0:0:
192,192,66542,1,0,0:0:0:0:
448,192,66630,1,0,0:0:0:0:
320,192,66630,1,0,0:0:0:0:
64,192,66718,1,0,0:0:0:0:
320,192,66806,1,0,0:0:0:0:
192,192,66806,1,0,0:0:0:0:
448,192,66894,1,0,0:0:0:0:
192,192,66983,1,0,0:0:0:0:
64,192,66983,1,0,0:0:0:0:
320,192,67071,1,0,0:0:0:0:
64,192,67159,1,0,0:0:0:0:
192,192,67159,1,0,0:0:0:0:
448,192,67247,1,0,0:0:0:0:
64,192,67336,1,0,0:0:0:0:
320,192,67336,1,0,0:0:0:0:
192,192,67424,1,0,0:0:0:0:
448,192,67512,1,0,0:0:0:0:
64,192,67512,1,0,0:0:0:0:
320,192,67600,1,0,0:0:0:0:
64,192,67689,1,0,0:0:0:0:
192,192,67689,1,0,0:0:0:0:
448,192,67777,1,0,0:0:0:0:
64,192,67865,1,0,0:0:0:0:
320,192,67865,1,0,0:0:0:0:
192,192,67953,1,0,0:0:0:0:
448,192,68042,1,0,0:0:0:0:
320,192,68042,1,0,0:0:0:0:
64,192,68130,1,0,0:0:0:0:
448,192,68218,1,0,0:0:0:0:
192,192,68218,1,0,0:0:0:0:
320,192,68306,1,0,0:0:0:0:
64,192,68394,1,0,0:0:0:0:
192,192,68394,1,0,0:0:0:0:
320,192,68483,1,0,0:0:0:0:
64,192,68571,1,0,0:0:0:0:
192,192,68571,1,0,0:0:0:0:
320,192,68659,1,0,0:0:0:0:
448,192,68747,1,0,0:0:0:0:
192,192,68747,1,0,0:0:0:0:
64,192,68747,1,0,0:0:0:0:
64,192,68924,1,0,0:0:0:0:
192,192,68924,1,0,0:0:0:0:
448,192,68924,1,0,0:0:0:0:
192,192,69100,1,0,0:0:0:0:
448,192,69100,1,0,0:0:0:0:
64,192,69100,1,0,0:0:0:0:
448,192,69453,1,0,0:0:0:0:
320,192,69453,1,0,0:0:0:0:
192,192,69453,1,0,0:0:0:0:
448,192,69718,1,0,0:0:0:0:
320,192,69718,1,0,0:0:0:0:
192,192,69718,1,0,0:0:0:0:
192,192,69983,1,0,0:0:0:0:
320,192,69983,1,0,0:0:0:0:
448,192,69983,1,0,0:0:0:0:
448,192,70159,1,0,0:0:0:0:
192,192,70159,1,0,0:0:0:0:
64,192,70159,1,0,0:0:0:0:
320,192,70247,1,0,0:0:0:0:
64,192,70336,1,0,0:0:0:0:
192,192,70336,1,0,0:0:0:0:
320,192,70424,1,0,0:0:0:0:
448,192,70512,1,0,0:0:0:0:
192,192,70512,1,0,0:0:0:0:
64,192,70600,1,0,0:0:0:0:
448,192,70689,1,0,0:0:0:0:
192,192,70689,1,0,0:0:0:0:
64,192,70777,1,0,0:0:0:0:
448,192,70865,1,0,0:0:0:0:
320,192,70865,1,0,0:0:0:0:
192,192,70953,1,0,0:0:0:0:
64,192,71042,1,0,0:0:0:0:
320,192,71130,1,0,0:0:0:0:
192,192,71218,1,0,0:0:0:0:
448,192,71218,1,0,0:0:0:0:
64,192,71306,1,0,0:0:0:0:
320,192,71394,1,0,0:0:0:0:
192,192,71483,1,0,0:0:0:0:
448,192,71571,1,0,0:0:0:0:
320,192,71571,1,0,0:0:0:0:
64,192,71659,1,0,0:0:0:0:
448,192,71747,1,0,0:0:0:0:
320,192,71747,1,0,0:0:0:0:
64,192,71836,1,0,0:0:0:0:
448,192,71924,1,0,0:0:0:0:
192,192,71924,1,0,0:0:0:0:
320,192,72012,1,0,0:0:0:0:
448,192,72100,1,0,0:0:0:0:
192,192,72100,1,0,0:0:0:0:
320,192,72189,1,0,0:0:0:0:
192,192,72277,1,0,0:0:0:0:
64,192,72277,1,0,0:0:0:0:
320,192,72365,1,0,0:0:0:0:
448,192,72453,1,0,0:0:0:0:
192,192,72542,1,0,0:0:0:0:
320,192,72630,1,0,0:0:0:0:
64,192,72630,1,0,0:0:0:0:
448,192,72718,1,0,0:0:0:0:
192,192,72806,1,0,0:0:0:0:
320,192,72894,1,0,0:0:0:0:
192,192,72983,1,0,0:0:0:0:
64,192,72983,1,0,0:0:0:0:
448,192,73071,1,0,0:0:0:0:
192,192,73159,1,0,0:0:0:0:
64,192,73159,1,0,0:0:0:0:
448,192,73247,1,0,0:0:0:0:
64,192,73336,1,0,0:0:0:0:
320,192,73336,1,0,0:0:0:0:
192,192,73424,1,0,0:0:0:0:
320,192,73512,1,0,0:0:0:0:
64,192,73512,1,0,0:0:0:0:
192,192,73600,1,0,0:0:0:0:
448,192,73689,1,0,0:0:0:0:
320,192,73689,1,0,0:0:0:0:
64,192,73777,1,0,0:0:0:0:
192,192,73865,1,0,0:0:0:0:
320,192,73953,1,0,0:0:0:0:
448,192,74042,1,0,0:0:0:0:
192,192,74042,1,0,0:0:0:0:
64,192,74130,1,0,0:0:0:0:
320,192,74218,1,0,0:0:0:0:
192,192,74306,1,0,0:0:0:0:
448,192,74394,1,0,0:0:0:0:
320,192,74394,1,0,0:0:0:0:
192,192,74483,1,0,0:0:0:0:
448,192,74571,1,0,0:0:0:0:
320,192,74571,1,0,0:0:0:0:
192,192,74659,1,0,0:0:0:0:
320,192,74747,1,0,0:0:0:0:
64,192,74747,1,0,0:0:0:0:
448,192,74836,1,0,0:0:0:0:
320,192,74924,1,0,0:0:0:0:
64,192,74924,1,0,0:0:0:0:
448,192,75012,1,0,0:0:0:0:
64,192,75100,1,0,0:0:0:0:
192,192,75100,1,0,0:0:0:0:
320,192,75189,1,0,0:0:0:0:
448,192,75277,1,0,0:0:0:0:
192,192,75365,1,0,0:0:0:0:
320,192,75453,1,0,0:0:0:0:
64,192,75453,1,0,0:0:0:0:
448,192,75542,1,0,0:0:0:0:
64,192,75630,1,0,0:0:0:0:
192,192,75630,1,0,0:0:0:0:
448,192,75718,1,0,0:0:0:0:
320,192,75718,1,0,0:0:0:0:
64,192,75806,1,0,0:0:0:0:
192,192,75806,1,0,0:0:0:0:
320,192,75894,1,0,0:0:0:0:
64,192,75983,1,0,0:0:0:0:
192,192,75983,1,0,0:0:0:0:
320,192,76071,1,0,0:0:0:0:
448,192,76159,1,0,0:0:0:0:
192,192,76159,1,0,0:0:0:0:
64,192,76247,1,0,0:0:0:0:
448,192,76336,1,0,0:0:0:0:
192,192,76336,1,0,0:0:0:0:
64,192,76424,1,0,0:0:0:0:
448,192,76512,1,0,0:0:0:0:
320,192,76512,1,0,0:0:0:0:
192,192,76600,1,0,0:0:0:0:
64,192,76689,1,0,0:0:0:0:
320,192,76777,1,0,0:0:0:0:
192,192,76865,1,0,0:0:0:0:
448,192,76865,1,0,0:0:0:0:
64,192,76953,1,0,0:0:0:0:
320,192,77042,1,0,0:0:0:0:
192,192,77130,1,0,0:0:0:0:
448,192,77218,1,0,0:0:0:0:
320,192,77218,1,0,0:0:0:0:
64,192,77306,1,0,0:0:0:0:
448,192,77394,1,0,0:0:0:0:
320,192,77394,1,0,0:0:0:0:
64,192,77483,1,0,0:0:0:0:
448,192,77571,1,0,0:0:0:0:
192,192,77571,1,0,0:0:0:0:
320,192,77659,1,0,0:0:0:0:
448,192,77747,1,0,0:0:0:0:
192,192,77747,1,0,0:0:0:0:
320,192,77836,1,0,0:0:0:0:
192,192,77924,1,0,0:0:0:0:
64,192,77924,1,0,0:0:0:0:
320,192,78012,1,0,0:0:0:0:
448,192,78100,1,0,0:0:0:0:
192,192,78189,1,0,0:0:0:0:
320,192,78277,1,0,0:0:0:0:
64,192,78277,1,0,0:0:0:0:
448,192,78365,1,0,0:0:0:0:
192,192,78453,1,0,0:0:0:0:
320,192,78542,1,0,0:0:0:0:
192,192,78630,1,0,0:0:0:0:
64,192,78630,1,0,0:0:0:0:
448,192,78718,1,0,0:0:0:0:
192,192,78806,1,0,0:0:0:0:
64,192,78806,1,0,0:0:0:0:
448,192,78894,1,0,0:0:0:0:
64,192,78983,1,0,0:0:0:0:
320,192,78983,1,0,0:0:0:0:
192,192,79071,1,0,0:0:0:0:
320,192,79159,1,0,0:0:0:0:
64,192,79159,1,0,0:0:0:0:
192,192,79247,1,0,0:0:0:0:
448,192,79336,1,0,0:0:0:0:
320,192,79336,1,0,0:0:0:0:
64,192,79424,1,0,0:0:0:0:
192,192,79512,1,0,0:0:0:0:
320,192,79600,1,0,0:0:0:0:
448,192,79689,1,0,0:0:0:0:
192,192,79689,1,0,0:0:0:0:
64,192,79777,1,0,0:0:0:0:
320,192,79865,1,0,0:0:0:0:
192,192,79953,1,0,0:0:0:0:
448,192,80042,1,0,0:0:0:0:
320,192,80042,1,0,0:0:0:0:
192,192,80130,1,0,0:0:0:0:
448,192,80218,1,0,0:0:0:0:
320,192,80218,1,0,0:0:0:0:
192,192,80306,1,0,0:0:0:0:
320,192,80394,1,0,0:0:0:0:
64,192,80394,1,0,0:0:0:0:
448,192,80483,1,0,0:0:0:0:
192,192,80571,1,0,0:0:0:0:
64,192,80571,1,0,0:0:0:0:
320,192,80659,1,0,0:0:0:0:
448,192,80659,1,0,0:0:0:0:
64,192,80747,1,0,0:0:0:0:
192,192,80747,1,0,0:0:0:0:
448,192,81012,1,0,0:0:0:0:
320,192,81012,1,0,0:0:0:0:
64,192,81012,1,0,0:0:0:0:
448,192,81277,1,0,0:0:0:0:
192,192,81277,1,0,0:0:0:0:
64,192,81277,1,0,0:0:0:0:
448,192,81453,1,0,0:0:0:0:
320,192,81453,1,0,0:0:0:0:
192,192,81542,1,0,0:0:0:0:
448,192,81630,1,0,0:0:0:0:
320,192,81630,1,0,0:0:0:0:
192,192,81718,1,0,0:0:0:0:
448,192,81806,1,0,0:0:0:0:
320,192,81806,1,0,0:0:0:0:
64,192,81894,1,0,0:0:0:0:
448,192,81983,1,0,0:0:0:0:
320,192,81983,1,0,0:0:0:0:
64,192,82071,1,0,0:0:0:0:
320,192,82159,1,0,0:0:0:0:
192,192,82159,1,0,0:0:0:0:
448,192,82247,1,0,0:0:0:0:
192,192,82336,1,0,0:0:0:0:
64,192,82336,1,0,0:0:0:0:
320,192,82424,1,0,0:0:0:0:
64,192,82512,128,0,82600:0:0:0:0:
192,192,82512,1,0,0:0:0:0:
448,192,82600,128,0,82689:0:0:0:0:
64,192,82689,128,0,82777:0:0:0:0:
448,192,82777,128,0,82865:0:0:0:0:
192,192,82865,1,0,0:0:0:0:
64,192,82865,1,0,0:0:0:0:
320,192,82953,1,0,0:0:0:0:
64,192,83042,1,0,0:0:0:0:
192,192,83042,1,0,0:0:0:0:
320,192,83130,1,0,0:0:0:0:
192,192,83218,1,0,0:0:0:0:
64,192,83218,1,0,0:0:0:0:
448,192,83306,1,0,0:0:0:0:
192,192,83394,1,0,0:0:0:0:
64,192,83394,1,0,0:0:0:0:
448,192,83483,1,0,0:0:0:0:
192,192,83571,1,0,0:0:0:0:
320,192,83571,1,0,0:0:0:0:
64,192,83659,1,0,0:0:0:0:
448,192,83747,1,0,0:0:0:0:
320,192,83747,1,0,0:0:0:0:
192,192,83836,1,0,0:0:0:0:
448,192,83924,128,0,84100:0:0:0:0:
320,192,83924,1,0,0:0:0:0:
64,192,84100,128,0,84277:0:0:0:0:
448,192,84277,1,0,0:0:0:0:
320,192,84277,1,0,0:0:0:0:
64,192,84365,1,0,0:0:0:0:
192,192,84365,1,0,0:0:0:0:
448,192,84453,1,0,0:0:0:0:
320,192,84453,1,0,0:0:0:0:
64,192,84542,1,0,0:0:0:0:
192,192,84542,1,0,0:0:0:0:
448,192,84630,1,0,0:0:0:0:
320,192,84630,1,0,0:0:0:0:
64,192,84718,1,0,0:0:0:0:
192,192,84718,1,0,0:0:0:0:
320,192,84806,1,0,0:0:0:0:
448,192,84806,1,0,0:0:0:0:
64,192,84894,1,0,0:0:0:0:
192,192,84894,1,0,0:0:0:0:
448,192,84983,1,0,0:0:0:0:
320,192,85027,1,0,0:0:0:0:
192,192,85071,1,0,0:0:0:0:
64,192,85115,1,0,0:0:0:0:
448,192,85159,1,0,0:0:0:0:
320,192,85203,1,0,0:0:0:0:
192,192,85247,1,0,0:0:0:0:
64,192,85292,1,0,0:0:0:0:
448,192,85336,1,0,0:0:0:0:
320,192,85336,1,0,0:0:0:0:
448,192,85512,1,0,0:0:0:0:
320,192,85512,1,0,0:0:0:0:
448,192,85689,1,0,0:0:0:0:
192,192,85689,1,0,0:0:0:0:
64,192,85689,1,0,0:0:0:0:
448,192,85953,1,0,0:0:0:0:
192,192,85953,1,0,0:0:0:0:
64,192,85953,1,0,0:0:0:0:
448,192,86218,1,0,0:0:0:0:
320,192,86218,1,0,0:0:0:0:
64,192,86218,1,0,0:0:0:0:
64,192,86747,1,0,0:0:0:0:
320,192,86747,1,0,0:0:0:0:
192,192,86836,1,0,0:0:0:0:
64,192,86924,1,0,0:0:0:0:
448,192,86924,1,0,0:0:0:0:
320,192,86924,1,0,0:0:0:0:
448,192,87100,1,0,0:0:0:0:
192,192,87100,1,0,0:0:0:0:
64,192,87100,1,0,0:0:0:0:
448,192,87453,1,0,0:0:0:0:
64,192,87453,1,0,0:0:0:0:
320,192,87497,1,0,0:0:0:0:
192,192,87542,1,0,0:0:0:0:
64,192,87586,1,0,0:0:0:0:
448,192,87630,1,0,0:0:0:0:
320,192,87674,1,0,0:0:0:0:
192,192,87718,1,0,0:0:0:0:
64,192,87762,1,0,0:0:0:0:
448,192,87806,1,0,0:0:0:0:
320,192,87806,1,0,0:0:0:0:
448,192,88159,128,0,88247:0:0:0:0:
320,192,88159,128,0,88247:0:0:0:0:
64,192,88159,128,0,88247:0:0:0:0:
448,192,88336,128,0,88424:0:0:0:0:
320,192,88336,128,0,88424:0:0:0:0:
64,192,88336,128,0,88424:0:0:0:0:
448,192,88512,1,0,0:0:0:0:
192,192,88512,1,0,0:0:0:0:
64,192,88512,1,0,0:0:0:0:
320,192,88600,1,0,0:0:0:0:
64,192,88689,1,0,0:0:0:0:
192,192,88689,1,0,0:0:0:0:
320,192,88777,1,0,0:0:0:0:
64,192,88865,128,0,88953:0:0:0:0:
448,192,88865,128,0,88953:0:0:0:0:
192,192,88865,128,0,88953:0:0:0:0:
64,192,89042,128,0,89130:0:0:0:0:
448,192,89042,128,0,89130:0:0:0:0:
192,192,89042,128,0,89130:0:0:0:0:
192,192,89218,1,0,0:0:0:0:
64,192,89218,1,0,0:0:0:0:
320,192,89218,1,0,0:0:0:0:
448,192,89218,1,0,0:0:0:0:
64,192,89394,1,0,0:0:0:0:
192,192,89394,1,0,0:0:0:0:
64,192,89571,128,0,89747:0:0:0:0:
192,192,89659,128,0,89836:0:0:0:0:
320,192,89747,128,0,89924:0:0:0:0:
448,192,89836,128,0,89924:0:0:0:0:
64,192,89924,1,0,0:0:0:0:
192,192,89924,1,0,0:0:0:0:
64,192,90100,128,0,90277:0:0:0:0:
320,192,90277,1,0,0:0:0:0:
448,192,90277,1,0,0:0:0:0:
192,192,90277,1,0,0:0:0:0:
320,192,90453,1,0,0:0:0:0:
448,192,90453,1,0,0:0:0:0:
192,192,90453,1,0,0:0:0:0:
448,192,90630,128,0,90806:0:0:0:0:
320,192,90630,128,0,90806:0:0:0:0:
64,192,90630,128,0,90806:0:0:0:0:
448,192,90983,128,0,91159:0:0:0:0:
320,192,90983,128,0,91159:0:0:0:0:
192,192,90983,128,0,91159:0:0:0:0:
320,192,91336,128,0,91512:0:0:0:0:
192,192,91336,128,0,91512:0:0:0:0:
64,192,91336,128,0,91512:0:0:0:0:
448,192,91689,1,0,0:0:0:0:
192,192,91689,1,0,0:0:0:0:
64,192,91689,1,0,0:0:0:0:
448,192,91865,1,0,0:0:0:0:
320,192,91865,1,0,0:0:0:0:
64,192,91924,1,0,0:0:0:0:
192,192,91924,1,0,0:0:0:0:
448,192,91983,1,0,0:0:0:0:
320,192,91983,1,0,0:0:0:0:
64,192,92042,1,0,0:0:0:0:
192,192,92042,1,0,0:0:0:0:
320,192,92218,1,0,0:0:0:0:
192,192,92218,1,0,0:0:0:0:
448,192,92394,1,0,0:0:0:0:
320,192,92394,1,0,0:0:0:0:
64,192,92394,1,0,0:0:0:0:
192,192,92571,1,0,0:0:0:0:
320,192,92571,1,0,0:0:0:0:
448,192,92747,1,0,0:0:0:0:
192,192,92747,1,0,0:0:0:0:
64,192,92747,1,0,0:0:0:0:
64,192,93100,1,0,0:0:0:0:
448,192,93100,1,0,0:0:0:0:
192,192,93144,1,0,0:0:0:0:
320,192,93189,1,0,0:0:0:0:
448,192,93233,1,0,0:0:0:0:
64,192,93277,1,0,0:0:0:0:
192,192,93321,1,0,0:0:0:0:
320,192,93365,1,0,0:0:0:0:
448,192,93409,1,0,0:0:0:0:
64,192,93453,1,0,0:0:0:0:
192,192,93453,1,0,0:0:0:0:
64,192,93806,128,0,93894:0:0:0:0:
192,192,93806,128,0,93894:0:0:0:0:
448,192,93806,128,0,93894:0:0:0:0:
64,192,93983,128,0,94071:0:0:0:0:
192,192,93983,128,0,94071:0:0:0:0:
448,192,93983,128,0,94071:0:0:0:0:
64,192,94159,1,0,0:0:0:0:
320,192,94159,1,0,0:0:0:0:
448,192,94159,1,0,0:0:0:0:
192,192,94247,1,0,0:0:0:0:
448,192,94336,1,0,0:0:0:0:
320,192,94336,1,0,0:0:0:0:
192,192,94424,1,0,0:0:0:0:
448,192,94512,128,0,94600:0:0:0:0:
64,192,94512,128,0,94600:0:0:0:0:
320,192,94512,128,0,94600:0:0:0:0:
448,192,94689,128,0,94777:0:0:0:0:
64,192,94689,128,0,94777:0:0:0:0:
320,192,94689,128,0,94777:0:0:0:0:
320,192,94865,1,0,0:0:0:0:
448,192,94865,1,0,0:0:0:0:
192,192,94865,1,0,0:0:0:0:
64,192,94865,1,0,0:0:0:0:
320,192,95042,1,0,0:0:0:0:
448,192,95042,1,0,0:0:0:0:
64,192,95218,128,0,95336:0:0:0:0:
192,192,95277,128,0,95394:0:0:0:0:
320,192,95336,128,0,95453:0:0:0:0:
448,192,95394,128,0,95512:0:0:0:0:
64,192,95453,128,0,95571:0:0:0:0:
192,192,95512,128,0,95571:0:0:0:0:
448,192,95571,1,0,0:0:0:0:
320,192,95571,1,0,0:0:0:0:
448,192,95747,1,0,0:0:0:0:
64,192,95924,1,0,0:0:0:0:
192,192,95924,1,0,0:0:0:0:
320,192,95983,1,0,0:0:0:0:
448,192,96042,1,0,0:0:0:0:
64,192,96042,1,0,0:0:0:0:
192,192,96100,1,0,0:0:0:0:
448,192,96159,1,0,0:0:0:0:
320,192,96159,1,0,0:0:0:0:
192,192,96218,1,0,0:0:0:0:
448,192,96277,128,0,96365:0:0:0:0:
320,192,96277,128,0,96365:0:0:0:0:
64,192,96277,1,0,0:0:0:0:
320,192,96453,128,0,96542:0:0:0:0:
192,192,96453,128,0,96542:0:0:0:0:
64,192,96630,128,0,96718:0:0:0:0:
192,192,96630,128,0,96718:0:0:0:0:
448,192,96806,128,0,96894:0:0:0:0:
64,192,96806,128,0,96894:0:0:0:0:
448,192,96983,1,0,0:0:0:0:
192,192,96983,1,0,0:0:0:0:
64,192,96983,1,0,0:0:0:0:
64,192,97247,1,0,0:0:0:0:
192,192,97247,1,0,0:0:0:0:
448,192,97247,1,0,0:0:0:0:
448,192,97512,1,0,0:0:0:0:
320,192,97512,1,0,0:0:0:0:
192,192,97512,1,0,0:0:0:0:
448,192,97777,1,0,0:0:0:0:
320,192,97777,1,0,0:0:0:0:
192,192,97777,1,0,0:0:0:0:
320,192,98042,1,0,0:0:0:0:
192,192,98042,1,0,0:0:0:0:
64,192,98042,1,0,0:0:0:0:
192,192,98306,1,0,0:0:0:0:
64,192,98306,1,0,0:0:0:0:
448,192,98394,1,0,0:0:0:0:
320,192,98394,1,0,0:0:0:0:
64,192,98571,128,0,98747:0:0:0:0:
448,192,98747,1,0,0:0:0:0:
320,192,98747,1,0,0:0:0:0:
64,192,98924,128,0,99100:0:0:0:0:
448,192,99100,1,0,0:0:0:0:
320,192,99100,1,0,0:0:0:0:
192,192,99100,1,0,0:0:0:0:
448,192,99453,1,0,0:0:0:0:
64,192,99453,1,0,0:0:0:0:
320,192,99806,1,0,0:0:0:0:
64,192,99806,1,0,0:0:0:0:
192,192,99850,1,0,0:0:0:0:
448,192,99894,1,0,0:0:0:0:
320,192,99939,1,0,0:0:0:0:
64,192,99983,1,0,0:0:0:0:
192,192,100027,1,0,0:0:0:0:
320,192,100071,1,0,0:0:0:0:
448,192,100115,1,0,0:0:0:0:
64,192,100159,1,0,0:0:0:0:
192,192,100159,1,0,0:0:0:0:
320,192,100512,1,0,0:0:0:0:
448,192,100512,1,0,0:0:0:0:
64,192,100512,1,0,0:0:0:0:
192,192,100512,1,0,0:0:0:0:
64,192,100689,1,0,0:0:0:0:
192,192,100689,1,0,0:0:0:0:
448,192,100865,128,0,101042:0:0:0:0:
320,192,100953,128,0,101130:0:0:0:0:
192,192,101042,128,0,101218:0:0:0:0:
64,192,101130,128,0,101218:0:0:0:0:
448,192,101218,1,0,0:0:0:0:
320,192,101218,1,0,0:0:0:0:
64,192,101394,128,0,101571:0:0:0:0:
320,192,101571,1,0,0:0:0:0:
448,192,101571,1,0,0:0:0:0:
192,192,101571,1,0,0:0:0:0:
320,192,101747,1,0,0:0:0:0:
448,192,101747,1,0,0:0:0:0:
192,192,101747,1,0,0:0:0:0:
320,192,101924,1,0,0:0:0:0:
192,192,101924,1,0,0:0:0:0:
64,192,101924,1,0,0:0:0:0:
448,192,102100,1,0,0:0:0:0:
64,192,102100,1,0,0:0:0:0:
192,192,102189,1,0,0:0:0:0:
320,192,102189,1,0,0:0:0:0:
448,192,102277,1,0,0:0:0:0:
64,192,102277,1,0,0:0:0:0:
320,192,102453,1,0,0:0:0:0:
448,192,102453,1,0,0:0:0:0:
192,192,102453,1,0,0:0:0:0:
320,192,102630,1,0,0:0:0:0:
192,192,102630,1,0,0:0:0:0:
64,192,102630,1,0,0:0:0:0:
448,192,102806,1,0,0:0:0:0:
192,192,102806,1,0,0:0:0:0:
64,192,102806,1,0,0:0:0:0:
320,192,102983,1,0,0:0:0:0:
448,192,102983,1,0,0:0:0:0:
64,192,102983,1,0,0:0:0:0:
192,192,103159,1,0,0:0:0:0:
64,192,103159,1,0,0:0:0:0:
448,192,103218,1,0,0:0:0:0:
320,192,103218,1,0,0:0:0:0:
192,192,103277,1,0,0:0:0:0:
64,192,103277,1,0,0:0:0:0:
448,192,103336,1,0,0:0:0:0:
320,192,103336,1,0,0:0:0:0:
192,192,103512,1,0,0:0:0:0:
320,192,103512,1,0,0:0:0:0:
448,192,103689,1,0,0:0:0:0:
192,192,103689,1,0,0:0:0:0:
64,192,103689,1,0,0:0:0:0:
320,192,103865,1,0,0:0:0:0:
192,192,103865,1,0,0:0:0:0:
192,192,104042,1,0,0:0:0:0:
64,192,104042,1,0,0:0:0:0:
320,192,104130,1,0,0:0:0:0:
448,192,104218,1,0,0:0:0:0:
192,192,104218,1,0,0:0:0:0:
64,192,104306,1,0,0:0:0:0:
448,192,104394,1,0,0:0:0:0:
320,192,104394,1,0,0:0:0:0:
192,192,104483,1,0,0:0:0:0:
320,192,104571,1,0,0:0:0:0:
64,192,104571,1,0,0:0:0:0:
448,192,104659,1,0,0:0:0:0:
192,192,104747,1,0,0:0:0:0:
64,192,104747,1,0,0:0:0:0:
320,192,104836,1,0,0:0:0:0:
448,192,104924,1,0,0:0:0:0:
192,192,104924,1,0,0:0:0:0:
64,192,105012,1,0,0:0:0:0:
448,192,105100,128,0,105189:0:0:0:0:
320,192,105100,1,0,0:0:0:0:
64,192,105189,128,0,105277:0:0:0:0:
448,192,105277,128,0,105365:0:0:0:0:
64,192,105365,128,0,105453:0:0:0:0:
448,192,105453,1,0,0:0:0:0:
320,192,105453,1,0,0:0:0:0:
192,192,105542,1,0,0:0:0:0:
448,192,105630,1,0,0:0:0:0:
64,192,105630,1,0,0:0:0:0:
320,192,105718,1,0,0:0:0:0:
64,192,105806,1,0,0:0:0:0:
192,192,105806,1,0,0:0:0:0:
320,192,105894,1,0,0:0:0:0:
448,192,105983,1,0,0:0:0:0:
64,192,105983,1,0,0:0:0:0:
192,192,106071,1,0,0:0:0:0:
448,192,106159,1,0,0:0:0:0:
320,192,106159,1,0,0:0:0:0:
192,192,106247,1,0,0:0:0:0:
448,192,106336,1,0,0:0:0:0:
64,192,106336,1,0,0:0:0:0:
320,192,106424,1,0,0:0:0:0:
64,192,106512,128,0,106689:0:0:0:0:
192,192,106512,1,0,0:0:0:0:
448,192,106689,128,0,106865:0:0:0:0:
64,192,106865,1,0,0:0:0:0:
192,192,106865,1,0,0:0:0:0:
448,192,106953,1,0,0:0:0:0:
320,192,106953,1,0,0:0:0:0:
192,192,107042,1,0,0:0:0:0:
64,192,107042,1,0,0:0:0:0:
448,192,107130,1,0,0:0:0:0:
320,192,107130,1,0,0:0:0:0:
192,192,107218,1,0,0:0:0:0:
64,192,107218,1,0,0:0:0:0:
448,192,107306,1,0,0:0:0:0:
320,192,107306,1,0,0:0:0:0:
64,192,107394,1,0,0:0:0:0:
192,192,107394,1,0,0:0:0:0:
448,192,107483,1,0,0:0:0:0:
320,192,107483,1,0,0:0:0:0:
64,192,107571,1,0,0:0:0:0:
192,192,107615,1,0,0:0:0:0:
320,192,107659,1,0,0:0:0:0:
448,192,107703,1,0,0:0:0:0:
64,192,107747,1,0,0:0:0:0:
192,192,107792,1,0,0:0:0:0:
320,192,107836,1,0,0:0:0:0:
448,192,107880,1,0,0:0:0:0:
64,192,107924,1,0,0:0:0:0:
192,192,107924,1,0,0:0:0:0:
192,192,108100,1,0,0:0:0:0:
64,192,108100,1,0,0:0:0:0:
448,192,108277,1,0,0:0:0:0:
320,192,108277,1,0,0:0:0:0:
64,192,108277,1,0,0:0:0:0:
64,192,108542,1,0,0:0:0:0:
448,192,108542,1,0,0:0:0:0:
320,192,108542,1,0,0:0:0:0:
448,192,108806,1,0,0:0:0:0:
192,192,108806,1,0,0:0:0:0:
64,192,108806,1,0,0:0:0:0:
64,192,109336,1,0,0:0:0:0:
320,192,109336,1,0,0:0:0:0:
192,192,109424,1,0,0:0:0:0:
448,192,109512,1,0,0:0:0:0:
320,192,109512,1,0,0:0:0:0:
64,192,109512,1,0,0:0:0:0:
448,192,109689,1,0,0:0:0:0:
192,192,109689,1,0,0:0:0:0:
64,192,109689,1,0,0:0:0:0:
320,192,109777,1,0,0:0:0:0:
448,192,109865,1,0,0:0:0:0:
64,192,109865,1,0,0:0:0:0:
192,192,109953,1,0,0:0:0:0:
448,192,110042,1,0,0:0:0:0:
320,192,110042,1,0,0:0:0:0:
192,192,110130,1,0,0:0:0:0:
64,192,110218,1,0,0:0:0:0:
320,192,110218,1,0,0:0:0:0:
448,192,110306,1,0,0:0:0:0:
192,192,110394,1,0,0:0:0:0:
64,192,110394,1,0,0:0:0:0:
320,192,110483,1,0,0:0:0:0:
64,192,110571,1,0,0:0:0:0:
448,192,110571,1,0,0:0:0:0:
192,192,110659,1,0,0:0:0:0:
320,192,110747,1,0,0:0:0:0:
448,192,110747,1,0,0:0:0:0:
64,192,110836,1,0,0:0:0:0:
192,192,110924,1,0,0:0:0:0:
448,192,110924,1,0,0:0:0:0:
320,192,111012,1,0,0:0:0:0:
192,192,111100,1,0,0:0:0:0:
64,192,111100,1,0,0:0:0:0:
448,192,111189,1,0,0:0:0:0:
320,192,111277,1,0,0:0:0:0:
192,192,111277,1,0,0:0:0:0:
64,192,111365,1,0,0:0:0:0:
320,192,111453,1,0,0:0:0:0:
448,192,111453,1,0,0:0:0:0:
192,192,111542,1,0,0:0:0:0:
64,192,111630,1,0,0:0:0:0:
320,192,111630,1,0,0:0:0:0:
448,192,111718,1,0,0:0:0:0:
64,192,111806,1,0,0:0:0:0:
192,192,111806,1,0,0:0:0:0:
320,192,111894,1,0,0:0:0:0:
448,192,111983,1,0,0:0:0:0:
64,192,111983,1,0,0:0:0:0:
192,192,112071,1,0,0:0:0:0:
320,192,112159,1,0,0:0:0:0:
448,192,112159,1,0,0:0:0:0:
64,192,112247,1,0,0:0:0:0:
192,192,112336,1,0,0:0:0:0:
448,192,112336,1,0,0:0:0:0:
320,192,112424,1,0,0:0:0:0:
192,192,112512,1,0,0:0:0:0:
64,192,112512,1,0,0:0:0:0:
448,192,112600,1,0,0:0:0:0:
320,192,112689,1,0,0:0:0:0:
192,192,112689,1,0,0:0:0:0:
64,192,112777,1,0,0:0:0:0:
320,192,112865,1,0,0:0:0:0:
448,192,112865,1,0,0:0:0:0:
192,192,112953,1,0,0:0:0:0:
64,192,113042,1,0,0:0:0:0:
448,192,113042,1,0,0:0:0:0:
320,192,113130,1,0,0:0:0:0:
192,192,113218,1,0,0:0:0:0:
64,192,113218,1,0,0:0:0:0:
448,192,113306,1,0,0:0:0:0:
320,192,113394,1,0,0:0:0:0:
64,192,113394,1,0,0:0:0:0:
192,192,113483,1,0,0:0:0:0:
320,192,113571,1,0,0:0:0:0:
448,192,113571,1,0,0:0:0:0:
64,192,113659,1,0,0:0:0:0:
192,192,113747,1,0,0:0:0:0:
448,192,113747,1,0,0:0:0:0:
320,192,113836,1,0,0:0:0:0:
192,192,113924,1,0,0:0:0:0:
64,192,113924,1,0,0:0:0:0:
320,192,114012,1,0,0:0:0:0:
448,192,114100,1,0,0:0:0:0:
64,192,114100,1,0,0:0:0:0:
192,192,114189,1,0,0:0:0:0:
320,192,114277,1,0,0:0:0:0:
448,192,114277,1,0,0:0:0:0:
192,192,114365,1,0,0:0:0:0:
64,192,114453,1,0,0:0:0:0:
448,192,114453,1,0,0:0:0:0:
320,192,114542,1,0,0:0:0:0:
192,192,114630,1,0,0:0:0:0:
64,192,114630,1,0,0:0:0:0:
448,192,114718,1,0,0:0:0:0:
320,192,114806,1,0,0:0:0:0:
64,192,114806,1,0,0:0:0:0:
192,192,114894,1,0,0:0:0:0:
320,192,114983,1,0,0:0:0:0:
448,192,114983,1,0,0:0:0:0:
192,192,115071,1,0,0:0:0:0:
64,192,115159,1,0,0:0:0:0:
320,192,115159,1,0,0:0:0:0:
448,192,115247,1,0,0:0:0:0:
64,192,115336,1,0,0:0:0:0:
192,192,115336,1,0,0:0:0:0:
320,192,115424,1,0,0:0:0:0:
192,192,115512,1,0,0:0:0:0:
64,192,115512,1,0,0:0:0:0:
320,192,115600,1,0,0:0:0:0:
64,192,115689,1,0,0:0:0:0:
192,192,115689,1,0,0:0:0:0:
448,192,115689,1,0,0:0:0:0:
320,192,115777,1,0,0:0:0:0:
64,192,115865,1,0,0:0:0:0:
448,192,115865,1,0,0:0:0:0:
192,192,115953,1,0,0:0:0:0:
320,192,116042,1,0,0:0:0:0:
448,192,116042,1,0,0:0:0:0:
192,192,116130,1,0,0:0:0:0:
64,192,116218,1,0,0:0:0:0:
320,192,116218,1,0,0:0:0:0:
448,192,116306,1,0,0:0:0:0:
192,192,116394,1,0,0:0:0:0:
64,192,116394,1,0,0:0:0:0:
320,192,116483,1,0,0:0:0:0:
64,192,116571,1,0,0:0:0:0:
448,192,116571,1,0,0:0:0:0:
192,192,116659,1,0,0:0:0:0:
320,192,116747,1,0,0:0:0:0:
448,192,116747,1,0,0:0:0:0:
192,192,116836,1,0,0:0:0:0:
64,192,116924,1,0,0:0:0:0:
320,192,116924,1,0,0:0:0:0:
448,192,117012,1,0,0:0:0:0:
192,192,117100,1,0,0:0:0:0:
64,192,117100,1,0,0:0:0:0:
320,192,117189,1,0,0:0:0:0:
192,192,117277,1,0,0:0:0:0:
448,192,117277,1,0,0:0:0:0:
64,192,117365,1,0,0:0:0:0:
320,192,117453,1,0,0:0:0:0:
448,192,117453,1,0,0:0:0:0:
192,192,117542,1,0,0:0:0:0:
64,192,117630,1,0,0:0:0:0:
448,192,117630,1,0,0:0:0:0:
320,192,117718,1,0,0:0:0:0:
192,192,117806,1,0,0:0:0:0:
64,192,117806,1,0,0:0:0:0:
448,192,117894,1,0,0:0:0:0:
320,192,117983,1,0,0:0:0:0:
192,192,117983,1,0,0:0:0:0:
64,192,118071,1,0,0:0:0:0:
320,192,118159,1,0,0:0:0:0:
448,192,118159,1,0,0:0:0:0:
192,192,118247,1,0,0:0:0:0:
64,192,118336,1,0,0:0:0:0:
320,192,118336,1,0,0:0:0:0:
448,192,118424,5,0,0:0:0:0:
192,192,118512,1,0,0:0:0:0:
64,192,118512,1,0,0:0:0:0:
320,192,118600,1,0,0:0:0:0:
448,192,118689,1,0,0:0:0:0:
64,192,118689,1,0,0:0:0:0:
192,192,118777,1,0,0:0:0:0:
320,192,118865,1,0,0:0:0:0:
448,192,118865,1,0,0:0:0:0:
192,192,118953,1,0,0:0:0:0:
64,192,119042,1,0,0:0:0:0:
448,192,119042,1,0,0:0:0:0:
320,192,119130,1,0,0:0:0:0:
192,192,119218,1,0,0:0:0:0:
64,192,119218,1,0,0:0:0:0:
320,192,119306,1,0,0:0:0:0:
448,192,119394,1,0,0:0:0:0:
64,192,119394,1,0,0:0:0:0:
192,192,119483,1,0,0:0:0:0:
320,192,119571,1,0,0:0:0:0:
448,192,119571,1,0,0:0:0:0:
64,192,119571,1,0,0:0:0:0:
64,192,119836,1,0,0:0:0:0:
320,192,119836,1,0,0:0:0:0:
448,192,119836,1,0,0:0:0:0:
64,192,120100,1,0,0:0:0:0:
320,192,120100,1,0,0:0:0:0:
448,192,120100,1,0,0:0:0:0:
64,192,120277,1,0,0:0:0:0:
192,192,120277,1,0,0:0:0:0:
448,192,120277,1,0,0:0:0:0:
64,192,120453,1,0,0:0:0:0:
192,192,120497,1,0,0:0:0:0:
320,192,120542,1,0,0:0:0:0:
448,192,120586,1,0,0:0:0:0:
192,192,120630,1,0,0:0:0:0:
64,192,120630,1,0,0:0:0:0:
320,192,120718,1,0,0:0:0:0:
448,192,120718,1,0,0:0:0:0:
192,192,120806,1,0,0:0:0:0:
64,192,120806,1,0,0:0:0:0:
320,192,120894,1,0,0:0:0:0:
448,192,120894,1,0,0:0:0:0:
192,192,120983,1,0,0:0:0:0:
64,192,120983,1,0,0:0:0:0:
320,192,121071,1,0,0:0:0:0:
448,192,121159,1,0,0:0:0:0:
192,192,121247,1,0,0:0:0:0:
320,192,121336,1,0,0:0:0:0:
64,192,121336,1,0,0:0:0:0:
448,192,121424,1,0,0:0:0:0:
64,192,121512,1,0,0:0:0:0:
192,192,121600,1,0,0:0:0:0:
320,192,121689,1,0,0:0:0:0:
448,192,121689,1,0,0:0:0:0:
192,192,121777,1,0,0:0:0:0:
64,192,121865,1,0,0:0:0:0:
320,192,121953,1,0,0:0:0:0:
448,192,122042,1,0,0:0:0:0:
64,192,122042,1,0,0:0:0:0:
192,192,122130,1,0,0:0:0:0:
320,192,122218,1,0,0:0:0:0:
448,192,122306,1,0,0:0:0:0:
192,192,122394,1,0,0:0:0:0:
64,192,122394,1,0,0:0:0:0:
448,192,122483,1,0,0:0:0:0:
320,192,122571,1,0,0:0:0:0:
192,192,122659,1,0,0:0:0:0:
320,192,122747,1,0,0:0:0:0:
448,192,122747,1,0,0:0:0:0:
64,192,122836,1,0,0:0:0:0:
192,192,122924,1,0,0:0:0:0:
320,192,123012,1,0,0:0:0:0:
192,192,123100,1,0,0:0:0:0:
448,192,123100,1,0,0:0:0:0:
64,192,123189,1,0,0:0:0:0:
320,192,123277,1,0,0:0:0:0:
448,192,123365,1,0,0:0:0:0:
192,192,123453,1,0,0:0:0:0:
64,192,123453,1,0,0:0:0:0:
320,192,123542,1,0,0:0:0:0:
192,192,123630,1,0,0:0:0:0:
64,192,123718,1,0,0:0:0:0:
320,192,123806,1,0,0:0:0:0:
448,192,123806,1,0,0:0:0:0:
192,192,123894,1,0,0:0:0:0:
64,192,123983,1,0,0:0:0:0:
320,192,124071,1,0,0:0:0:0:
192,192,124159,1,0,0:0:0:0:
448,192,124159,1,0,0:0:0:0:
64,192,124247,1,0,0:0:0:0:
448,192,124336,1,0,0:0:0:0:
320,192,124424,1,0,0:0:0:0:
192,192,124512,1,0,0:0:0:0:
64,192,124512,1,0,0:0:0:0:
320,192,124600,1,0,0:0:0:0:
448,192,124689,1,0,0:0:0:0:
64,192,124689,1,0,0:0:0:0:
192,192,124777,1,0,0:0:0:0:
448,192,124865,1,0,0:0:0:0:
320,192,124865,1,0,0:0:0:0:
192,192,124953,1,0,0:0:0:0:
64,192,125042,1,0,0:0:0:0:
320,192,125042,1,0,0:0:0:0:
448,192,125042,1,0,0:0:0:0:
64,192,125394,1,0,0:0:0:0:
192,192,125394,1,0,0:0:0:0:
448,192,125394,1,0,0:0:0:0:
192,192,125747,1,0,0:0:0:0:
320,192,125747,1,0,0:0:0:0:
448,192,125747,1,0,0:0:0:0:
64,192,126100,1,0,0:0:0:0:
192,192,126100,1,0,0:0:0:0:
320,192,126100,1,0,0:0:0:0:
64,192,126277,1,0,0:0:0:0:
320,192,126277,1,0,0:0:0:0:
448,192,126277,1,0,0:0:0:0:
64,192,126453,1,0,0:0:0:0:
192,192,126453,1,0,0:0:0:0:
320,192,126542,1,0,0:0:0:0:
448,192,126542,1,0,0:0:0:0:
64,192,126630,1,0,0:0:0:0:
192,192,126630,1,0,0:0:0:0:
320,192,126718,1,0,0:0:0:0:
448,192,126806,1,0,0:0:0:0:
192,192,126894,1,0,0:0:0:0:
64,192,126983,1,0,0:0:0:0:
320,192,126983,1,0,0:0:0:0:
448,192,127071,1,0,0:0:0:0:
64,192,127159,1,0,0:0:0:0:
192,192,127159,1,0,0:0:0:0:
320,192,127247,1,0,0:0:0:0:
448,192,127247,1,0,0:0:0:0:
192,192,127336,1,0,0:0:0:0:
64,192,127336,1,0,0:0:0:0:
320,192,127424,1,0,0:0:0:0:
64,192,127512,1,0,0:0:0:0:
448,192,127512,1,0,0:0:0:0:
192,192,127600,1,0,0:0:0:0:
448,192,127689,1,0,0:0:0:0:
320,192,127689,1,0,0:0:0:0:
192,192,127777,1,0,0:0:0:0:
64,192,127865,1,0,0:0:0:0:
448,192,127953,1,0,0:0:0:0:
64,192,128042,1,0,0:0:0:0:
320,192,128042,1,0,0:0:0:0:
192,192,128130,1,0,0:0:0:0:
320,192,128218,1,0,0:0:0:0:
64,192,128306,1,0,0:0:0:0:
448,192,128394,1,0,0:0:0:0:
192,192,128394,1,0,0:0:0:0:
320,192,128483,1,0,0:0:0:0:
192,192,128571,1,0,0:0:0:0:
64,192,128571,1,0,0:0:0:0:
320,192,128659,1,0,0:0:0:0:
448,192,128659,1,0,0:0:0:0:
192,192,128747,1,0,0:0:0:0:
64,192,128747,1,0,0:0:0:0:
320,192,128924,1,0,0:0:0:0:
448,192,128924,1,0,0:0:0:0:
192,192,129012,1,0,0:0:0:0:
64,192,129012,1,0,0:0:0:0:
320,192,129100,1,0,0:0:0:0:
448,192,129100,128,0,129277:0:0:0:0:
192,192,129277,128,0,129453:0:0:0:0:
64,192,129453,1,0,0:0:0:0:
320,192,129453,1,0,0:0:0:0:
448,192,129453,1,0,0:0:0:0:
64,192,129718,1,0,0:0:0:0:
320,192,129718,1,0,0:0:0:0:
448,192,129718,1,0,0:0:0:0:
64,192,129983,1,0,0:0:0:0:
320,192,129983,1,0,0:0:0:0:
448,192,129983,1,0,0:0:0:0:
64,192,130159,1,0,0:0:0:0:
192,192,130159,1,0,0:0:0:0:
448,192,130159,1,0,0:0:0:0:
192,192,130336,1,0,0:0:0:0:
448,192,130336,1,0,0:0:0:0:
320,192,130336,1,0,0:0:0:0:
192,192,130512,1,0,0:0:0:0:
64,192,130512,1,0,0:0:0:0:
448,192,130512,1,0,0:0:0:0:
192,192,130689,1,0,0:0:0:0:
320,192,130689,1,0,0:0:0:0:
448,192,130689,1,0,0:0:0:0:
64,192,130865,1,0,0:0:0:0:
192,192,130909,1,0,0:0:0:0:
320,192,130953,1,0,0:0:0:0:
448,192,130997,1,0,0:0:0:0:
192,192,131042,1,0,0:0:0:0:
64,192,131042,1,0,0:0:0:0:
320,192,131042,1,0,0:0:0:0:
192,192,131394,1,0,0:0:0:0:
320,192,131394,1,0,0:0:0:0:
448,192,131394,1,0,0:0:0:0:
64,192,131747,1,0,0:0:0:0:
192,192,131747,1,0,0:0:0:0:
320,192,131747,1,0,0:0:0:0:
448,192,131924,1,0,0:0:0:0:
320,192,131924,1,0,0:0:0:0:
64,192,131924,1,0,0:0:0:0:
192,192,132012,1,0,0:0:0:0:
320,192,132100,1,0,0:0:0:0:
448,192,132100,1,0,0:0:0:0:
192,192,132189,1,0,0:0:0:0:
64,192,132189,1,0,0:0:0:0:
448,192,132277,1,0,0:0:0:0:
320,192,132321,1,0,0:0:0:0:
192,192,132365,1,0,0:0:0:0:
64,192,132409,1,0,0:0:0:0:
448,192,132453,1,0,0:0:0:0:
320,192,132542,1,0,0:0:0:0:
64,192,132630,1,0,0:0:0:0:
192,192,132674,1,0,0:0:0:0:
320,192,132718,1,0,0:0:0:0:
448,192,132762,1,0,0:0:0:0:
64,192,132806,1,0,0:0:0:0:
192,192,132894,1,0,0:0:0:0:
448,192,132983,1,0,0:0:0:0:
320,192,133027,1,0,0:0:0:0:
192,192,133071,1,0,0:0:0:0:
64,192,133115,1,0,0:0:0:0:
448,192,133159,1,0,0:0:0:0:
320,192,133247,1,0,0:0:0:0:
64,192,133336,1,0,0:0:0:0:
192,192,133380,1,0,0:0:0:0:
320,192,133424,1,0,0:0:0:0:
448,192,133468,1,0,0:0:0:0:
64,192,133512,1,0,0:0:0:0:
192,192,133600,1,0,0:0:0:0:
448,192,133689,1,0,0:0:0:0:
320,192,133733,1,0,0:0:0:0:
192,192,133777,1,0,0:0:0:0:
64,192,133821,1,0,0:0:0:0:
448,192,133865,1,0,0:0:0:0:
320,192,133953,1,0,0:0:0:0:
64,192,134042,1,0,0:0:0:0:
192,192,134086,1,0,0:0:0:0:
320,192,134130,1,0,0:0:0:0:
448,192,134174,1,0,0:0:0:0:
64,192,134218,1,0,0:0:0:0:
192,192,134306,1,0,0:0:0:0:
448,192,134394,1,0,0:0:0:0:
320,192,134439,1,0,0:0:0:0:
192,192,134483,1,0,0:0:0:0:
64,192,134527,1,0,0:0:0:0:
448,192,134571,1,0,0:0:0:0:
320,192,134659,1,0,0:0:0:0:
64,192,134747,1,0,0:0:0:0:
192,192,134792,1,0,0:0:0:0:
320,192,134836,1,0,0:0:0:0:
448,192,134880,1,0,0:0:0:0:
64,192,134924,1,0,0:0:0:0:
192,192,135012,1,0,0:0:0:0:
448,192,135100,1,0,0:0:0:0:
320,192,135144,1,0,0:0:0:0:
192,192,135189,1,0,0:0:0:0:
64,192,135233,1,0,0:0:0:0:
448,192,135277,1,0,0:0:0:0:
320,192,135365,1,0,0:0:0:0:
64,192,135453,1,0,0:0:0:0:
192,192,135497,1,0,0:0:0:0:
320,192,135542,1,0,0:0:0:0:
448,192,135586,1,0,0:0:0:0:
64,192,135630,1,0,0:0:0:0:
192,192,135718,1,0,0:0:0:0:
448,192,135806,1,0,0:0:0:0:
320,192,135850,1,0,0:0:0:0:
192,192,135894,1,0,0:0:0:0:
64,192,135939,1,0,0:0:0:0:
448,192,135983,1,0,0:0:0:0:
320,192,136027,1,0,0:0:0:0:
192,192,136071,1,0,0:0:0:0:
64,192,136115,1,0,0:0:0:0:
448,192,136159,1,0,0:0:0:0:
320,192,136203,1,0,0:0:0:0:
192,192,136247,1,0,0:0:0:0:
64,192,136292,1,0,0:0:0:0:
448,192,136336,1,0,0:0:0:0:
320,192,136380,1,0,0:0:0:0:
192,192,136424,1,0,0:0:0:0:
64,192,136468,1,0,0:0:0:0:
320,192,136512,1,0,0:0:0:0:
448,192,136512,1,0,0:0:0:0:
64,192,136600,1,0,0:0:0:0:
448,192,136689,1,0,0:0:0:0:
192,192,136777,1,0,0:0:0:0:
448,192,136865,1,0,0:0:0:0:
64,192,136953,1,0,0:0:0:0:
448,192,137042,1,0,0:0:0:0:
192,192,137130,1,0,0:0:0:0:
448,192,137218,1,0,0:0:0:0:
64,192,137306,1,0,0:0:0:0:
448,192,137394,1,0,0:0:0:0:
192,192,137483,1,0,0:0:0:0:
320,192,137571,1,0,0:0:0:0:
448,192,137571,128,0,137747:0:0:0:0:
64,192,137747,128,0,137924:0:0:0:0:
320,192,137924,1,0,0:0:0:0:
448,192,137924,1,0,0:0:0:0:
64,192,138012,1,0,0:0:0:0:
192,192,138100,1,0,0:0:0:0:
320,192,138189,1,0,0:0:0:0:
192,192,138277,1,0,0:0:0:0:
448,192,138277,1,0,0:0:0:0:
64,192,138365,1,0,0:0:0:0:
320,192,138453,1,0,0:0:0:0:
448,192,138542,1,0,0:0:0:0:
192,192,138630,1,0,0:0:0:0:
64,192,138630,1,0,0:0:0:0:
448,192,138718,1,0,0:0:0:0:
320,192,138806,1,0,0:0:0:0:
192,192,138894,1,0,0:0:0:0:
320,192,138983,1,0,0:0:0:0:
64,192,138983,1,0,0:0:0:0:
448,192,139071,1,0,0:0:0:0:
192,192,139159,1,0,0:0:0:0:
64,192,139247,1,0,0:0:0:0:
320,192,139336,1,0,0:0:0:0:
448,192,139336,1,0,0:0:0:0:
192,192,139424,1,0,0:0:0:0:
320,192,139512,1,0,0:0:0:0:
448,192,139600,1,0,0:0:0:0:
64,192,139689,1,0,0:0:0:0:
192,192,139689,1,0,0:0:0:0:
320,192,139777,1,0,0:0:0:0:
64,192,139865,1,0,0:0:0:0:
192,192,139953,1,0,0:0:0:0:
320,192,140042,1,0,0:0:0:0:
448,192,140042,1,0,0:0:0:0:
192,192,140130,1,0,0:0:0:0:
64,192,140218,1,0,0:0:0:0:
320,192,140306,1,0,0:0:0:0:
192,192,140394,1,0,0:0:0:0:
448,192,140394,1,0,0:0:0:0:
64,192,140483,1,0,0:0:0:0:
320,192,140571,1,0,0:0:0:0:
448,192,140659,1,0,0:0:0:0:
192,192,140747,1,0,0:0:0:0:
64,192,140747,1,0,0:0:0:0:
320,192,140836,1,0,0:0:0:0:
192,192,140924,1,0,0:0:0:0:
64,192,141012,1,0,0:0:0:0:
320,192,141100,1,0,0:0:0:0:
448,192,141100,1,0,0:0:0:0:
192,192,141189,1,0,0:0:0:0:
64,192,141277,1,0,0:0:0:0:
320,192,141365,1,0,0:0:0:0:
448,192,141453,1,0,0:0:0:0:
192,192,141453,1,0,0:0:0:0:
320,192,141542,1,0,0:0:0:0:
64,192,141630,1,0,0:0:0:0:
192,192,141718,1,0,0:0:0:0:
320,192,141806,1,0,0:0:0:0:
448,192,141806,1,0,0:0:0:0:
192,192,141894,1,0,0:0:0:0:
64,192,141983,1,0,0:0:0:0:
320,192,142071,1,0,0:0:0:0:
64,192,142159,1,0,0:0:0:0:
448,192,142159,1,0,0:0:0:0:
192,192,142247,1,0,0:0:0:0:
320,192,142336,1,0,0:0:0:0:
64,192,142424,1,0,0:0:0:0:
192,192,142512,1,0,0:0:0:0:
448,192,142512,1,0,0:0:0:0:
320,192,142600,1,0,0:0:0:0:
192,192,142689,1,0,0:0:0:0:
64,192,142777,1,0,0:0:0:0:
320,192,142865,1,0,0:0:0:0:
448,192,142865,1,0,0:0:0:0:
192,192,142953,1,0,0:0:0:0:
64,192,143042,1,0,0:0:0:0:
320,192,143130,1,0,0:0:0:0:
448,192,143130,1,0,0:0:0:0:
64,192,143218,128,0,143306:0:0:0:0:
192,192,143306,128,0,143394:0:0:0:0:
320,192,143394,128,0,143483:0:0:0:0:
448,192,143483,128,0,143571:0:0:0:0:
64,192,143571,1,0,0:0:0:0:
192,192,143571,1,0,0:0:0:0:
320,192,143659,1,0,0:0:0:0:
448,192,143747,1,0,0:0:0:0:
64,192,143836,1,0,0:0:0:0:
192,192,143924,1,0,0:0:0:0:
448,192,143924,1,0,0:0:0:0:
320,192,144012,1,0,0:0:0:0:
192,192,144100,1,0,0:0:0:0:
448,192,144189,1,0,0:0:0:0:
64,192,144277,1,0,0:0:0:0:
320,192,144277,1,0,0:0:0:0:
192,192,144365,1,0,0:0:0:0:
320,192,144453,1,0,0:0:0:0:
448,192,144542,1,0,0:0:0:0:
192,192,144630,1,0,0:0:0:0:
64,192,144630,1,0,0:0:0:0:
448,192,144718,1,0,0:0:0:0:
320,192,144806,1,0,0:0:0:0:
192,192,144894,1,0,0:0:0:0:
64,192,144983,1,0,0:0:0:0:
448,192,144983,1,0,0:0:0:0:
320,192,145071,1,0,0:0:0:0:
192,192,145159,1,0,0:0:0:0:
320,192,145247,1,0,0:0:0:0:
64,192,145336,1,0,0:0:0:0:
448,192,145336,1,0,0:0:0:0:
192,192,145424,1,0,0:0:0:0:
320,192,145512,1,0,0:0:0:0:
64,192,145600,1,0,0:0:0:0:
192,192,145689,1,0,0:0:0:0:
448,192,145689,1,0,0:0:0:0:
320,192,145777,1,0,0:0:0:0:
192,192,145865,1,0,0:0:0:0:
64,192,145953,1,0,0:0:0:0:
320,192,146042,1,0,0:0:0:0:
448,192,146042,1,0,0:0:0:0:
192,192,146130,1,0,0:0:0:0:
64,192,146218,1,0,0:0:0:0:
320,192,146306,1,0,0:0:0:0:
64,192,146394,1,0,0:0:0:0:
448,192,146394,1,0,0:0:0:0:
192,192,146483,1,0,0:0:0:0:
320,192,146571,1,0,0:0:0:0:
64,192,146659,1,0,0:0:0:0:
448,192,146747,1,0,0:0:0:0:
192,192,146747,1,0,0:0:0:0:
320,192,146836,1,0,0:0:0:0:
192,192,146924,1,0,0:0:0:0:
64,192,147012,1,0,0:0:0:0:
320,192,147100,1,0,0:0:0:0:
448,192,147100,1,0,0:0:0:0:
192,192,147189,1,0,0:0:0:0:
64,192,147277,1,0,0:0:0:0:
320,192,147365,1,0,0:0:0:0:
192,192,147453,1,0,0:0:0:0:
448,192,147453,1,0,0:0:0:0:
320,192,147542,1,0,0:0:0:0:
64,192,147630,1,0,0:0:0:0:
192,192,147718,1,0,0:0:0:0:
64,192,147806,1,0,0:0:0:0:
320,192,147806,1,0,0:0:0:0:
448,192,147806,1,0,0:0:0:0:
320,192,147983,1,0,0:0:0:0:
448,192,147983,1,0,0:0:0:0:
64,192,147983,1,0,0:0:0:0:
64,192,148159,1,0,0:0:0:0:
320,192,148159,1,0,0:0:0:0:
448,192,148159,1,0,0:0:0:0:
192,192,148512,1,0,0:0:0:0:
64,192,148512,128,0,148777:0:0:0:0:
448,192,148689,128,0,149042:0:0:0:0:
320,192,148777,128,0,148953:0:0:0:0:
192,192,148777,1,0,0:0:0:0:
64,192,148953,128,0,149130:0:0:0:0:
192,192,149042,128,0,149218:0:0:0:0:
320,192,149130,128,0,149218:0:0:0:0:
64,192,149218,1,0,0:0:0:0:
448,192,149218,1,0,0:0:0:0:
192,192,149306,1,0,0:0:0:0:
448,192,149394,1,0,0:0:0:0:
320,192,149394,1,0,0:0:0:0:
192,192,149483,1,0,0:0:0:0:
64,192,149571,1,0,0:0:0:0:
320,192,149571,1,0,0:0:0:0:
448,192,149659,1,0,0:0:0:0:
64,192,149747,1,0,0:0:0:0:
320,192,149747,1,0,0:0:0:0:
448,192,149836,1,0,0:0:0:0:
64,192,149924,1,0,0:0:0:0:
192,192,149924,1,0,0:0:0:0:
320,192,150012,1,0,0:0:0:0:
448,192,150100,1,0,0:0:0:0:
192,192,150189,1,0,0:0:0:0:
320,192,150277,1,0,0:0:0:0:
64,192,150277,1,0,0:0:0:0:
448,192,150365,1,0,0:0:0:0:
192,192,150453,1,0,0:0:0:0:
320,192,150542,1,0,0:0:0:0:
64,192,150630,1,0,0:0:0:0:
192,192,150630,1,0,0:0:0:0:
448,192,150718,1,0,0:0:0:0:
64,192,150806,1,0,0:0:0:0:
192,192,150806,1,0,0:0:0:0:
448,192,150894,1,0,0:0:0:0:
64,192,150983,1,0,0:0:0:0:
320,192,150983,1,0,0:0:0:0:
192,192,151071,1,0,0:0:0:0:
64,192,151159,1,0,0:0:0:0:
320,192,151159,1,0,0:0:0:0:
192,192,151247,1,0,0:0:0:0:
320,192,151336,1,0,0:0:0:0:
448,192,151336,1,0,0:0:0:0:
192,192,151424,1,0,0:0:0:0:
64,192,151512,1,0,0:0:0:0:
320,192,151600,1,0,0:0:0:0:
192,192,151689,1,0,0:0:0:0:
448,192,151689,1,0,0:0:0:0:
64,192,151777,1,0,0:0:0:0:
320,192,151865,1,0,0:0:0:0:
192,192,151953,1,0,0:0:0:0:
320,192,152042,1,0,0:0:0:0:
448,192,152042,1,0,0:0:0:0:
64,192,152130,1,0,0:0:0:0:
320,192,152218,1,0,0:0:0:0:
448,192,152218,1,0,0:0:0:0:
64,192,152306,1,0,0:0:0:0:
448,192,152394,1,0,0:0:0:0:
192,192,152394,1,0,0:0:0:0:
320,192,152483,1,0,0:0:0:0:
192,192,152571,1,0,0:0:0:0:
448,192,152571,1,0,0:0:0:0:
320,192,152659,1,0,0:0:0:0:
64,192,152747,1,0,0:0:0:0:
192,192,152747,1,0,0:0:0:0:
448,192,152836,1,0,0:0:0:0:
320,192,152924,1,0,0:0:0:0:
192,192,153012,1,0,0:0:0:0:
64,192,153100,1,0,0:0:0:0:
320,192,153100,1,0,0:0:0:0:
448,192,153189,1,0,0:0:0:0:
192,192,153277,1,0,0:0:0:0:
320,192,153365,1,0,0:0:0:0:
64,192,153453,1,0,0:0:0:0:
192,192,153453,1,0,0:0:0:0:
320,192,153542,1,0,0:0:0:0:
64,192,153630,1,0,0:0:0:0:
192,192,153630,1,0,0:0:0:0:
320,192,153718,1,0,0:0:0:0:
192,192,153806,1,0,0:0:0:0:
448,192,153806,1,0,0:0:0:0:
64,192,153894,1,0,0:0:0:0:
192,192,153983,1,0,0:0:0:0:
448,192,153983,1,0,0:0:0:0:
64,192,154071,1,0,0:0:0:0:
448,192,154159,1,0,0:0:0:0:
320,192,154159,1,0,0:0:0:0:
192,192,154247,1,0,0:0:0:0:
64,192,154336,1,0,0:0:0:0:
320,192,154424,1,0,0:0:0:0:
192,192,154512,1,0,0:0:0:0:
448,192,154512,1,0,0:0:0:0:
64,192,154600,1,0,0:0:0:0:
448,192,154689,1,0,0:0:0:0:
320,192,154689,1,0,0:0:0:0:
64,192,154777,1,0,0:0:0:0:
192,192,154777,1,0,0:0:0:0:
448,192,154865,1,0,0:0:0:0:
320,192,154865,1,0,0:0:0:0:
192,192,154953,1,0,0:0:0:0:
448,192,155042,1,0,0:0:0:0:
320,192,155042,1,0,0:0:0:0:
192,192,155130,1,0,0:0:0:0:
64,192,155218,1,0,0:0:0:0:
320,192,155218,1,0,0:0:0:0:
448,192,155306,1,0,0:0:0:0:
64,192,155394,1,0,0:0:0:0:
320,192,155394,1,0,0:0:0:0:
448,192,155483,1,0,0:0:0:0:
64,192,155571,1,0,0:0:0:0:
192,192,155571,1,0,0:0:0:0:
320,192,155659,1,0,0:0:0:0:
448,192,155747,1,0,0:0:0:0:
192,192,155836,1,0,0:0:0:0:
320,192,155924,1,0,0:0:0:0:
64,192,155924,1,0,0:0:0:0:
448,192,156012,1,0,0:0:0:0:
192,192,156100,1,0,0:0:0:0:
320,192,156189,1,0,0:0:0:0:
64,192,156277,1,0,0:0:0:0:
192,192,156277,1,0,0:0:0:0:
448,192,156365,1,0,0:0:0:0:
64,192,156453,1,0,0:0:0:0:
192,192,156453,1,0,0:0:0:0:
448,192,156542,1,0,0:0:0:0:
64,192,156630,1,0,0:0:0:0:
320,192,156630,1,0,0:0:0:0:
192,192,156718,1,0,0:0:0:0:
64,192,156806,1,0,0:0:0:0:
320,192,156806,1,0,0:0:0:0:
192,192,156894,1,0,0:0:0:0:
320,192,156983,1,0,0:0:0:0:
448,192,156983,1,0,0:0:0:0:
192,192,157071,1,0,0:0:0:0:
64,192,157159,1,0,0:0:0:0:
320,192,157247,1,0,0:0:0:0:
192,192,157336,1,0,0:0:0:0:
448,192,157336,1,0,0:0:0:0:
64,192,157424,1,0,0:0:0:0:
320,192,157512,1,0,0:0:0:0:
192,192,157600,1,0,0:0:0:0:
320,192,157689,1,0,0:0:0:0:
448,192,157689,1,0,0:0:0:0:
64,192,157777,1,0,0:0:0:0:
320,192,157865,1,0,0:0:0:0:
448,192,157865,1,0,0:0:0:0:
64,192,157953,1,0,0:0:0:0:
448,192,158042,1,0,0:0:0:0:
192,192,158042,1,0,0:0:0:0:
320,192,158130,1,0,0:0:0:0:
192,192,158218,1,0,0:0:0:0:
448,192,158218,1,0,0:0:0:0:
320,192,158306,1,0,0:0:0:0:
64,192,158394,1,0,0:0:0:0:
192,192,158394,1,0,0:0:0:0:
448,192,158483,1,0,0:0:0:0:
320,192,158571,1,0,0:0:0:0:
192,192,158659,1,0,0:0:0:0:
64,192,158747,1,0,0:0:0:0:
320,192,158747,1,0,0:0:0:0:
448,192,158836,1,0,0:0:0:0:
192,192,158924,1,0,0:0:0:0:
320,192,159012,1,0,0:0:0:0:
64,192,159100,1,0,0:0:0:0:
192,192,159100,1,0,0:0:0:0:
320,192,159189,1,0,0:0:0:0:
64,192,159277,1,0,0:0:0:0:
192,192,159277,1,0,0:0:0:0:
320,192,159365,1,0,0:0:0:0:
192,192,159453,1,0,0:0:0:0:
448,192,159453,1,0,0:0:0:0:
64,192,159542,1,0,0:0:0:0:
320,192,159630,1,0,0:0:0:0:
448,192,159630,1,0,0:0:0:0:
192,192,159718,1,0,0:0:0:0:
64,192,159718,1,0,0:0:0:0:
448,192,159806,1,0,0:0:0:0:
320,192,159806,1,0,0:0:0:0:
64,192,160071,1,0,0:0:0:0:
192,192,160071,1,0,0:0:0:0:
448,192,160071,1,0,0:0:0:0:
64,192,160336,1,0,0:0:0:0:
320,192,160336,1,0,0:0:0:0:
448,192,160336,1,0,0:0:0:0:
64,192,160512,1,0,0:0:0:0:
192,192,160512,1,0,0:0:0:0:
320,192,160600,1,0,0:0:0:0:
64,192,160689,1,0,0:0:0:0:
192,192,160689,1,0,0:0:0:0:
320,192,160777,1,0,0:0:0:0:
64,192,160865,1,0,0:0:0:0:
192,192,160865,1,0,0:0:0:0:
448,192,160953,1,0,0:0:0:0:
64,192,161042,1,0,0:0:0:0:
192,192,161042,1,0,0:0:0:0:
448,192,161130,1,0,0:0:0:0:
192,192,161218,1,0,0:0:0:0:
320,192,161218,1,0,0:0:0:0:
64,192,161306,1,0,0:0:0:0:
320,192,161394,1,0,0:0:0:0:
448,192,161394,1,0,0:0:0:0:
192,192,161483,1,0,0:0:0:0:
448,192,161571,128,0,161659:0:0:0:0:
320,192,161571,1,0,0:0:0:0:
64,192,161659,128,0,161747:0:0:0:0:
448,192,161747,128,0,161836:0:0:0:0:
64,192,161836,128,0,161924:0:0:0:0:
320,192,161924,1,0,0:0:0:0:
448,192,161924,1,0,0:0:0:0:
192,192,162012,1,0,0:0:0:0:
448,192,162100,1,0,0:0:0:0:
320,192,162100,1,0,0:0:0:0:
192,192,162189,1,0,0:0:0:0:
320,192,162277,1,0,0:0:0:0:
448,192,162277,1,0,0:0:0:0:
64,192,162365,1,0,0:0:0:0:
320,192,162453,1,0,0:0:0:0:
448,192,162453,1,0,0:0:0:0:
64,192,162542,1,0,0:0:0:0:
320,192,162630,1,0,0:0:0:0:
192,192,162630,1,0,0:0:0:0:
448,192,162718,1,0,0:0:0:0:
64,192,162806,1,0,0:0:0:0:
192,192,162806,1,0,0:0:0:0:
320,192,162894,1,0,0:0:0:0:
64,192,162983,128,0,163159:0:0:0:0:
192,192,162983,1,0,0:0:0:0:
448,192,163159,128,0,163336:0:0:0:0:
64,192,163336,1,0,0:0:0:0:
192,192,163336,1,0,0:0:0:0:
448,192,163424,1,0,0:0:0:0:
320,192,163424,1,0,0:0:0:0:
64,192,163512,1,0,0:0:0:0:
192,192,163512,1,0,0:0:0:0:
448,192,163600,1,0,0:0:0:0:
320,192,163600,1,0,0:0:0:0:
64,192,163689,1,0,0:0:0:0:
192,192,163689,1,0,0:0:0:0:
448,192,163777,1,0,0:0:0:0:
320,192,163777,1,0,0:0:0:0:
192,192,163865,1,0,0:0:0:0:
64,192,163865,1,0,0:0:0:0:
448,192,163953,1,0,0:0:0:0:
320,192,163953,1,0,0:0:0:0:
64,192,164042,1,0,0:0:0:0:
192,192,164086,1,0,0:0:0:0:
320,192,164130,1,0,0:0:0:0:
448,192,164174,1,0,0:0:0:0:
64,192,164218,1,0,0:0:0:0:
192,192,164262,1,0,0:0:0:0:
320,192,164306,1,0,0:0:0:0:
448,192,164350,1,0,0:0:0:0:
64,192,164394,1,0,0:0:0:0:
192,192,164394,1,0,0:0:0:0:
64,192,164571,1,0,0:0:0:0:
192,192,164571,1,0,0:0:0:0:
64,192,164747,1,0,0:0:0:0:
320,192,164747,1,0,0:0:0:0:
448,192,164747,1,0,0:0:0:0:
64,192,165012,5,0,0:0:0:0:
320,192,165012,1,0,0:0:0:0:
448,192,165012,1,0,0:0:0:0:
64,192,165277,1,0,0:0:0:0:
192,192,165277,1,0,0:0:0:0:
448,192,165277,1,0,0:0:0:0:
320,192,165806,1,0,0:0:0:0:
64,192,165806,1,0,0:0:0:0:
192,192,165894,1,0,0:0:0:0:
64,192,165983,1,0,0:0:0:0:
320,192,165983,1,0,0:0:0:0:
448,192,165983,1,0,0:0:0:0:
448,192,166159,5,0,0:0:0:0:
192,192,166159,1,0,0:0:0:0:
64,192,166159,1,0,0:0:0:0:
448,192,166512,1,0,0:0:0:0:
64,192,166512,1,0,0:0:0:0:
320,192,166556,1,0,0:0:0:0:
192,192,166600,1,0,0:0:0:0:
64,192,166644,1,0,0:0:0:0:
448,192,166689,1,0,0:0:0:0:
320,192,166733,1,0,0:0:0:0:
192,192,166777,1,0,0:0:0:0:
64,192,166821,1,0,0:0:0:0:
448,192,166865,1,0,0:0:0:0:
320,192,166865,1,0,0:0:0:0:
448,192,167218,128,0,167306:0:0:0:0:
320,192,167218,128,0,167306:0:0:0:0:
64,192,167218,128,0,167306:0:0:0:0:
448,192,167394,128,0,167483:0:0:0:0:
320,192,167394,128,0,167483:0:0:0:0:
64,192,167394,128,0,167483:0:0:0:0:
448,192,167571,1,0,0:0:0:0:
192,192,167571,1,0,0:0:0:0:
64,192,167571,1,0,0:0:0:0:
320,192,167659,1,0,0:0:0:0:
64,192,167747,1,0,0:0:0:0:
192,192,167747,1,0,0:0:0:0:
320,192,167836,1,0,0:0:0:0:
64,192,167924,128,0,168012:0:0:0:0:
448,192,167924,128,0,168012:0:0:0:0:
192,192,167924,128,0,168012:0:0:0:0:
64,192,168100,128,0,168189:0:0:0:0:
448,192,168100,128,0,168189:0:0:0:0:
192,192,168100,128,0,168189:0:0:0:0:
192,192,168277,1,0,0:0:0:0:
64,192,168277,1,0,0:0:0:0:
320,192,168277,1,0,0:0:0:0:
448,192,168277,1,0,0:0:0:0:
64,192,168453,1,0,0:0:0:0:
192,192,168453,1,0,0:0:0:0:
64,192,168630,128,0,168806:0:0:0:0:
192,192,168718,128,0,168894:0:0:0:0:
320,192,168806,128,0,168983:0:0:0:0:
448,192,168894,128,0,168983:0:0:0:0:
64,192,168983,1,0,0:0:0:0:
192,192,168983,1,0,0:0:0:0:
64,192,169159,128,0,169336:0:0:0:0:
320,192,169336,1,0,0:0:0:0:
448,192,169336,1,0,0:0:0:0:
192,192,169336,1,0,0:0:0:0:
320,192,169512,1,0,0:0:0:0:
448,192,169512,1,0,0:0:0:0:
192,192,169512,1,0,0:0:0:0:
448,192,169689,128,0,169865:0:0:0:0:
320,192,169689,128,0,169865:0:0:0:0:
64,192,169689,128,0,170218:0:0:0:0:
448,192,170042,128,0,170571:0:0:0:0:
320,192,170042,128,0,170218:0:0:0:0:
192,192,170042,128,0,170218:0:0:0:0:
320,192,170394,128,0,170571:0:0:0:0:
192,192,170394,128,0,170571:0:0:0:0:
64,192,170394,128,0,170571:0:0:0:0:
448,192,170747,1,0,0:0:0:0:
192,192,170747,1,0,0:0:0:0:
64,192,170747,1,0,0:0:0:0:
320,192,171100,1,0,0:0:0:0:
64,192,171100,1,0,0:0:0:0:
192,192,171100,1,0,0:0:0:0:
64,192,171453,1,0,0:0:0:0:
320,192,171453,1,0,0:0:0:0:
448,192,171453,1,0,0:0:0:0:
448,192,171806,1,0,0:0:0:0:
192,192,171806,1,0,0:0:0:0:
64,192,171806,1,0,0:0:0:0:
64,192,172159,1,0,0:0:0:0:
448,192,172159,1,0,0:0:0:0:
192,192,172203,1,0,0:0:0:0:
320,192,172247,1,0,0:0:0:0:
448,192,172292,1,0,0:0:0:0:
64,192,172336,1,0,0:0:0:0:
192,192,172380,1,0,0:0:0:0:
320,192,172424,1,0,0:0:0:0:
448,192,172468,1,0,0:0:0:0:
64,192,172512,1,0,0:0:0:0:
192,192,172512,1,0,0:0:0:0:
320,192,172689,1,0,0:0:0:0:
448,192,172689,128,0,172953:0:0:0:0:
64,192,172865,128,0,172953:0:0:0:0:
192,192,172865,128,0,172953:0:0:0:0:
64,192,173042,128,0,173130:0:0:0:0:
192,192,173042,128,0,173130:0:0:0:0:
448,192,173042,128,0,173130:0:0:0:0:
64,192,173218,1,0,0:0:0:0:
320,192,173218,1,0,0:0:0:0:
448,192,173218,1,0,0:0:0:0:
192,192,173306,1,0,0:0:0:0:
448,192,173394,1,0,0:0:0:0:
320,192,173394,1,0,0:0:0:0:
192,192,173483,1,0,0:0:0:0:
448,192,173571,128,0,173659:0:0:0:0:
64,192,173571,128,0,173659:0:0:0:0:
320,192,173571,128,0,173659:0:0:0:0:
64,192,173747,1,0,0:0:0:0:
192,192,173792,1,0,0:0:0:0:
320,192,173836,1,0,0:0:0:0:
448,192,173880,1,0,0:0:0:0:
64,192,173924,128,0,174189:0:0:0:0:
192,192,173924,1,0,0:0:0:0:
320,192,174100,128,0,174277:0:0:0:0:
448,192,174100,128,0,174277:0:0:0:0:
64,192,174277,128,0,174453:0:0:0:0:
192,192,174365,128,0,174542:0:0:0:0:
320,192,174453,128,0,174630:0:0:0:0:
448,192,174542,128,0,174630:0:0:0:0:
64,192,174630,1,0,0:0:0:0:
192,192,174630,1,0,0:0:0:0:
448,192,174806,1,0,0:0:0:0:
64,192,174983,1,0,0:0:0:0:
192,192,174983,1,0,0:0:0:0:
320,192,175042,1,0,0:0:0:0:
448,192,175100,1,0,0:0:0:0:
64,192,175100,1,0,0:0:0:0:
192,192,175159,1,0,0:0:0:0:
448,192,175218,1,0,0:0:0:0:
320,192,175218,1,0,0:0:0:0:
192,192,175277,1,0,0:0:0:0:
448,192,175336,128,0,175424:0:0:0:0:
320,192,175336,128,0,175424:0:0:0:0:
64,192,175336,1,0,0:0:0:0:
320,192,175512,128,0,175600:0:0:0:0:
192,192,175512,128,0,175600:0:0:0:0:
64,192,175689,128,0,175777:0:0:0:0:
192,192,175689,128,0,175777:0:0:0:0:
448,192,175865,128,0,175953:0:0:0:0:
64,192,175865,128,0,175953:0:0:0:0:
448,192,176042,1,0,0:0:0:0:
192,192,176042,1,0,0:0:0:0:
64,192,176042,1,0,0:0:0:0:
64,192,176306,1,0,0:0:0:0:
192,192,176306,1,0,0:0:0:0:
448,192,176306,1,0,0:0:0:0:
448,192,176571,1,0,0:0:0:0:
320,192,176571,1,0,0:0:0:0:
192,192,176571,1,0,0:0:0:0:
448,192,176836,1,0,0:0:0:0:
320,192,176836,1,0,0:0:0:0:
192,192,176836,1,0,0:0:0:0:
320,192,177100,1,0,0:0:0:0:
192,192,177100,1,0,0:0:0:0:
64,192,177100,1,0,0:0:0:0:
192,192,177365,1,0,0:0:0:0:
64,192,177365,1,0,0:0:0:0:
448,192,177453,1,0,0:0:0:0:
320,192,177453,1,0,0:0:0:0:
64,192,177630,128,0,177806:0:0:0:0:
320,192,177806,128,0,177983:0:0:0:0:
448,192,177806,1,0,0:0:0:0:
320,192,178071,128,0,178159:0:0:0:0:
448,192,178159,1,0,0:0:0:0:
192,192,178159,1,0,0:0:0:0:
64,192,178159,1,0,0:0:0:0:
64,192,178512,1,0,0:0:0:0:
192,192,178512,1,0,0:0:0:0:
448,192,178512,1,0,0:0:0:0:
320,192,178600,1,0,0:0:0:0:
64,192,178689,1,0,0:0:0:0:
192,192,178689,1,0,0:0:0:0:
320,192,178777,1,0,0:0:0:0:
448,192,178865,1,0,0:0:0:0:
64,192,178865,1,0,0:0:0:0:
192,192,178953,1,0,0:0:0:0:
320,192,179042,1,0,0:0:0:0:
64,192,179042,1,0,0:0:0:0:
448,192,179130,1,0,0:0:0:0:
64,192,179218,1,0,0:0:0:0:
192,192,179218,1,0,0:0:0:0:
448,192,179306,1,0,0:0:0:0:
64,192,179394,1,0,0:0:0:0:
320,192,179394,1,0,0:0:0:0:
192,192,179483,1,0,0:0:0:0:
448,192,179571,1,0,0:0:0:0:
320,192,179571,1,0,0:0:0:0:
64,192,179747,1,0,0:0:0:0:
192,192,179747,1,0,0:0:0:0:
448,192,179924,128,0,180100:0:0:0:0:
320,192,180012,128,0,180189:0:0:0:0:
192,192,180100,128,0,180277:0:0:0:0:
64,192,180189,128,0,180277:0:0:0:0:
448,192,180277,1,0,0:0:0:0:
320,192,180277,1,0,0:0:0:0:
64,192,180453,128,0,180630:0:0:0:0:
320,192,180630,1,0,0:0:0:0:
448,192,180630,1,0,0:0:0:0:
192,192,180630,1,0,0:0:0:0:
320,192,180806,1,0,0:0:0:0:
448,192,180806,1,0,0:0:0:0:
192,192,180806,1,0,0:0:0:0:
64,192,180983,1,0,0:0:0:0:
448,192,180983,1,0,0:0:0:0:
320,192,180983,1,0,0:0:0:0:
192,192,181071,1,0,0:0:0:0:
448,192,181159,1,0,0:0:0:0:
320,192,181159,1,0,0:0:0:0:
192,192,181247,1,0,0:0:0:0:
320,192,181336,1,0,0:0:0:0:
64,192,181336,1,0,0:0:0:0:
448,192,181424,1,0,0:0:0:0:
192,192,181512,1,0,0:0:0:0:
64,192,181512,1,0,0:0:0:0:
320,192,181600,1,0,0:0:0:0:
448,192,181689,1,0,0:0:0:0:
64,192,181689,1,0,0:0:0:0:
192,192,181777,1,0,0:0:0:0:
448,192,181865,1,0,0:0:0:0:
320,192,181865,1,0,0:0:0:0:
64,192,181953,1,0,0:0:0:0:
448,192,182042,1,0,0:0:0:0:
192,192,182042,1,0,0:0:0:0:
320,192,182130,1,0,0:0:0:0:
448,192,182218,1,0,0:0:0:0:
64,192,182218,1,0,0:0:0:0:
192,192,182306,1,0,0:0:0:0:
320,192,182394,1,0,0:0:0:0:
448,192,182394,1,0,0:0:0:0:
320,192,182747,1,0,0:0:0:0:
192,192,182747,1,0,0:0:0:0:
64,192,182747,1,0,0:0:0:0:
192,192,183100,1,0,0:0:0:0:
64,192,183100,1,0,0:0:0:0:
448,192,183100,1,0,0:0:0:0:
320,192,183189,1,0,0:0:0:0:
448,192,183277,1,0,0:0:0:0:
192,192,183277,1,0,0:0:0:0:
64,192,183365,1,0,0:0:0:0:
448,192,183453,1,0,0:0:0:0:
320,192,183453,1,0,0:0:0:0:
192,192,183542,1,0,0:0:0:0:
320,192,183630,1,0,0:0:0:0:
64,192,183630,1,0,0:0:0:0:
448,192,183718,1,0,0:0:0:0:
192,192,183806,1,0,0:0:0:0:
64,192,183806,1,0,0:0:0:0:
320,192,183894,1,0,0:0:0:0:
448,192,183983,1,0,0:0:0:0:
192,192,183983,1,0,0:0:0:0:
64,192,184071,1,0,0:0:0:0:
448,192,184159,128,0,184247:0:0:0:0:
320,192,184159,1,0,0:0:0:0:
64,192,184247,128,0,184336:0:0:0:0:
448,192,184336,128,0,184424:0:0:0:0:
64,192,184424,128,0,184512:0:0:0:0:
448,192,184512,1,0,0:0:0:0:
320,192,184512,1,0,0:0:0:0:
192,192,184600,1,0,0:0:0:0:
448,192,184689,1,0,0:0:0:0:
64,192,184689,1,0,0:0:0:0:
320,192,184777,1,0,0:0:0:0:
64,192,184865,1,0,0:0:0:0:
192,192,184865,1,0,0:0:0:0:
320,192,184953,1,0,0:0:0:0:
448,192,185042,1,0,0:0:0:0:
64,192,185042,1,0,0:0:0:0:
192,192,185130,1,0,0:0:0:0:
448,192,185218,1,0,0:0:0:0:
320,192,185218,1,0,0:0:0:0:
192,192,185306,1,0,0:0:0:0:
448,192,185394,1,0,0:0:0:0:
64,192,185394,1,0,0:0:0:0:
320,192,185483,1,0,0:0:0:0:
64,192,185571,128,0,185747:0:0:0:0:
192,192,185571,1,0,0:0:0:0:
448,192,185747,128,0,185924:0:0:0:0:
64,192,185924,1,0,0:0:0:0:
192,192,185924,1,0,0:0:0:0:
448,192,186012,1,0,0:0:0:0:
320,192,186012,1,0,0:0:0:0:
192,192,186100,1,0,0:0:0:0:
64,192,186100,1,0,0:0:0:0:
448,192,186189,1,0,0:0:0:0:
320,192,186189,1,0,0:0:0:0:
192,192,186277,1,0,0:0:0:0:
64,192,186277,1,0,0:0:0:0:
448,192,186365,1,0,0:0:0:0:
320,192,186365,1,0,0:0:0:0:
64,192,186453,1,0,0:0:0:0:
192,192,186453,1,0,0:0:0:0:
448,192,186542,1,0,0:0:0:0:
320,192,186542,1,0,0:0:0:0:
64,192,186630,1,0,0:0:0:0:
192,192,186674,1,0,0:0:0:0:
320,192,186718,1,0,0:0:0:0:
448,192,186762,1,0,0:0:0:0:
64,192,186806,1,0,0:0:0:0:
192,192,186850,1,0,0:0:0:0:
320,192,186894,1,0,0:0:0:0:
448,192,186939,1,0,0:0:0:0:
64,192,186983,1,0,0:0:0:0:
192,192,186983,1,0,0:0:0:0:
192,192,187159,1,0,0:0:0:0:
64,192,187159,1,0,0:0:0:0:
448,192,187336,1,0,0:0:0:0:
320,192,187336,1,0,0:0:0:0:
64,192,187336,1,0,0:0:0:0:
64,192,187600,1,0,0:0:0:0:
448,192,187600,1,0,0:0:0:0:
320,192,187600,1,0,0:0:0:0:
64,192,187865,1,0,0:0:0:0:
192,192,187865,1,0,0:0:0:0:
448,192,187865,1,0,0:0:0:0:
64,192,188394,1,0,0:0:0:0:
320,192,188394,1,0,0:0:0:0:
192,192,188483,1,0,0:0:0:0:
448,192,188571,1,0,0:0:0:0:
320,192,188571,1,0,0:0:0:0:
64,192,188571,1,0,0:0:0:0:
64,192,188747,1,0,0:0:0:0:
192,192,188747,1,0,0:0:0:0:
448,192,188747,1,0,0:0:0:0:
320,192,188836,1,0,0:0:0:0:
64,192,188924,1,0,0:0:0:0:
448,192,188924,1,0,0:0:0:0:
192,192,189012,1,0,0:0:0:0:
320,192,189100,1,0,0:0:0:0:
448,192,189100,1,0,0:0:0:0:
192,192,189189,1,0,0:0:0:0:
64,192,189277,1,0,0:0:0:0:
320,192,189277,1,0,0:0:0:0:
448,192,189365,1,0,0:0:0:0:
192,192,189453,1,0,0:0:0:0:
64,192,189453,1,0,0:0:0:0:
320,192,189542,1,0,0:0:0:0:
64,192,189630,1,0,0:0:0:0:
448,192,189630,1,0,0:0:0:0:
192,192,189718,1,0,0:0:0:0:
320,192,189806,1,0,0:0:0:0:
448,192,189806,1,0,0:0:0:0:
64,192,189894,1,0,0:0:0:0:
192,192,189983,1,0,0:0:0:0:
448,192,189983,1,0,0:0:0:0:
320,192,190071,1,0,0:0:0:0:
192,192,190159,1,0,0:0:0:0:
64,192,190159,1,0,0:0:0:0:
448,192,190247,1,0,0:0:0:0:
320,192,190336,1,0,0:0:0:0:
192,192,190336,1,0,0:0:0:0:
64,192,190424,1,0,0:0:0:0:
320,192,190512,1,0,0:0:0:0:
448,192,190512,1,0,0:0:0:0:
192,192,190600,1,0,0:0:0:0:
64,192,190689,1,0,0:0:0:0:
320,192,190689,1,0,0:0:0:0:
448,192,190777,1,0,0:0:0:0:
64,192,190865,1,0,0:0:0:0:
192,192,190865,1,0,0:0:0:0:
320,192,190953,1,0,0:0:0:0:
448,192,191042,1,0,0:0:0:0:
64,192,191042,1,0,0:0:0:0:
192,192,191130,1,0,0:0:0:0:
320,192,191218,1,0,0:0:0:0:
448,192,191218,1,0,0:0:0:0:
64,192,191306,1,0,0:0:0:0:
192,192,191394,1,0,0:0:0:0:
448,192,191394,1,0,0:0:0:0:
320,192,191483,1,0,0:0:0:0:
192,192,191571,1,0,0:0:0:0:
64,192,191571,1,0,0:0:0:0:
448,192,191659,1,0,0:0:0:0:
320,192,191747,1,0,0:0:0:0:
192,192,191747,1,0,0:0:0:0:
64,192,191836,1,0,0:0:0:0:
320,192,191924,1,0,0:0:0:0:
448,192,191924,1,0,0:0:0:0:
192,192,192012,1,0,0:0:0:0:
64,192,192100,1,0,0:0:0:0:
448,192,192100,1,0,0:0:0:0:
320,192,192189,1,0,0:0:0:0:
192,192,192277,1,0,0:0:0:0:
64,192,192277,1,0,0:0:0:0:
448,192,192365,1,0,0:0:0:0:
320,192,192453,1,0,0:0:0:0:
64,192,192453,1,0,0:0:0:0:
192,192,192542,1,0,0:0:0:0:
320,192,192630,1,0,0:0:0:0:
448,192,192630,1,0,0:0:0:0:
64,192,192718,1,0,0:0:0:0:
192,192,192806,1,0,0:0:0:0:
448,192,192806,1,0,0:0:0:0:
320,192,192894,1,0,0:0:0:0:
192,192,192983,1,0,0:0:0:0:
64,192,192983,1,0,0:0:0:0:
320,192,193071,1,0,0:0:0:0:
448,192,193159,1,0,0:0:0:0:
64,192,193159,1,0,0:0:0:0:
192,192,193247,1,0,0:0:0:0:
320,192,193336,1,0,0:0:0:0:
448,192,193336,1,0,0:0:0:0:
192,192,193424,1,0,0:0:0:0:
64,192,193512,1,0,0:0:0:0:
448,192,193512,1,0,0:0:0:0:
320,192,193600,1,0,0:0:0:0:
192,192,193689,1,0,0:0:0:0:
64,192,193689,1,0,0:0:0:0:
448,192,193777,1,0,0:0:0:0:
320,192,193865,1,0,0:0:0:0:
64,192,193865,1,0,0:0:0:0:
192,192,193953,1,0,0:0:0:0:
320,192,194042,1,0,0:0:0:0:
448,192,194042,1,0,0:0:0:0:
192,192,194130,1,0,0:0:0:0:
64,192,194218,1,0,0:0:0:0:
320,192,194218,1,0,0:0:0:0:
448,192,194306,1,0,0:0:0:0:
64,192,194394,1,0,0:0:0:0:
192,192,194394,1,0,0:0:0:0:
320,192,194483,1,0,0:0:0:0:
192,192,194571,1,0,0:0:0:0:
64,192,194571,1,0,0:0:0:0:
320,192,194659,1,0,0:0:0:0:
64,192,194747,1,0,0:0:0:0:
192,192,194747,1,0,0:0:0:0:
448,192,194747,1,0,0:0:0:0:
320,192,194836,1,0,0:0:0:0:
64,192,194924,1,0,0:0:0:0:
448,192,194924,1,0,0:0:0:0:
192,192,195012,1,0,0:0:0:0:
320,192,195100,1,0,0:0:0:0:
448,192,195100,1,0,0:0:0:0:
192,192,195189,1,0,0:0:0:0:
64,192,195277,1,0,0:0:0:0:
320,192,195277,1,0,0:0:0:0:
448,192,195365,1,0,0:0:0:0:
192,192,195453,1,0,0:0:0:0:
64,192,195453,1,0,0:0:0:0:
320,192,195542,1,0,0:0:0:0:
64,192,195630,1,0,0:0:0:0:
448,192,195630,1,0,0:0:0:0:
192,192,195718,1,0,0:0:0:0:
320,192,195806,1,0,0:0:0:0:
448,192,195806,1,0,0:0:0:0:
192,192,195894,1,0,0:0:0:0:
64,192,195983,1,0,0:0:0:0:
320,192,195983,1,0,0:0:0:0:
448,192,196071,1,0,0:0:0:0:
192,192,196159,1,0,0:0:0:0:
64,192,196159,1,0,0:0:0:0:
320,192,196247,1,0,0:0:0:0:
192,192,196336,1,0,0:0:0:0:
448,192,196336,1,0,0:0:0:0:
64,192,196424,1,0,0:0:0:0:
320,192,196512,1,0,0:0:0:0:
448,192,196512,1,0,0:0:0:0:
192,192,196600,1,0,0:0:0:0:
64,192,196689,1,0,0:0:0:0:
448,192,196689,1,0,0:0:0:0:
320,192,196777,1,0,0:0:0:0:
192,192,196865,1,0,0:0:0:0:
64,192,196865,1,0,0:0:0:0:
448,192,196953,1,0,0:0:0:0:
320,192,197042,1,0,0:0:0:0:
192,192,197042,1,0,0:0:0:0:
64,192,197130,1,0,0:0:0:0:
320,192,197218,1,0,0:0:0:0:
448,192,197218,1,0,0:0:0:0:
192,192,197306,1,0,0:0:0:0:
64,192,197394,1,0,0:0:0:0:
320,192,197394,1,0,0:0:0:0:
448,192,197483,5,0,0:0:0:0:
192,192,197571,1,0,0:0:0:0:
64,192,197571,1,0,0:0:0:0:
320,192,197659,1,0,0:0:0:0:
448,192,197747,1,0,0:0:0:0:
64,192,197747,1,0,0:0:0:0:
192,192,197836,1,0,0:0:0:0:
320,192,197924,1,0,0:0:0:0:
448,192,197924,1,0,0:0:0:0:
192,192,198012,1,0,0:0:0:0:
64,192,198100,1,0,0:0:0:0:
448,192,198100,1,0,0:0:0:0:
320,192,198189,1,0,0:0:0:0:
192,192,198277,1,0,0:0:0:0:
64,192,198277,1,0,0:0:0:0:
320,192,198365,1,0,0:0:0:0:
448,192,198453,1,0,0:0:0:0:
64,192,198453,1,0,0:0:0:0:
192,192,198542,1,0,0:0:0:0:
320,192,198630,1,0,0:0:0:0:
448,192,198630,1,0,0:0:0:0:
64,192,198630,1,0,0:0:0:0:
64,192,198894,1,0,0:0:0:0:
320,192,198894,1,0,0:0:0:0:
448,192,198894,1,0,0:0:0:0:
64,192,199159,1,0,0:0:0:0:
320,192,199159,1,0,0:0:0:0:
448,192,199159,1,0,0:0:0:0:
64,192,199336,1,0,0:0:0:0:
192,192,199336,1,0,0:0:0:0:
448,192,199336,1,0,0:0:0:0:
64,192,199512,1,0,0:0:0:0:
192,192,199556,1,0,0:0:0:0:
320,192,199600,1,0,0:0:0:0:
448,192,199644,1,0,0:0:0:0:
192,192,199689,1,0,0:0:0:0:
64,192,199689,1,0,0:0:0:0:
320,192,199777,1,0,0:0:0:0:
448,192,199777,1,0,0:0:0:0:
192,192,199865,1,0,0:0:0:0:
64,192,199865,1,0,0:0:0:0:
320,192,199953,1,0,0:0:0:0:
448,192,199953,1,0,0:0:0:0:
192,192,200042,1,0,0:0:0:0:
64,192,200042,1,0,0:0:0:0:
320,192,200130,1,0,0:0:0:0:
448,192,200218,1,0,0:0:0:0:
192,192,200306,1,0,0:0:0:0:
320,192,200394,1,0,0:0:0:0:
64,192,200394,1,0,0:0:0:0:
448,192,200483,1,0,0:0:0:0:
64,192,200571,1,0,0:0:0:0:
192,192,200659,1,0,0:0:0:0:
320,192,200747,1,0,0:0:0:0:
448,192,200747,1,0,0:0:0:0:
192,192,200836,1,0,0:0:0:0:
64,192,200924,1,0,0:0:0:0:
320,192,201012,1,0,0:0:0:0:
448,192,201100,1,0,0:0:0:0:
64,192,201100,1,0,0:0:0:0:
192,192,201189,1,0,0:0:0:0:
320,192,201277,1,0,0:0:0:0:
448,192,201365,1,0,0:0:0:0:
192,192,201453,1,0,0:0:0:0:
64,192,201453,1,0,0:0:0:0:
448,192,201542,1,0,0:0:0:0:
320,192,201630,1,0,0:0:0:0:
192,192,201718,1,0,0:0:0:0:
320,192,201806,1,0,0:0:0:0:
448,192,201806,1,0,0:0:0:0:
64,192,201894,1,0,0:0:0:0:
192,192,201983,1,0,0:0:0:0:
320,192,202071,1,0,0:0:0:0:
192,192,202159,1,0,0:0:0:0:
448,192,202159,1,0,0:0:0:0:
64,192,202247,1,0,0:0:0:0:
320,192,202336,1,0,0:0:0:0:
448,192,202424,1,0,0:0:0:0:
192,192,202512,1,0,0:0:0:0:
64,192,202512,1,0,0:0:0:0:
320,192,202600,1,0,0:0:0:0:
192,192,202689,1,0,0:0:0:0:
64,192,202777,1,0,0:0:0:0:
320,192,202865,1,0,0:0:0:0:
448,192,202865,1,0,0:0:0:0:
192,192,202953,1,0,0:0:0:0:
64,192,203042,1,0,0:0:0:0:
320,192,203130,1,0,0:0:0:0:
192,192,203218,1,0,0:0:0:0:
448,192,203218,1,0,0:0:0:0:
64,192,203306,1,0,0:0:0:0:
448,192,203394,1,0,0:0:0:0:
320,192,203483,1,0,0:0:0:0:
192,192,203571,1,0,0:0:0:0:
64,192,203571,1,0,0:0:0:0:
320,192,203659,1,0,0:0:0:0:
448,192,203747,1,0,0:0:0:0:
64,192,203747,1,0,0:0:0:0:
192,192,203836,1,0,0:0:0:0:
448,192,203924,1,0,0:0:0:0:
320,192,203924,1,0,0:0:0:0:
192,192,204012,1,0,0:0:0:0:
64,192,204100,1,0,0:0:0:0:
320,192,204100,1,0,0:0:0:0:
448,192,204100,1,0,0:0:0:0:
64,192,204453,1,0,0:0:0:0:
192,192,204453,1,0,0:0:0:0:
448,192,204453,1,0,0:0:0:0:
192,192,204806,1,0,0:0:0:0:
320,192,204806,1,0,0:0:0:0:
448,192,204806,1,0,0:0:0:0:
64,192,205159,1,0,0:0:0:0:
192,192,205159,1,0,0:0:0:0:
320,192,205159,1,0,0:0:0:0:
64,192,205336,1,0,0:0:0:0:
320,192,205336,1,0,0:0:0:0:
448,192,205336,1,0,0:0:0:0:
64,192,205512,1,0,0:0:0:0:
192,192,205512,1,0,0:0:0:0:
320,192,205600,1,0,0:0:0:0:
448,192,205600,1,0,0:0:0:0:
64,192,205689,1,0,0:0:0:0:
192,192,205689,1,0,0:0:0:0:
320,192,205777,1,0,0:0:0:0:
448,192,205865,1,0,0:0:0:0:
192,192,205953,1,0,0:0:0:0:
64,192,206042,1,0,0:0:0:0:
320,192,206042,1,0,0:0:0:0:
448,192,206130,1,0,0:0:0:0:
64,192,206218,1,0,0:0:0:0:
192,192,206218,1,0,0:0:0:0:
320,192,206306,1,0,0:0:0:0:
448,192,206306,1,0,0:0:0:0:
192,192,206394,1,0,0:0:0:0:
64,192,206394,1,0,0:0:0:0:
320,192,206483,1,0,0:0:0:0:
64,192,206571,1,0,0:0:0:0:
448,192,206571,1,0,0:0:0:0:
192,192,206659,1,0,0:0:0:0:
448,192,206747,1,0,0:0:0:0:
320,192,206747,1,0,0:0:0:0:
192,192,206836,1,0,0:0:0:0:
64,192,206924,1,0,0:0:0:0:
448,192,207012,1,0,0:0:0:0:
64,192,207100,1,0,0:0:0:0:
320,192,207100,1,0,0:0:0:0:
192,192,207189,1,0,0:0:0:0:
320,192,207277,1,0,0:0:0:0:
64,192,207365,1,0,0:0:0:0:
448,192,207453,1,0,0:0:0:0:
192,192,207453,1,0,0:0:0:0:
320,192,207542,1,0,0:0:0:0:
192,192,207630,1,0,0:0:0:0:
64,192,207630,1,0,0:0:0:0:
320,192,207718,1,0,0:0:0:0:
448,192,207718,1,0,0:0:0:0:
192,192,207806,1,0,0:0:0:0:
64,192,207806,1,0,0:0:0:0:
320,192,207983,1,0,0:0:0:0:
448,192,207983,1,0,0:0:0:0:
192,192,208071,1,0,0:0:0:0:
64,192,208071,1,0,0:0:0:0:
320,192,208159,1,0,0:0:0:0:
448,192,208159,128,0,208336:0:0:0:0:
192,192,208336,128,0,208512:0:0:0:0:
64,192,208512,1,0,0:0:0:0:
320,192,208512,1,0,0:0:0:0:
448,192,208512,1,0,0:0:0:0:
64,192,208777,1,0,0:0:0:0:
320,192,208777,1,0,0:0:0:0:
448,192,208777,1,0,0:0:0:0:
64,192,209042,1,0,0:0:0:0:
320,192,209042,1,0,0:0:0:0:
448,192,209042,1,0,0:0:0:0:
64,192,209218,1,0,0:0:0:0:
192,192,209218,1,0,0:0:0:0:
448,192,209218,1,0,0:0:0:0:
192,192,209394,1,0,0:0:0:0:
448,192,209394,1,0,0:0:0:0:
320,192,209394,1,0,0:0:0:0:
192,192,209571,1,0,0:0:0:0:
64,192,209571,1,0,0:0:0:0:
448,192,209571,1,0,0:0:0:0:
192,192,209747,1,0,0:0:0:0:
320,192,209747,1,0,0:0:0:0:
448,192,209747,1,0,0:0:0:0:
64,192,209924,1,0,0:0:0:0:
192,192,209968,1,0,0:0:0:0:
320,192,210012,1,0,0:0:0:0:
448,192,210056,1,0,0:0:0:0:
192,192,210100,1,0,0:0:0:0:
64,192,210100,1,0,0:0:0:0:
320,192,210100,1,0,0:0:0:0:
192,192,210453,1,0,0:0:0:0:
320,192,210453,1,0,0:0:0:0:
448,192,210453,1,0,0:0:0:0:
64,192,210806,1,0,0:0:0:0:
192,192,210806,1,0,0:0:0:0:
320,192,210806,1,0,0:0:0:0:
448,192,210983,1,0,0:0:0:0:
320,192,210983,1,0,0:0:0:0:
64,192,210983,1,0,0:0:0:0:
192,192,211071,1,0,0:0:0:0:
320,192,211159,1,0,0:0:0:0:
448,192,211159,1,0,0:0:0:0:
192,192,211247,1,0,0:0:0:0:
320,192,211336,1,0,0:0:0:0:
448,192,211336,128,0,214159:0:0:0:0:
64,192,211336,128,0,211512:0:0:0:0:
64,192,211689,128,0,211865:0:0:0:0:
64,192,212042,128,0,212218:0:0:0:0:
64,192,212394,128,0,212571:0:0:0:0:
64,192,212747,128,0,212924:0:0:0:0:
64,192,213100,128,0,213277:0:0:0:0:
64,192,213453,1,0,0:0:0:0:
320,192,213630,128,0,213718:0:0:0:0:
320,192,213983,1,0,0:0:0:0:
192,192,214159,128,0,214247:0:0:0:0:
448,192,214689,128,0,214777:0:0:0:0:
64,192,214865,1,0,0:0:0:0:
192,192,215218,128,0,215306:0:0:0:0:
448,192,215394,128,0,215483:0:0:0:0:
64,192,215571,1,0,0:0:0:0:
448,192,215924,1,0,0:0:0:0:
192,192,216100,128,0,216189:0:0:0:0:
448,192,216277,1,0,0:0:0:0:
64,192,216277,1,0,0:0:0:0:
320,192,216453,1,0,0:0:0:0:
192,192,216542,1,0,0:0:0:0:
192,192,216718,1,0,0:0:0:0:
320,192,216806,1,0,0:0:0:0:
64,192,216894,1,0,0:0:0:0:
448,192,216983,1,0,0:0:0:0:
448,192,217336,1,0,0:0:0:0:
64,192,217689,1,0,0:0:0:0:
320,192,217953,1,0,0:0:0:0:
320,192,218130,1,0,0:0:0:0:
64,192,218218,1,0,0:0:0:0:
448,192,218394,1,0,0:0:0:0:
192,192,218571,1,0,0:0:0:0:
448,192,218747,1,0,0:0:0:0:
64,192,218924,1,0,0:0:0:0:
320,192,219100,1,0,0:0:0:0:
448,192,219277,128,0,219365:0:0:0:0:
192,192,219630,1,0,0:0:0:0:
64,192,219806,128,0,219894:0:0:0:0:
64,192,220159,1,0,0:0:0:0:
320,192,220336,128,0,220424:0:0:0:0:
192,192,220512,1,0,0:0:0:0:
64,192,220865,128,0,220953:0:0:0:0:
320,192,221042,128,0,221130:0:0:0:0:
64,192,221218,1,0,0:0:0:0:
448,192,221571,1,0,0:0:0:0:
192,192,221747,128,0,221836:0:0:0:0:
320,192,221924,1,0,0:0:0:0:
64,192,222277,1,0,0:0:0:0:
192,192,222277,1,0,0:0:0:0:
320,192,222365,1,0,0:0:0:0:
448,192,222453,1,0,0:0:0:0:
64,192,222453,1,0,0:0:0:0:
192,192,222630,1,0,0:0:0:0:
320,192,222630,1,0,0:0:0:0:
448,192,222630,1,0,0:0:0:0:
64,192,222806,1,0,0:0:0:0:
320,192,222983,1,0,0:0:0:0:
192,192,223159,1,0,0:0:0:0:
448,192,223336,1,0,0:0:0:0:
64,192,223512,1,0,0:0:0:0:
320,192,223689,1,0,0:0:0:0:
192,192,223865,1,0,0:0:0:0:
64,192,224042,1,0,0:0:0:0:
448,192,224218,1,0,0:0:0:0:
192,192,224394,1,0,0:0:0:0:
320,192,224571,1,0,0:0:0:0:
64,192,224747,1,0,0:0:0:0:
448,192,224924,1,0,0:0:0:0:
192,192,225100,1,0,0:0:0:0:
64,192,225277,1,0,0:0:0:0:
320,192,225453,1,0,0:0:0:0:
192,192,225630,1,0,0:0:0:0:
448,192,225806,1,0,0:0:0:0:
64,192,225983,1,0,0:0:0:0:
320,192,226159,1,0,0:0:0:0:
192,192,226336,1,0,0:0:0:0:
448,192,226512,1,0,0:0:0:0:
64,192,226689,1,0,0:0:0:0:
320,192,226865,1,0,0:0:0:0:
448,192,226865,1,0,0:0:0:0:
192,192,227042,1,0,0:0:0:0:
64,192,227218,1,0,0:0:0:0:
320,192,227218,1,0,0:0:0:0:
448,192,227394,1,0,0:0:0:0:
192,192,227571,1,0,0:0:0:0:
64,192,227571,1,0,0:0:0:0:
320,192,227747,1,0,0:0:0:0:
192,192,227924,1,0,0:0:0:0:
448,192,227924,1,0,0:0:0:0:
64,192,228100,1,0,0:0:0:0:
320,192,228277,1,0,0:0:0:0:
448,192,228277,1,0,0:0:0:0:
192,192,228365,1,0,0:0:0:0:
64,192,228365,1,0,0:0:0:0:
320,192,228453,1,0,0:0:0:0:
448,192,228453,1,0,0:0:0:0:
192,192,228542,1,0,0:0:0:0:
64,192,228630,1,0,0:0:0:0:
448,192,228630,1,0,0:0:0:0:
320,192,228718,1,0,0:0:0:0:
192,192,228718,1,0,0:0:0:0:
64,192,228806,1,0,0:0:0:0:
448,192,228806,1,0,0:0:0:0:
320,192,228894,1,0,0:0:0:0:
64,192,228983,1,0,0:0:0:0:
192,192,228983,1,0,0:0:0:0:
320,192,229071,1,0,0:0:0:0:
448,192,229071,1,0,0:0:0:0:
192,192,229159,1,0,0:0:0:0:
64,192,229159,1,0,0:0:0:0:
320,192,229247,1,0,0:0:0:0:
64,192,229336,1,0,0:0:0:0:
448,192,229336,1,0,0:0:0:0:
192,192,229424,1,0,0:0:0:0:
320,192,229424,1,0,0:0:0:0:
64,192,229512,1,0,0:0:0:0:
448,192,229512,1,0,0:0:0:0:
192,192,229600,1,0,0:0:0:0:
320,192,229689,1,0,0:0:0:0:
448,192,229689,1,0,0:0:0:0:
192,192,229777,1,0,0:0:0:0:
64,192,229777,1,0,0:0:0:0:
320,192,229865,1,0,0:0:0:0:
448,192,229865,1,0,0:0:0:0:
192,192,229953,1,0,0:0:0:0:
64,192,230042,1,0,0:0:0:0:
448,192,230042,1,0,0:0:0:0:
320,192,230130,1,0,0:0:0:0:
192,192,230130,1,0,0:0:0:0:
64,192,230218,1,0,0:0:0:0:
448,192,230218,1,0,0:0:0:0:
320,192,230306,1,0,0:0:0:0:
192,192,230394,1,0,0:0:0:0:
64,192,230394,1,0,0:0:0:0:
448,192,230483,1,0,0:0:0:0:
320,192,230483,1,0,0:0:0:0:
192,192,230571,1,0,0:0:0:0:
64,192,230571,1,0,0:0:0:0:
320,192,230659,1,0,0:0:0:0:
64,192,230747,1,0,0:0:0:0:
448,192,230747,1,0,0:0:0:0:
192,192,230836,1,0,0:0:0:0:
320,192,230836,1,0,0:0:0:0:
448,192,230924,1,0,0:0:0:0:
64,192,230924,1,0,0:0:0:0:
192,192,231012,1,0,0:0:0:0:
448,192,231100,1,0,0:0:0:0:
320,192,231144,1,0,0:0:0:0:
192,192,231189,1,0,0:0:0:0:
64,192,231233,1,0,0:0:0:0:
448,192,231277,1,0,0:0:0:0:
320,192,231321,1,0,0:0:0:0:
192,192,231365,1,0,0:0:0:0:
64,192,231409,1,0,0:0:0:0:
320,192,231453,1,0,0:0:0:0:
448,192,231497,1,0,0:0:0:0:
64,192,231542,1,0,0:0:0:0:
192,192,231586,1,0,0:0:0:0:
320,192,231630,1,0,0:0:0:0:
448,192,231674,1,0,0:0:0:0:
64,192,231718,1,0,0:0:0:0:
192,192,231762,1,0,0:0:0:0:
320,192,231806,1,0,0:0:0:0:
448,192,231850,1,0,0:0:0:0:
192,192,231894,1,0,0:0:0:0:
64,192,231939,1,0,0:0:0:0:
448,192,231983,1,0,0:0:0:0:
320,192,232027,1,0,0:0:0:0:
192,192,232071,1,0,0:0:0:0:
64,192,232115,1,0,0:0:0:0:
448,192,232159,1,0,0:0:0:0:
320,192,232203,1,0,0:0:0:0:
192,192,232247,1,0,0:0:0:0:
64,192,232292,1,0,0:0:0:0:
320,192,232336,1,0,0:0:0:0:
448,192,232380,1,0,0:0:0:0:
64,192,232424,1,0,0:0:0:0:
192,192,232468,1,0,0:0:0:0:
320,192,232512,1,0,0:0:0:0:
448,192,232512,128,0,233571:0:0:0:0:
64,192,233571,128,0,233836:0:0:0:0:
320,192,233659,128,0,233836:0:0:0:0:
448,192,233747,128,0,233836:0:0:0:0:
320,192,233924,1,0,0:0:0:0:
448,192,233924,1,0,0:0:0:0:
64,192,233924,128,0,234012:0:0:0:0:
192,192,234012,128,0,234100:0:0:0:0:
320,192,234100,128,0,234189:0:0:0:0:
64,192,234189,128,0,234277:0:0:0:0:
448,192,234277,128,0,234365:0:0:0:0:
192,192,234365,128,0,234453:0:0:0:0:
320,192,234453,128,0,234542:0:0:0:0:
64,192,234542,128,0,234630:0:0:0:0:
448,192,234630,128,0,234718:0:0:0:0:
320,192,234718,128,0,234806:0:0:0:0:
192,192,234806,128,0,234894:0:0:0:0:
448,192,234894,128,0,234983:0:0:0:0:
64,192,234983,128,0,235071:0:0:0:0:
320,192,235071,128,0,235159:0:0:0:0:
192,192,235159,128,0,235247:0:0:0:0:
64,192,235247,128,0,235336:0:0:0:0:
448,192,235336,128,0,235424:0:0:0:0:
320,192,235424,128,0,235512:0:0:0:0:
448,192,235512,128,0,235600:0:0:0:0:
64,192,235600,128,0,235689:0:0:0:0:
320,192,235689,128,0,235777:0:0:0:0:
192,192,235777,128,0,235865:0:0:0:0:
64,192,235865,128,0,235953:0:0:0:0:
448,192,235953,128,0,236042:0:0:0:0:
192,192,236042,128,0,236130:0:0:0:0:
320,192,236130,128,0,236218:0:0:0:0:
64,192,236218,128,0,236306:0:0:0:0:
448,192,236306,128,0,236394:0:0:0:0:
192,192,236394,128,0,236483:0:0:0:0:
320,192,236483,128,0,236571:0:0:0:0:
64,192,236571,128,0,236659:0:0:0:0:
192,192,236659,128,0,236747:0:0:0:0:
320,192,236747,1,0,0:0:0:0:
448,192,236747,1,0,0:0:0:0:
192,192,236836,1,0,0:0:0:0:
64,192,236836,1,0,0:0:0:0:
320,192,236924,1,0,0:0:0:0:
448,192,236924,1,0,0:0:0:0:
64,192,237012,1,0,0:0:0:0:
192,192,237012,1,0,0:0:0:0:
320,192,237100,1,0,0:0:0:0:
448,192,237100,1,0,0:0:0:0:
192,192,237189,1,0,0:0:0:0:
64,192,237189,1,0,0:0:0:0:
320,192,237277,1,0,0:0:0:0:
448,192,237277,1,0,0:0:0:0:
64,192,237365,1,0,0:0:0:0:
192,192,237365,1,0,0:0:0:0:
320,192,237453,1,0,0:0:0:0:
448,192,237453,1,0,0:0:0:0:
192,192,237542,1,0,0:0:0:0:
64,192,237542,1,0,0:0:0:0:
320,192,237630,1,0,0:0:0:0:
448,192,237630,1,0,0:0:0:0:
192,192,237718,1,0,0:0:0:0:
64,192,237718,1,0,0:0:0:0:
320,192,237806,1,0,0:0:0:0:
448,192,237806,1,0,0:0:0:0:
192,192,237894,1,0,0:0:0:0:
64,192,237894,1,0,0:0:0:0:
448,192,237983,1,0,0:0:0:0:
320,192,237983,1,0,0:0:0:0:
192,192,238071,1,0,0:0:0:0:
64,192,238071,1,0,0:0:0:0:
64,192,238159,1,0,0:0:0:0:
320,192,238159,1,0,0:0:0:0:
448,192,238159,1,0,0:0:0:0:
64,192,238424,1,0,0:0:0:0:
320,192,238424,1,0,0:0:0:0:
448,192,238424,1,0,0:0:0:0:
64,192,238689,1,0,0:0:0:0:
320,192,238689,1,0,0:0:0:0:
448,192,238689,1,0,0:0:0:0:
64,192,238865,1,0,0:0:0:0:
192,192,238865,1,0,0:0:0:0:
448,192,238865,1,0,0:0:0:0:
320,192,238865,1,0,0:0:0:0:
64,192,239042,1,0,0:0:0:0:
192,192,239042,1,0,0:0:0:0:
320,192,239042,1,0,0:0:0:0:
448,192,239042,1,0,0:0:0:0:
448,192,239218,1,0,0:0:0:0:
64,192,239218,1,0,0:0:0:0:
192,192,239306,1,0,0:0:0:0:
320,192,239306,1,0,0:0:0:0:
64,192,239394,1,0,0:0:0:0:
448,192,239394,1,0,0:0:0:0:
320,192,239483,1,0,0:0:0:0:
192,192,239483,1,0,0:0:0:0:
64,192,239571,1,0,0:0:0:0:
448,192,239571,1,0,0:0:0:0:
192,192,239747,1,0,0:0:0:0:
320,192,239747,1,0,0:0:0:0:
64,192,239747,1,0,0:0:0:0:
448,192,239747,1,0,0:0:0:0:
64,192,239924,1,0,0:0:0:0:
192,192,239924,1,0,0:0:0:0:
448,192,239924,1,0,0:0:0:0:
320,192,240012,1,0,0:0:0:0:
64,192,240100,1,0,0:0:0:0:
448,192,240100,1,0,0:0:0:0:
192,192,240189,1,0,0:0:0:0:
320,192,240277,1,0,0:0:0:0:
448,192,240277,1,0,0:0:0:0:
192,192,240365,1,0,0:0:0:0:
64,192,240453,1,0,0:0:0:0:
320,192,240453,1,0,0:0:0:0:
448,192,240542,1,0,0:0:0:0:
192,192,240630,1,0,0:0:0:0:
64,192,240630,1,0,0:0:0:0:
320,192,240718,1,0,0:0:0:0:
64,192,240806,1,0,0:0:0:0:
448,192,240806,1,0,0:0:0:0:
192,192,240894,1,0,0:0:0:0:
320,192,240983,1,0,0:0:0:0:
448,192,240983,1,0,0:0:0:0:
192,192,241071,1,0,0:0:0:0:
64,192,241159,1,0,0:0:0:0:
320,192,241159,1,0,0:0:0:0:
448,192,241247,1,0,0:0:0:0:
192,192,241336,1,0,0:0:0:0:
64,192,241336,1,0,0:0:0:0:
320,192,241424,1,0,0:0:0:0:
192,192,241512,1,0,0:0:0:0:
448,192,241512,1,0,0:0:0:0:
64,192,241600,1,0,0:0:0:0:
320,192,241689,1,0,0:0:0:0:
448,192,241689,1,0,0:0:0:0:
192,192,241777,1,0,0:0:0:0:
64,192,241865,1,0,0:0:0:0:
448,192,241865,1,0,0:0:0:0:
320,192,241953,1,0,0:0:0:0:
192,192,242042,1,0,0:0:0:0:
64,192,242042,1,0,0:0:0:0:
448,192,242130,1,0,0:0:0:0:
320,192,242218,1,0,0:0:0:0:
192,192,242218,1,0,0:0:0:0:
64,192,242306,1,0,0:0:0:0:
320,192,242394,1,0,0:0:0:0:
448,192,242394,1,0,0:0:0:0:
192,192,242483,1,0,0:0:0:0:
64,192,242571,1,0,0:0:0:0:
320,192,242571,1,0,0:0:0:0:
448,192,242659,5,0,0:0:0:0:
192,192,242747,1,0,0:0:0:0:
64,192,242747,1,0,0:0:0:0:
320,192,242836,1,0,0:0:0:0:
448,192,242924,1,0,0:0:0:0:
64,192,242924,1,0,0:0:0:0:
192,192,243012,1,0,0:0:0:0:
320,192,243100,1,0,0:0:0:0:
448,192,243100,1,0,0:0:0:0:
192,192,243189,1,0,0:0:0:0:
64,192,243277,1,0,0:0:0:0:
448,192,243277,1,0,0:0:0:0:
320,192,243365,1,0,0:0:0:0:
192,192,243453,1,0,0:0:0:0:
64,192,243453,1,0,0:0:0:0:
320,192,243542,1,0,0:0:0:0:
448,192,243630,1,0,0:0:0:0:
64,192,243630,1,0,0:0:0:0:
192,192,243718,1,0,0:0:0:0:
320,192,243806,1,0,0:0:0:0:
448,192,243806,1,0,0:0:0:0:
64,192,243806,1,0,0:0:0:0:
64,192,244071,1,0,0:0:0:0:
320,192,244071,1,0,0:0:0:0:
448,192,244071,1,0,0:0:0:0:
64,192,244336,1,0,0:0:0:0:
320,192,244336,1,0,0:0:0:0:
448,192,244336,1,0,0:0:0:0:
64,192,244512,1,0,0:0:0:0:
192,192,244512,1,0,0:0:0:0:
448,192,244512,1,0,0:0:0:0:
64,192,244689,1,0,0:0:0:0:
192,192,244733,1,0,0:0:0:0:
320,192,244777,1,0,0:0:0:0:
448,192,244821,1,0,0:0:0:0:
192,192,244865,1,0,0:0:0:0:
64,192,244865,1,0,0:0:0:0:
320,192,244953,1,0,0:0:0:0:
448,192,244953,1,0,0:0:0:0:
192,192,245042,1,0,0:0:0:0:
64,192,245042,1,0,0:0:0:0:
320,192,245130,1,0,0:0:0:0:
448,192,245130,1,0,0:0:0:0:
192,192,245218,1,0,0:0:0:0:
64,192,245218,1,0,0:0:0:0:
320,192,245306,1,0,0:0:0:0:
448,192,245394,1,0,0:0:0:0:
192,192,245483,1,0,0:0:0:0:
320,192,245571,1,0,0:0:0:0:
64,192,245571,1,0,0:0:0:0:
448,192,245659,1,0,0:0:0:0:
64,192,245747,1,0,0:0:0:0:
192,192,245836,1,0,0:0:0:0:
320,192,245924,1,0,0:0:0:0:
448,192,245924,1,0,0:0:0:0:
192,192,246012,1,0,0:0:0:0:
64,192,246100,1,0,0:0:0:0:
320,192,246189,1,0,0:0:0:0:
448,192,246277,1,0,0:0:0:0:
64,192,246277,1,0,0:0:0:0:
192,192,246365,1,0,0:0:0:0:
320,192,246453,1,0,0:0:0:0:
448,192,246542,1,0,0:0:0:0:
192,192,246630,1,0,0:0:0:0:
64,192,246630,1,0,0:0:0:0:
448,192,246718,1,0,0:0:0:0:
320,192,246806,1,0,0:0:0:0:
192,192,246894,1,0,0:0:0:0:
320,192,246983,1,0,0:0:0:0:
448,192,246983,1,0,0:0:0:0:
64,192,247071,1,0,0:0:0:0:
192,192,247159,1,0,0:0:0:0:
320,192,247247,1,0,0:0:0:0:
192,192,247336,1,0,0:0:0:0:
448,192,247336,1,0,0:0:0:0:
64,192,247424,1,0,0:0:0:0:
320,192,247512,1,0,0:0:0:0:
448,192,247600,1,0,0:0:0:0:
192,192,247689,1,0,0:0:0:0:
64,192,247689,1,0,0:0:0:0:
320,192,247777,1,0,0:0:0:0:
192,192,247865,1,0,0:0:0:0:
64,192,247953,1,0,0:0:0:0:
320,192,248042,1,0,0:0:0:0:
448,192,248042,1,0,0:0:0:0:
192,192,248130,1,0,0:0:0:0:
64,192,248218,1,0,0:0:0:0:
320,192,248306,1,0,0:0:0:0:
192,192,248394,1,0,0:0:0:0:
448,192,248394,1,0,0:0:0:0:
64,192,248483,1,0,0:0:0:0:
448,192,248571,1,0,0:0:0:0:
320,192,248659,1,0,0:0:0:0:
192,192,248747,1,0,0:0:0:0:
64,192,248747,1,0,0:0:0:0:
320,192,248836,1,0,0:0:0:0:
448,192,248924,1,0,0:0:0:0:
64,192,248924,1,0,0:0:0:0:
192,192,249012,1,0,0:0:0:0:
448,192,249100,1,0,0:0:0:0:
320,192,249100,1,0,0:0:0:0:
192,192,249189,1,0,0:0:0:0:
64,192,249277,1,0,0:0:0:0:
320,192,249277,1,0,0:0:0:0:
448,192,249277,1,0,0:0:0:0:
64,192,249630,1,0,0:0:0:0:
192,192,249630,1,0,0:0:0:0:
448,192,249630,1,0,0:0:0:0:
192,192,249983,1,0,0:0:0:0:
320,192,249983,1,0,0:0:0:0:
448,192,249983,1,0,0:0:0:0:
64,192,250336,1,0,0:0:0:0:
192,192,250336,1,0,0:0:0:0:
320,192,250336,1,0,0:0:0:0:
64,192,250512,1,0,0:0:0:0:
320,192,250512,1,0,0:0:0:0:
448,192,250512,1,0,0:0:0:0:
64,192,250689,1,0,0:0:0:0:
192,192,250689,1,0,0:0:0:0:
320,192,250777,1,0,0:0:0:0:
448,192,250777,1,0,0:0:0:0:
64,192,250865,1,0,0:0:0:0:
192,192,250865,1,0,0:0:0:0:
320,192,250953,1,0,0:0:0:0:
448,192,251042,1,0,0:0:0:0:
192,192,251130,1,0,0:0:0:0:
64,192,251218,1,0,0:0:0:0:
320,192,251218,1,0,0:0:0:0:
448,192,251306,1,0,0:0:0:0:
64,192,251394,1,0,0:0:0:0:
192,192,251394,1,0,0:0:0:0:
320,192,251483,1,0,0:0:0:0:
448,192,251483,1,0,0:0:0:0:
192,192,251571,1,0,0:0:0:0:
64,192,251571,1,0,0:0:0:0:
320,192,251659,1,0,0:0:0:0:
64,192,251747,1,0,0:0:0:0:
448,192,251747,1,0,0:0:0:0:
192,192,251836,1,0,0:0:0:0:
448,192,251924,1,0,0:0:0:0:
320,192,251924,1,0,0:0:0:0:
192,192,252012,1,0,0:0:0:0:
64,192,252100,1,0,0:0:0:0:
448,192,252189,1,0,0:0:0:0:
64,192,252277,1,0,0:0:0:0:
320,192,252277,1,0,0:0:0:0:
192,192,252365,1,0,0:0:0:0:
320,192,252453,1,0,0:0:0:0:
64,192,252542,1,0,0:0:0:0:
448,192,252630,1,0,0:0:0:0:
192,192,252630,1,0,0:0:0:0:
320,192,252718,1,0,0:0:0:0:
192,192,252806,1,0,0:0:0:0:
64,192,252806,1,0,0:0:0:0:
320,192,252894,1,0,0:0:0:0:
448,192,252894,1,0,0:0:0:0:
192,192,252983,1,0,0:0:0:0:
64,192,252983,1,0,0:0:0:0:
320,192,253159,1,0,0:0:0:0:
448,192,253159,1,0,0:0:0:0:
192,192,253247,1,0,0:0:0:0:
64,192,253247,1,0,0:0:0:0:
320,192,253336,1,0,0:0:0:0:
448,192,253336,128,0,253512:0:0:0:0:
192,192,253512,128,0,253689:0:0:0:0:
64,192,253689,1,0,0:0:0:0:
320,192,253689,1,0,0:0:0:0:
448,192,253689,1,0,0:0:0:0:
64,192,253953,1,0,0:0:0:0:
320,192,253953,1,0,0:0:0:0:
448,192,253953,1,0,0:0:0:0:
64,192,254218,1,0,0:0:0:0:
320,192,254218,1,0,0:0:0:0:
448,192,254218,1,0,0:0:0:0:
64,192,254394,1,0,0:0:0:0:
192,192,254394,1,0,0:0:0:0:
448,192,254394,1,0,0:0:0:0:
192,192,254571,1,0,0:0:0:0:
448,192,254571,1,0,0:0:0:0:
320,192,254571,1,0,0:0:0:0:
192,192,254747,1,0,0:0:0:0:
64,192,254747,1,0,0:0:0:0:
448,192,254747,1,0,0:0:0:0:
192,192,254924,1,0,0:0:0:0:
320,192,254924,1,0,0:0:0:0:
448,192,254924,1,0,0:0:0:0:
64,192,255100,1,0,0:0:0:0:
192,192,255144,1,0,0:0:0:0:
320,192,255189,1,0,0:0:0:0:
448,192,255233,1,0,0:0:0:0:
192,192,255277,1,0,0:0:0:0:
64,192,255277,1,0,0:0:0:0:
320,192,255277,1,0,0:0:0:0:
192,192,255630,1,0,0:0:0:0:
320,192,255630,1,0,0:0:0:0:
448,192,255630,1,0,0:0:0:0:
64,192,255983,1,0,0:0:0:0:
192,192,255983,1,0,0:0:0:0:
320,192,255983,1,0,0:0:0:0:
448,192,256159,1,0,0:0:0:0:
320,192,256159,1,0,0:0:0:0:
64,192,256159,1,0,0:0:0:0:
320,192,256336,1,0,0:0:0:0:
192,192,256336,1,0,0:0:0:0:
64,192,256512,1,0,0:0:0:0:
192,192,256512,1,0,0:0:0:0:
448,192,256512,1,0,0:0:0:0:
320,192,256600,1,0,0:0:0:0:
192,192,256689,1,0,0:0:0:0:
64,192,256689,1,0,0:0:0:0:
320,192,256777,1,0,0:0:0:0:
192,192,256865,1,0,0:0:0:0:
64,192,256865,1,0,0:0:0:0:
448,192,256953,1,0,0:0:0:0:
320,192,257042,1,0,0:0:0:0:
192,192,257042,1,0,0:0:0:0:
448,192,257130,1,0,0:0:0:0:
192,192,257218,1,0,0:0:0:0:
64,192,257218,1,0,0:0:0:0:
448,192,257306,1,0,0:0:0:0:
320,192,257394,1,0,0:0:0:0:
192,192,257394,1,0,0:0:0:0:
448,192,257483,1,0,0:0:0:0:
192,192,257571,1,0,0:0:0:0:
64,192,257571,128,0,257924:0:0:0:0:
320,192,257659,1,0,0:0:0:0:
448,192,257747,1,0,0:0:0:0:
192,192,257836,1,0,0:0:0:0:
320,192,257924,1,0,0:0:0:0:
448,192,257924,1,0,0:0:0:0:
192,192,258012,1,0,0:0:0:0:
64,192,258100,1,0,0:0:0:0:
448,192,258100,1,0,0:0:0:0:
320,192,258189,1,0,0:0:0:0:
64,192,258277,1,0,0:0:0:0:
192,192,258277,1,0,0:0:0:0:
320,192,258365,1,0,0:0:0:0:
448,192,258365,1,0,0:0:0:0:
192,192,258453,1,0,0:0:0:0:
64,192,258453,1,0,0:0:0:0:
64,192,258630,1,0,0:0:0:0:
448,192,258630,1,0,0:0:0:0:
192,192,258718,1,0,0:0:0:0:
320,192,258718,1,0,0:0:0:0:
64,192,258806,1,0,0:0:0:0:
448,192,258806,1,0,0:0:0:0:
320,192,258983,1,0,0:0:0:0:
448,192,258983,1,0,0:0:0:0:
192,192,259071,1,0,0:0:0:0:
64,192,259159,1,0,0:0:0:0:
320,192,259159,1,0,0:0:0:0:
448,192,259247,1,0,0:0:0:0:
320,192,259336,1,0,0:0:0:0:
192,192,259336,128,0,259512:0:0:0:0:
64,192,259512,1,0,0:0:0:0:
448,192,259512,1,0,0:0:0:0:
64,192,259689,1,0,0:0:0:0:
448,192,259689,1,0,0:0:0:0:
192,192,259689,1,0,0:0:0:0:
320,192,259777,1,0,0:0:0:0:
448,192,259865,1,0,0:0:0:0:
64,192,259865,1,0,0:0:0:0:
192,192,259953,1,0,0:0:0:0:
320,192,260042,1,0,0:0:0:0:
448,192,260042,1,0,0:0:0:0:
64,192,260130,1,0,0:0:0:0:
320,192,260218,1,0,0:0:0:0:
192,192,260218,1,0,0:0:0:0:
64,192,260306,1,0,0:0:0:0:
320,192,260394,1,0,0:0:0:0:
448,192,260394,128,0,260747:0:0:0:0:
192,192,260483,1,0,0:0:0:0:
64,192,260571,1,0,0:0:0:0:
320,192,260659,1,0,0:0:0:0:
192,192,260747,1,0,0:0:0:0:
64,192,260747,1,0,0:0:0:0:
320,192,260836,1,0,0:0:0:0:
448,192,260924,1,0,0:0:0:0:
320,192,261012,1,0,0:0:0:0:
192,192,261012,1,0,0:0:0:0:
64,192,261012,1,0,0:0:0:0:
192,192,261277,1,0,0:0:0:0:
320,192,261277,1,0,0:0:0:0:
448,192,261277,1,0,0:0:0:0:
320,192,261542,1,0,0:0:0:0:
192,192,261542,1,0,0:0:0:0:
64,192,261542,1,0,0:0:0:0:
320,192,261806,1,0,0:0:0:0:
448,192,261865,1,0,0:0:0:0:
192,192,261924,1,0,0:0:0:0:
320,192,261983,1,0,0:0:0:0:
64,192,262042,1,0,0:0:0:0:
192,192,262100,1,0,0:0:0:0:
320,192,262159,1,0,0:0:0:0:
448,192,262159,1,0,0:0:0:0:
320,192,262336,1,0,0:0:0:0:
448,192,262336,1,0,0:0:0:0:
192,192,262424,1,0,0:0:0:0:
64,192,262424,1,0,0:0:0:0:
64,192,262600,1,0,0:0:0:0:
192,192,262600,1,0,0:0:0:0:
320,192,262689,1,0,0:0:0:0:
448,192,262689,1,0,0:0:0:0:
64,192,262865,1,0,0:0:0:0:
448,192,262865,1,0,0:0:0:0:
192,192,262953,1,0,0:0:0:0:
320,192,263042,1,0,0:0:0:0:
192,192,263130,1,0,0:0:0:0:
320,192,263218,128,0,263306:0:0:0:0:
448,192,263218,128,0,263306:0:0:0:0:
64,192,263218,128,0,263306:0:0:0:0:
64,192,263394,128,0,263483:0:0:0:0:
320,192,263394,128,0,263483:0:0:0:0:
448,192,263394,128,0,263483:0:0:0:0:
64,192,263571,1,0,0:0:0:0:
192,192,263571,1,0,0:0:0:0:
448,192,263571,1,0,0:0:0:0:
320,192,263659,1,0,0:0:0:0:
192,192,263747,1,0,0:0:0:0:
64,192,263747,1,0,0:0:0:0:
320,192,263836,1,0,0:0:0:0:
192,192,263924,128,0,264012:0:0:0:0:
64,192,263924,128,0,264012:0:0:0:0:
448,192,263924,128,0,264012:0:0:0:0:
448,192,264100,128,0,264189:0:0:0:0:
192,192,264100,128,0,264189:0:0:0:0:
64,192,264100,128,0,264189:0:0:0:0:
64,192,264277,1,0,0:0:0:0:
192,192,264277,1,0,0:0:0:0:
448,192,264277,1,0,0:0:0:0:
320,192,264277,128,0,264630:0:0:0:0:
64,192,264630,128,0,264806:0:0:0:0:
448,192,264630,1,0,0:0:0:0:
192,192,264718,128,0,264894:0:0:0:0:
320,192,264806,128,0,264983:0:0:0:0:
448,192,264894,128,0,264983:0:0:0:0:
192,192,264983,1,0,0:0:0:0:
64,192,264983,1,0,0:0:0:0:
448,192,265159,1,0,0:0:0:0:
64,192,265336,1,0,0:0:0:0:
192,192,265336,1,0,0:0:0:0:
320,192,265394,1,0,0:0:0:0:
448,192,265453,1,0,0:0:0:0:
64,192,265453,1,0,0:0:0:0:
192,192,265512,1,0,0:0:0:0:
448,192,265571,1,0,0:0:0:0:
320,192,265571,1,0,0:0:0:0:
192,192,265630,1,0,0:0:0:0:
448,192,265689,128,0,265777:0:0:0:0:
320,192,265689,128,0,265777:0:0:0:0:
64,192,265689,1,0,0:0:0:0:
320,192,265865,128,0,265953:0:0:0:0:
192,192,265865,128,0,265953:0:0:0:0:
64,192,266042,128,0,266130:0:0:0:0:
192,192,266042,128,0,266130:0:0:0:0:
448,192,266218,128,0,266306:0:0:0:0:
64,192,266218,128,0,266306:0:0:0:0:
448,192,266394,1,0,0:0:0:0:
192,192,266394,1,0,0:0:0:0:
64,192,266394,1,0,0:0:0:0:
64,192,266659,1,0,0:0:0:0:
192,192,266659,1,0,0:0:0:0:
448,192,266659,1,0,0:0:0:0:
448,192,266924,1,0,0:0:0:0:
320,192,266924,1,0,0:0:0:0:
192,192,266924,1,0,0:0:0:0:
448,192,267189,1,0,0:0:0:0:
320,192,267189,1,0,0:0:0:0:
192,192,267189,1,0,0:0:0:0:
320,192,267453,1,0,0:0:0:0:
192,192,267453,1,0,0:0:0:0:
64,192,267453,1,0,0:0:0:0:
192,192,267718,1,0,0:0:0:0:
64,192,267718,1,0,0:0:0:0:
320,192,267806,128,0,268159:0:0:0:0:
448,192,267806,128,0,268159:0:0:0:0:
64,192,268159,1,0,0:0:0:0:
192,192,268159,1,0,0:0:0:0:
448,192,268247,1,0,0:0:0:0:
320,192,268336,1,0,0:0:0:0:
192,192,268336,1,0,0:0:0:0:
448,192,268424,1,0,0:0:0:0:
192,192,268512,1,0,0:0:0:0:
64,192,268512,1,0,0:0:0:0:
448,192,268600,1,0,0:0:0:0:
320,192,268689,1,0,0:0:0:0:
192,192,268689,1,0,0:0:0:0:
448,192,268777,1,0,0:0:0:0:
192,192,268865,1,0,0:0:0:0:
64,192,268865,128,0,269218:0:0:0:0:
320,192,268953,1,0,0:0:0:0:
448,192,269042,1,0,0:0:0:0:
192,192,269130,1,0,0:0:0:0:
320,192,269218,1,0,0:0:0:0:
448,192,269218,1,0,0:0:0:0:
192,192,269306,1,0,0:0:0:0:
64,192,269394,1,0,0:0:0:0:
448,192,269394,1,0,0:0:0:0:
320,192,269483,1,0,0:0:0:0:
192,192,269571,1,0,0:0:0:0:
64,192,269571,1,0,0:0:0:0:
320,192,269659,1,0,0:0:0:0:
448,192,269659,1,0,0:0:0:0:
192,192,269747,1,0,0:0:0:0:
64,192,269747,1,0,0:0:0:0:
320,192,269836,1,0,0:0:0:0:
64,192,269924,1,0,0:0:0:0:
448,192,269924,1,0,0:0:0:0:
192,192,270012,1,0,0:0:0:0:
320,192,270012,1,0,0:0:0:0:
64,192,270100,1,0,0:0:0:0:
448,192,270100,1,0,0:0:0:0:
192,192,270189,1,0,0:0:0:0:
448,192,270277,1,0,0:0:0:0:
320,192,270277,1,0,0:0:0:0:
64,192,270453,1,0,0:0:0:0:
192,192,270453,1,0,0:0:0:0:
320,192,270542,1,0,0:0:0:0:
448,192,270542,1,0,0:0:0:0:
64,192,270630,128,0,270718:0:0:0:0:
192,192,270630,128,0,270718:0:0:0:0:
64,192,270806,128,0,270894:0:0:0:0:
192,192,270806,128,0,270894:0:0:0:0:
64,192,270983,1,0,0:0:0:0:
448,192,270983,1,0,0:0:0:0:
192,192,271071,1,0,0:0:0:0:
320,192,271159,1,0,0:0:0:0:
448,192,271159,1,0,0:0:0:0:
192,192,271247,1,0,0:0:0:0:
64,192,271336,128,0,271424:0:0:0:0:
448,192,271336,128,0,271424:0:0:0:0:
448,192,271512,128,0,271600:0:0:0:0:
320,192,271512,128,0,271600:0:0:0:0:
192,192,271600,128,0,271689:0:0:0:0:
64,192,271600,128,0,271689:0:0:0:0:
320,192,271689,1,0,0:0:0:0:
448,192,271689,1,0,0:0:0:0:
192,192,271777,1,0,0:0:0:0:
64,192,271865,1,0,0:0:0:0:
448,192,271865,1,0,0:0:0:0:
320,192,271953,1,0,0:0:0:0:
64,192,272042,1,0,0:0:0:0:
192,192,272042,1,0,0:0:0:0:
448,192,272086,1,0,0:0:0:0:
320,192,272130,1,0,0:0:0:0:
192,192,272174,1,0,0:0:0:0:
64,192,272218,1,0,0:0:0:0:
448,192,272262,1,0,0:0:0:0:
320,192,272306,1,0,0:0:0:0:
192,192,272350,1,0,0:0:0:0:
64,192,272394,1,0,0:0:0:0:
448,192,272394,1,0,0:0:0:0:
320,192,272483,1,0,0:0:0:0:
192,192,272483,1,0,0:0:0:0:
64,192,272571,1,0,0:0:0:0:
448,192,272571,1,0,0:0:0:0:
320,192,272659,1,0,0:0:0:0:
192,192,272659,1,0,0:0:0:0:
64,192,272747,128,0,273453:0:0:0:0:
448,192,272747,128,0,273100:0:0:0:0:
320,192,273453,1,0,0:0:0:0:
448,192,273453,1,0,0:0:0:0:
192,192,273542,1,0,0:0:0:0:
64,192,273630,1,0,0:0:0:0:
320,192,273630,1,0,0:0:0:0:
448,192,273718,1,0,0:0:0:0:
192,192,273806,1,0,0:0:0:0:
64,192,273806,1,0,0:0:0:0:
320,192,273894,1,0,0:0:0:0:
192,192,273983,1,0,0:0:0:0:
448,192,273983,1,0,0:0:0:0:
64,192,274071,1,0,0:0:0:0:
320,192,274159,1,0,0:0:0:0:
448,192,274159,1,0,0:0:0:0:
192,192,274247,1,0,0:0:0:0:
64,192,274336,1,0,0:0:0:0:
320,192,274336,1,0,0:0:0:0:
448,192,274424,1,0,0:0:0:0:
192,192,274512,1,0,0:0:0:0:
64,192,274512,128,0,274600:0:0:0:0:
448,192,274600,128,0,274689:0:0:0:0:
64,192,274689,128,0,274777:0:0:0:0:
448,192,274777,128,0,274865:0:0:0:0:
64,192,274865,1,0,0:0:0:0:
192,192,274865,1,0,0:0:0:0:
320,192,274953,1,0,0:0:0:0:
448,192,275042,1,0,0:0:0:0:
64,192,275042,1,0,0:0:0:0:
192,192,275130,1,0,0:0:0:0:
320,192,275218,1,0,0:0:0:0:
448,192,275218,1,0,0:0:0:0:
192,192,275306,1,0,0:0:0:0:
64,192,275394,1,0,0:0:0:0:
448,192,275394,1,0,0:0:0:0:
320,192,275483,1,0,0:0:0:0:
64,192,275571,1,0,0:0:0:0:
192,192,275571,1,0,0:0:0:0:
320,192,275659,1,0,0:0:0:0:
448,192,275747,1,0,0:0:0:0:
64,192,275747,1,0,0:0:0:0:
192,192,275836,1,0,0:0:0:0:
320,192,275924,1,0,0:0:0:0:
448,192,275924,128,0,276100:0:0:0:0:
64,192,276100,128,0,276277:0:0:0:0:
320,192,276277,1,0,0:0:0:0:
448,192,276277,1,0,0:0:0:0:
192,192,276365,1,0,0:0:0:0:
64,192,276365,1,0,0:0:0:0:
448,192,276453,1,0,0:0:0:0:
320,192,276453,1,0,0:0:0:0:
192,192,276542,1,0,0:0:0:0:
64,192,276542,1,0,0:0:0:0:
320,192,276630,1,0,0:0:0:0:
448,192,276630,1,0,0:0:0:0:
192,192,276718,1,0,0:0:0:0:
64,192,276718,1,0,0:0:0:0:
320,192,276806,1,0,0:0:0:0:
448,192,276806,1,0,0:0:0:0:
192,192,276894,1,0,0:0:0:0:
64,192,276894,1,0,0:0:0:0:
448,192,276983,1,0,0:0:0:0:
320,192,277027,1,0,0:0:0:0:
64,192,277071,1,0,0:0:0:0:
192,192,277115,1,0,0:0:0:0:
448,192,277159,1,0,0:0:0:0:
320,192,277203,1,0,0:0:0:0:
64,192,277247,1,0,0:0:0:0:
192,192,277292,1,0,0:0:0:0:
320,192,277336,1,0,0:0:0:0:
448,192,277336,1,0,0:0:0:0:
448,192,277512,1,0,0:0:0:0:
320,192,277512,1,0,0:0:0:0:
192,192,277689,1,0,0:0:0:0:
64,192,277689,128,0,278042:0:0:0:0:
448,192,277865,128,0,278042:0:0:0:0:
320,192,278218,128,0,278394:0:0:0:0:
64,192,278571,128,0,279100:0:0:0:0:
448,192,278747,128,0,279100:0:0:0:0:
