osu file format v14

[General]
AudioFilename: menu-theme-rendered.mp3
AudioLeadIn: 0
PreviewTime: 13416
Countdown: 0
SampleSet: Soft
StackLeniency: 0.7
Mode: 3
LetterboxInBreaks: 0
SpecialStyle: 0
WidescreenStoryboard: 1

[Editor]
DistanceSpacing: 0.5
BeatDivisor: 4
GridSize: 16
TimelineZoom: 1.6

[Metadata]
Title:Pre-main Theme N5
TitleUnicode:Pre-main Theme N5
Artist:Ryu Sei
ArtistUnicode:龍性
Creator:Ryu Sei
Version:Easy
Source:
Tags:game music sigNature 魅力-FASCINATION- MEGAtive Gomuryuu
BeatmapID:704448
BeatmapSetID:316107

[Difficulty]
HPDrainRate:7
CircleSize:4
OverallDifficulty:7
ApproachRate:5
SliderMultiplier:1.4
SliderTickRate:1

[Events]
//Background and Video events
0,0,"morricicholtogether-blanked.png",0,0
//Break Periods
//Storyboard Layer 0 (Background)
//Storyboard Layer 1 (Fail)
//Storyboard Layer 2 (Pass)
//Storyboard Layer 3 (Foreground)
//Storyboard Layer 4 (Overlay)
//Storyboard Sound Samples

[TimingPoints]
1538,304.568527918782,5,2,1,40,1,0
13720,-100,5,2,1,40,0,1
25903,-100,5,2,1,40,0,0
62451,-100,5,2,1,40,0,1
74634,-100,5,2,1,40,0,0

[HitObjects]
192,192,1233,5,0,0:0:0:0:
448,192,1538,1,0,0:0:0:0:
320,192,1842,1,0,0:0:0:0:
64,192,1994,1,0,0:0:0:0:
448,192,2147,1,0,0:0:0:0:
192,192,2451,1,0,0:0:0:0:
320,192,2756,1,0,0:0:0:0:
64,192,2908,1,0,0:0:0:0:
192,192,3060,1,0,0:0:0:0:
320,192,3213,1,0,0:0:0:0:
448,192,3365,1,0,0:0:0:0:
64,192,3669,1,0,0:0:0:0:
448,192,3974,1,0,0:0:0:0:
320,192,4279,1,0,0:0:0:0:
192,192,4431,1,0,0:0:0:0:
64,192,4583,1,0,0:0:0:0:
192,192,4888,1,0,0:0:0:0:
320,192,5040,1,0,0:0:0:0:
448,192,5192,1,0,0:0:0:0:
320,192,5497,1,0,0:0:0:0:
192,192,5801,1,0,0:0:0:0:
64,192,5954,1,0,0:0:0:0:
320,192,6106,1,0,0:0:0:0:
448,192,6411,1,0,0:0:0:0:
192,192,6563,1,0,0:0:0:0:
64,192,6715,1,0,0:0:0:0:
320,192,7020,1,0,0:0:0:0:
320,192,7324,1,0,0:0:0:0:
192,192,7629,1,0,0:0:0:0:
448,192,7933,1,0,0:0:0:0:
320,192,8086,1,0,0:0:0:0:
192,192,8238,1,0,0:0:0:0:
64,192,8543,1,0,0:0:0:0:
320,192,8847,1,0,0:0:0:0:
64,192,8999,1,0,0:0:0:0:
192,192,9152,1,0,0:0:0:0:
448,192,9304,1,0,0:0:0:0:
320,192,9456,1,0,0:0:0:0:
448,192,9761,1,0,0:0:0:0:
192,192,10065,1,0,0:0:0:0:
64,192,10370,1,0,0:0:0:0:
320,192,10522,1,0,0:0:0:0:
448,192,10675,1,0,0:0:0:0:
320,192,10979,1,0,0:0:0:0:
192,192,11131,1,0,0:0:0:0:
64,192,11284,1,0,0:0:0:0:
320,192,11588,1,0,0:0:0:0:
192,192,11893,1,0,0:0:0:0:
64,192,12045,1,0,0:0:0:0:
448,192,12197,1,0,0:0:0:0:
192,192,12502,1,0,0:0:0:0:
64,192,12654,1,0,0:0:0:0:
320,192,12807,1,0,0:0:0:0:
448,192,13111,1,0,0:0:0:0:
192,192,13263,1,0,0:0:0:0:
448,192,13416,1,0,0:0:0:0:
192,192,13568,1,0,0:0:0:0:
64,192,13720,1,4,0:0:0:0:
320,192,13720,1,0,0:0:0:0:
192,192,14025,1,0,0:0:0:0:
320,192,14177,1,0,0:0:0:0:
448,192,14329,1,0,0:0:0:0:
320,192,14634,1,0,0:0:0:0:
64,192,14939,1,0,0:0:0:0:
192,192,15091,1,0,0:0:0:0:
320,192,15243,1,0,0:0:0:0:
64,192,15548,1,0,0:0:0:0:
320,192,15852,1,0,0:0:0:0:
192,192,16157,1,0,0:0:0:0:
448,192,16461,1,0,0:0:0:0:
192,192,16766,1,0,0:0:0:0:
320,192,17070,1,0,0:0:0:0:
64,192,17223,1,0,0:0:0:0:
192,192,17375,1,0,0:0:0:0:
448,192,17680,1,0,0:0:0:0:
64,192,17984,1,0,0:0:0:0:
320,192,18136,1,0,0:0:0:0:
192,192,18289,1,0,0:0:0:0:
448,192,18593,1,0,0:0:0:0:
192,192,18746,1,0,0:0:0:0:
320,192,18898,1,0,0:0:0:0:
192,192,19202,1,0,0:0:0:0:
64,192,19507,1,0,0:0:0:0:
320,192,19812,1,0,0:0:0:0:
192,192,20116,1,0,0:0:0:0:
320,192,20268,1,0,0:0:0:0:
448,192,20421,1,0,0:0:0:0:
320,192,20725,1,0,0:0:0:0:
64,192,21030,1,0,0:0:0:0:
192,192,21182,1,0,0:0:0:0:
320,192,21334,1,0,0:0:0:0:
64,192,21639,1,0,0:0:0:0:
320,192,21944,1,0,0:0:0:0:
192,192,22248,1,0,0:0:0:0:
448,192,22553,1,0,0:0:0:0:
192,192,22857,1,0,0:0:0:0:
320,192,23162,1,0,0:0:0:0:
64,192,23314,1,0,0:0:0:0:
192,192,23466,1,0,0:0:0:0:
320,192,23771,1,0,0:0:0:0:
64,192,24076,1,0,0:0:0:0:
192,192,24228,1,0,0:0:0:0:
320,192,24380,1,0,0:0:0:0:
448,192,24685,1,0,0:0:0:0:
192,192,24837,1,0,0:0:0:0:
320,192,24989,1,0,0:0:0:0:
192,192,25294,1,0,0:0:0:0:
64,192,25598,1,0,0:0:0:0:
448,192,25903,1,4,0:0:0:0:
320,192,25903,1,0,0:0:0:0:
320,192,26208,1,0,0:0:0:0:
192,192,26360,1,0,0:0:0:0:
64,192,26512,1,0,0:0:0:0:
192,192,26817,1,0,0:0:0:0:
64,192,27121,1,0,0:0:0:0:
192,192,27274,1,0,0:0:0:0:
448,192,27426,1,0,0:0:0:0:
320,192,27578,1,0,0:0:0:0:
64,192,27730,1,0,0:0:0:0:
320,192,28035,1,0,0:0:0:0:
448,192,28340,1,0,0:0:0:0:
320,192,28644,1,0,0:0:0:0:
192,192,28796,1,0,0:0:0:0:
64,192,28949,1,0,0:0:0:0:
64,192,29253,1,0,0:0:0:0:
192,192,29406,1,0,0:0:0:0:
320,192,29558,1,0,0:0:0:0:
448,192,29862,1,0,0:0:0:0:
192,192,30167,1,0,0:0:0:0:
320,192,30319,1,0,0:0:0:0:
192,192,30472,1,0,0:0:0:0:
320,192,30776,1,0,0:0:0:0:
64,192,30928,1,0,0:0:0:0:
192,192,31081,1,0,0:0:0:0:
320,192,31385,1,0,0:0:0:0:
320,192,31690,1,0,0:0:0:0:
64,192,31994,1,0,0:0:0:0:
448,192,32299,1,0,0:0:0:0:
320,192,32451,1,0,0:0:0:0:
192,192,32603,1,0,0:0:0:0:
64,192,32908,1,0,0:0:0:0:
320,192,33213,1,0,0:0:0:0:
192,192,33365,1,0,0:0:0:0:
64,192,33517,1,0,0:0:0:0:
192,192,33669,1,0,0:0:0:0:
448,192,33822,1,0,0:0:0:0:
192,192,34126,1,0,0:0:0:0:
320,192,34431,1,0,0:0:0:0:
448,192,34735,1,0,0:0:0:0:
320,192,34888,1,0,0:0:0:0:
192,192,35040,1,0,0:0:0:0:
64,192,35345,1,0,0:0:0:0:
320,192,35497,1,0,0:0:0:0:
448,192,35649,1,0,0:0:0:0:
320,192,35954,1,0,0:0:0:0:
192,192,36258,1,0,0:0:0:0:
64,192,36411,1,0,0:0:0:0:
320,192,36563,1,0,0:0:0:0:
448,192,36867,1,0,0:0:0:0:
192,192,37020,1,0,0:0:0:0:
64,192,37172,1,0,0:0:0:0:
192,192,37477,1,0,0:0:0:0:
192,192,37781,1,0,0:0:0:0:
64,192,38086,1,4,0:0:0:0:
448,192,38086,1,0,0:0:0:0:
192,192,38695,1,0,0:0:0:0:
448,192,39152,1,0,0:0:0:0:
320,192,39609,1,0,0:0:0:0:
192,192,40218,5,0,0:0:0:0:
448,192,40522,1,0,0:0:0:0:
192,192,40827,1,0,0:0:0:0:
320,192,40979,1,0,0:0:0:0:
64,192,41131,5,0,0:0:0:0:
448,192,41741,1,0,0:0:0:0:
192,192,42197,1,0,0:0:0:0:
320,192,42654,1,0,0:0:0:0:
64,192,43263,1,0,0:0:0:0:
192,192,43568,5,0,0:0:0:0:
320,192,43720,1,0,0:0:0:0:
192,192,43873,1,0,0:0:0:0:
64,192,44177,1,0,0:0:0:0:
448,192,44177,1,4,0:0:0:0:
320,192,44786,128,0,45700:0:0:0:8:
192,192,46309,1,0,0:0:0:0:
448,192,46614,1,0,0:0:0:0:
64,192,46918,1,0,0:0:0:0:
320,192,47070,1,0,0:0:0:0:
192,192,47223,1,0,0:0:0:0:
448,192,47527,1,0,0:0:0:0:
320,192,47832,1,0,0:0:0:0:
64,192,48289,1,0,0:0:0:0:
448,192,48746,1,0,0:0:0:0:
64,192,48898,1,0,0:0:0:0:
320,192,49202,1,0,0:0:0:0:
192,192,49355,1,0,0:0:0:0:
448,192,49659,1,0,0:0:0:0:
64,192,49812,1,0,0:0:0:0:
192,192,49964,1,0,0:0:0:0:
320,192,50116,1,0,0:0:0:0:
64,192,50268,1,0,0:0:0:0:
448,192,50268,1,0,0:0:0:0:
320,192,50573,1,4,0:0:0:0:
448,192,50725,1,0,0:0:0:0:
192,192,50878,1,0,0:0:0:0:
64,192,51182,1,0,0:0:0:0:
320,192,51487,1,0,0:0:0:0:
192,192,51639,1,0,0:0:0:0:
448,192,51791,1,0,0:0:0:0:
320,192,51944,1,0,0:0:0:0:
64,192,52096,1,0,0:0:0:0:
320,192,52400,1,0,0:0:0:0:
192,192,52705,1,0,0:0:0:0:
448,192,53010,1,0,0:0:0:0:
320,192,53162,1,0,0:0:0:0:
64,192,53314,1,0,0:0:0:0:
448,192,53619,1,0,0:0:0:0:
320,192,53771,1,0,0:0:0:0:
192,192,53923,1,0,0:0:0:0:
320,192,54228,1,0,0:0:0:0:
64,192,54532,1,0,0:0:0:0:
192,192,54685,1,0,0:0:0:0:
448,192,54837,1,0,0:0:0:0:
192,192,55142,1,0,0:0:0:0:
320,192,55294,1,0,0:0:0:0:
448,192,55446,1,0,0:0:0:0:
64,192,55751,1,0,0:0:0:0:
320,192,56055,1,0,0:0:0:0:
192,192,56360,1,0,0:0:0:0:
448,192,56664,1,4,0:0:0:0:
320,192,56664,1,0,0:0:0:0:
192,192,56817,1,0,0:0:0:0:
64,192,56969,1,0,0:0:0:0:
320,192,57274,1,0,0:0:0:0:
192,192,57578,1,0,0:0:0:0:
320,192,57730,1,0,0:0:0:0:
448,192,57883,1,0,0:0:0:0:
192,192,58035,1,0,0:0:0:0:
64,192,58187,1,0,0:0:0:0:
320,192,58492,1,0,0:0:0:0:
448,192,58796,1,0,0:0:0:0:
192,192,59101,1,0,0:0:0:0:
320,192,59253,1,0,0:0:0:0:
448,192,59406,1,0,0:0:0:0:
320,192,59710,1,0,0:0:0:0:
192,192,59862,1,0,0:0:0:0:
64,192,60015,1,0,0:0:0:0:
192,192,60319,1,0,0:0:0:0:
448,192,60624,1,0,0:0:0:0:
320,192,60776,1,0,0:0:0:0:
64,192,60928,1,0,0:0:0:0:
192,192,61233,1,0,0:0:0:0:
320,192,61385,1,0,0:0:0:0:
448,192,61538,1,0,0:0:0:0:
320,192,61842,1,0,0:0:0:0:
192,192,62147,1,0,0:0:0:0:
448,192,62451,1,4,0:0:0:0:
64,192,62451,1,0,0:0:0:0:
320,192,62756,1,0,0:0:0:0:
64,192,62984,1,0,0:0:0:0:
192,192,63213,1,0,0:0:0:0:
320,192,63365,1,0,0:0:0:0:
448,192,63669,1,0,0:0:0:0:
320,192,63822,1,0,0:0:0:0:
192,192,63974,1,0,0:0:0:0:
448,192,64279,1,0,0:0:0:0:
192,192,64507,1,0,0:0:0:0:
320,192,64735,1,0,0:0:0:0:
192,192,64888,1,0,0:0:0:0:
64,192,65192,1,0,0:0:0:0:
448,192,65497,1,0,0:0:0:0:
64,192,65801,1,0,0:0:0:0:
192,192,66030,1,0,0:0:0:0:
320,192,66258,1,0,0:0:0:0:
448,192,66411,1,0,0:0:0:0:
192,192,66715,1,0,0:0:0:0:
448,192,67020,1,0,0:0:0:0:
64,192,67324,1,0,0:0:0:0:
320,192,67553,1,0,0:0:0:0:
448,192,67781,1,0,0:0:0:0:
192,192,67933,1,0,0:0:0:0:
320,192,68238,1,0,0:0:0:0:
192,192,68543,1,0,0:0:0:0:
448,192,68543,1,4,0:0:0:0:
64,192,68847,1,0,0:0:0:0:
320,192,69076,1,0,0:0:0:0:
192,192,69304,1,0,0:0:0:0:
64,192,69456,1,0,0:0:0:0:
448,192,69761,1,0,0:0:0:0:
192,192,70065,1,0,0:0:0:0:
448,192,70370,1,0,0:0:0:0:
192,192,70598,1,0,0:0:0:0:
64,192,70827,1,0,0:0:0:0:
320,192,70979,1,0,0:0:0:0:
192,192,71284,1,0,0:0:0:0:
448,192,71588,1,0,0:0:0:0:
320,192,71893,1,0,0:0:0:0:
192,192,72121,1,0,0:0:0:0:
64,192,72350,1,0,0:0:0:0:
448,192,72502,1,0,0:0:0:0:
192,192,72807,1,0,0:0:0:0:
448,192,73111,1,0,0:0:0:0:
320,192,73416,1,0,0:0:0:0:
64,192,73644,1,0,0:0:0:0:
448,192,73873,1,0,0:0:0:0:
192,192,74025,1,0,0:0:0:0:
320,192,74329,1,0,0:0:0:0:
448,192,74634,1,4,0:0:0:0:
64,192,74634,1,0,0:0:0:0:
192,192,74939,1,0,0:0:0:0:
320,192,75243,1,0,0:0:0:0:
64,192,75548,1,0,0:0:0:0:
448,192,75852,1,0,0:0:0:0:
192,192,76157,1,0,0:0:0:0:
64,192,76461,1,0,0:0:0:0:
320,192,76766,1,0,0:0:0:0:
192,192,77070,1,0,0:0:0:0:
448,192,77375,1,0,0:0:0:0:
64,192,77680,1,0,0:0:0:0:
192,192,77984,1,0,0:0:0:0:
448,192,78289,1,0,0:0:0:0:
64,192,78593,1,0,0:0:0:0:
320,192,78898,1,0,0:0:0:0:
64,192,79202,1,0,0:0:0:0:
192,192,79507,1,0,0:0:0:0:
448,192,79812,1,0,0:0:0:0:
64,192,80116,1,0,0:0:0:0:
320,192,80421,1,0,0:0:0:0:
448,192,80725,1,4,0:0:0:0:
192,192,80725,1,0,0:0:0:0:
64,192,81030,1,0,0:0:0:0:
320,192,81334,1,0,0:0:0:0:
192,192,81639,1,0,0:0:0:0:
320,192,81944,1,0,0:0:0:0:
448,192,82096,1,0,0:0:0:0:
192,192,82248,1,0,0:0:0:0:
64,192,82553,1,0,0:0:0:0:
320,192,82857,1,0,0:0:0:0:
192,192,83162,1,0,0:0:0:0:
320,192,83466,1,0,0:0:0:0:
448,192,83619,1,0,0:0:0:0:
64,192,83771,1,0,0:0:0:0:
192,192,84076,1,0,0:0:0:0:
448,192,84380,1,0,0:0:0:0:
64,192,84685,1,0,0:0:0:0:
320,192,84989,1,0,0:0:0:0:
448,192,85142,1,0,0:0:0:0:
64,192,85294,1,0,0:0:0:0:
192,192,85598,1,0,0:0:0:0:
448,192,85903,1,0,0:0:0:0:
64,192,86208,1,0,0:0:0:0:
320,192,86512,1,0,0:0:0:0:
448,192,86664,1,0,0:0:0:0:
