osu file format v14

[General]
AudioFilename: Ryu - We're so Happy.mp3
AudioLeadIn: 0
PreviewTime: 56037
Countdown: 0
SampleSet: Normal
StackLeniency: 0.3
Mode: 0
LetterboxInBreaks: 0
WidescreenStoryboard: 1

[Editor]
Bookmarks: 13226,33983,44361,88469,93659
DistanceSpacing: 1
BeatDivisor: 4
GridSize: 4
TimelineZoom: 2.3

[Metadata]
Title:We're so Happy
TitleUnicode:We're so Happy
Artist:Ryu*
ArtistUnicode:Ryu☆
Creator:Yauxo
Version:Advanced
Source:jubeat saucer
Tags:Lyawi Milan- appleeaterx captin1 Kyshiro Mayumi Morinaga jukebeat ミライダガッキ FutureTomTom
BeatmapID:1076195
BeatmapSetID:456072

[Difficulty]
HPDrainRate:4
CircleSize:3
OverallDifficulty:4
ApproachRate:5.8
SliderMultiplier:1
SliderTickRate:1

[Events]
//Background and Video events
0,0,"063 - sAUF0cD.jpg",0,0
//Break Periods
2,34183,43282
2,88669,92580
//Storyboard Layer 0 (Background)
//Storyboard Layer 1 (Fail)
//Storyboard Layer 2 (Pass)
//Storyboard Layer 3 (Foreground)
//Storyboard Sound Samples

[TimingPoints]
1551,324.324324324324,4,1,1,60,1,0
54740,-100,4,2,1,5,0,0
56037,-100,4,1,1,60,0,0
57334,-100,4,1,1,60,0,1
78091,-100,4,1,1,60,0,0
101442,-100,4,1,1,60,0,1
122199,-100,4,1,1,60,0,0

[Colours]
Combo1 : 159,234,226
Combo2 : 245,197,237
Combo3 : 168,207,255
Combo4 : 250,156,170

[HitObjects]
60,80,13226,6,0,L|164:96,1,100,8|2,1:0|0:0,0:0:0:0:
192,124,13713,2,0,L|296:108,1,100,0|0,0:0|0:0,0:0:0:0:
324,80,14199,1,2,0:0:0:0:
376,164,14523,6,0,L|360:268,1,100,8|2,1:0|0:0,0:0:0:0:
320,284,15010,2,0,L|335:185,1,100,0|0,0:0|0:0,0:0:0:0:
340,140,15496,1,2,0:0:0:0:
240,156,15821,6,0,L|141:171,2,100,8|2|8,1:0|0:0|1:0,0:0:0:0:
320,92,16794,1,2,0:0:0:0:
408,144,17118,6,0,L|393:243,2,100,8|2|8,1:0|0:0|1:0,0:0:0:0:
428,44,18091,1,2,0:0:0:0:
428,44,18253,1,0,0:0:0:0:
428,44,18415,6,0,L|324:60,1,100,8|2,1:0|0:0,0:0:0:0:
296,88,18902,2,0,L|192:72,1,100,0|0,0:0|0:0,0:0:0:0:
164,44,19388,1,2,0:0:0:0:
112,128,19713,6,0,L|128:232,1,100,8|2,1:0|0:0,0:0:0:0:
168,248,20199,2,0,L|153:149,1,100,0|0,0:0|0:0,0:0:0:0:
148,104,20685,1,2,0:0:0:0:
248,120,21010,6,0,L|347:135,1,100,8|2,1:0|0:0,0:0:0:0:
384,112,21496,1,0,0:0:0:0:
384,112,21659,1,8,1:0:0:0:
452,184,21983,1,2,0:0:0:0:
384,256,22307,6,0,B|348:272|312:256|312:256|272:240|236:256,2,150,2|0|2,2:0|0:0|2:0,0:0:0:0:
276,348,23605,6,0,L|260:244,1,100,8|2,1:0|0:0,0:0:0:0:
232,216,24092,2,0,L|248:112,1,100,0|0,0:0|0:0,0:0:0:0:
276,84,24578,1,2,0:0:0:0:
192,32,24902,6,0,L|88:48,1,100,8|2,1:0|0:0,0:0:0:0:
72,88,25389,2,0,L|171:73,1,100,0|0,0:0|0:0,0:0:0:0:
216,68,25875,1,2,0:0:0:0:
296,128,26199,6,0,L|395:143,1,100,8|2,1:0|0:0,0:0:0:0:
440,148,26686,1,0,0:0:0:0:
388,232,27010,1,0,0:0:0:0:
336,316,27334,1,0,0:0:0:0:
336,316,27496,6,0,L|435:331,2,100,8|2|8,1:0|0:0|1:0,0:0:0:0:
296,340,28307,1,0,0:0:0:0:
296,340,28469,1,2,0:0:0:0:
244,256,28794,6,0,L|259:157,1,100,8|2,1:0|0:0,0:0:0:0:
288,60,29442,2,0,L|189:75,1,100,8|2,1:0|0:0,0:0:0:0:
258,157,30091,2,0,L|357:142,2,100,8|2|8,1:0|0:0|1:0,0:0:0:0:
172,208,31064,1,2,0:0:0:0:
80,172,31388,6,0,B|64:205|80:245|80:245|96:281|80:317,2,150,2|0|0,2:0|0:0|0:0,0:0:0:0:
256,192,32686,12,4,33983,1:0:0:0:
112,296,44361,5,8,1:0:0:0:
112,296,44523,1,8,1:0:0:0:
112,296,44686,2,0,B|145:312|185:296|185:296|221:280|257:296,1,150,8|8,1:0|1:0,0:0:0:0:
300,284,45334,1,2,0:0:0:0:
396,324,45659,5,8,1:0:0:0:
396,324,45821,1,8,1:0:0:0:
396,324,45983,2,0,B|416:277|389:230|389:230|411:180,1,150,8|8,1:0|1:0,0:0:0:0:
388,140,46632,1,2,0:0:0:0:
424,52,46956,5,8,1:0:0:0:
424,52,47118,1,8,1:0:0:0:
424,52,47280,2,0,B|391:36|351:52|351:52|315:68|279:52,1,150,8|8,1:0|1:0,0:0:0:0:
236,40,47929,2,0,L|244:100,1,50,2|2,0:0|0:0,0:0:0:0:
256,140,48253,5,8,1:0:0:0:
256,140,48415,1,8,1:0:0:0:
256,140,48578,2,0,B|209:160|162:133|162:133|114:153,1,150,8|8,1:0|1:0,0:0:0:0:
64,164,49226,2,0,L|72:104,1,50,2|2,0:0|0:0,0:0:0:0:
80,68,49550,5,8,1:0:0:0:
264,148,50199,1,12,1:0:0:0:
60,172,50848,1,12,1:0:0:0:
228,48,51496,1,12,1:0:0:0:
264,148,51820,1,8,1:0:0:0:
228,248,52145,5,12,1:0:0:0:
256,192,52226,12,0,54740,0:0:0:0:
140,328,56037,6,0,B|104:340|104:340|40:328,1,100,8|8,1:0|1:0,0:0:0:0:
96,244,56686,2,0,B|132:232|132:232|196:244,1,100,8|2,1:0|0:0,0:0:0:0:
292,260,57334,6,0,L|281:193,1,50,12|0,1:0|0:0,0:0:0:0:
312,176,57659,1,2,0:0:0:0:
312,176,57821,2,0,L|297:77,2,100,0|0|0,0:0|0:0|0:0,0:0:0:0:
283,210,58632,5,8,1:0:0:0:
192,172,58956,1,2,0:0:0:0:
100,210,59280,2,0,L|50:201,2,50,8|0|2,1:0|0:0|0:0,0:0:0:0:
180,268,59929,6,0,L|247:279,1,50,8|0,1:0|0:0,0:0:0:0:
264,248,60254,1,2,0:0:0:0:
264,248,60415,2,0,L|363:263,2,100,0|0|0,0:0|0:0|0:0,0:0:0:0:
230,277,61227,5,8,1:0:0:0:
192,184,61550,1,2,0:0:0:0:
230,92,61875,1,8,1:0:0:0:
324,124,62199,1,2,0:0:0:0:
420,92,62523,6,0,L|431:159,1,50,8|0,1:0|0:0,0:0:0:0:
457,175,62848,1,2,0:0:0:0:
457,175,63010,2,0,L|442:274,2,100,0|0|0,0:0|0:0|0:0,0:0:0:0:
428,141,63821,5,8,1:0:0:0:
348,200,64145,2,0,L|281:189,1,50,2|0,0:0|0:0,0:0:0:0:
268,160,64469,1,8,1:0:0:0:
204,236,64794,1,2,0:0:0:0:
116,192,65118,6,0,L|17:207,2,100,8|2|0,1:0|0:0|0:0,0:0:0:0:
216,172,66091,1,2,0:0:0:0:
316,192,66415,6,0,L|415:207,1,100,8|2,1:0|0:0,0:0:0:0:
456,188,66901,1,0,0:0:0:0:
456,188,67064,1,2,0:0:0:0:
484,92,67388,1,2,0:0:0:0:
384,108,67713,6,0,L|317:97,1,50,12|0,1:0|0:0,0:0:0:0:
300,128,68038,1,2,0:0:0:0:
300,128,68200,2,0,L|201:113,2,100,0|0|0,0:0|0:0|0:0,0:0:0:0:
334,99,69011,5,8,1:0:0:0:
380,188,69334,1,2,0:0:0:0:
426,277,69659,2,0,L|493:266,2,50,8|0|2,1:0|0:0|0:0,0:0:0:0:
340,328,70307,6,0,L|273:339,1,50,8|0,1:0|0:0,0:0:0:0:
256,308,70632,1,2,0:0:0:0:
256,308,70794,2,0,L|157:323,2,100,0|0|0,0:0|0:0|0:0,0:0:0:0:
290,337,71605,5,8,1:0:0:0:
336,248,71929,1,2,0:0:0:0:
290,159,72253,1,8,1:0:0:0:
192,152,72578,2,0,L|181:219,1,50,2|0,0:0|0:0,0:0:0:0:
147,225,72902,6,0,L|163:329,1,100,8|2,1:0|0:0,0:0:0:0:
203,345,73389,2,0,L|188:246,1,100,0|0,0:0|0:0,0:0:0:0:
183,201,73875,1,2,0:0:0:0:
172,112,74199,6,0,L|271:97,1,100,8|2,1:0|0:0,0:0:0:0:
312,116,74685,1,0,0:0:0:0:
312,116,74848,1,8,1:0:0:0:
400,76,75172,1,2,0:0:0:0:
488,120,75496,6,0,B|504:153|488:193|488:193|472:229|488:265,2,150,8|0|2,1:0|0:0|0:0,0:0:0:0:
400,76,76794,5,8,1:0:0:0:
308,120,77118,1,2,0:0:0:0:
312,20,77442,1,2,0:0:0:0:
300,128,77767,1,2,0:0:0:0:
408,84,78091,6,0,B|424:117|408:160|408:160|384:224|424:276,2,200,12|8|8,1:0|1:0|1:0,0:0:0:0:
316,124,79713,2,0,L|249:113,1,50,0|0,0:0|0:0,0:0:0:0:
236,84,80037,1,8,1:0:0:0:
156,144,80361,1,2,0:0:0:0:
64,104,80686,6,0,B|48:137|64:180|64:180|88:244|48:296,2,200,8|8|8,1:0|1:0|1:0,0:0:0:0:
156,144,82308,2,0,L|223:133,1,50,2|2,0:0|2:0,0:0:0:0:
236,104,82632,1,0,0:0:0:0:
316,164,82956,1,2,0:0:0:0:
408,128,83280,6,0,B|424:161|408:201|408:201|392:237|408:273,2,150,8|2|2,1:0|0:0|0:0,0:0:0:0:
316,164,84578,2,0,P|328:72|440:36,2,200,12|8|0,1:0|1:0|0:0,0:0:0:0:
484,268,86523,1,12,1:0:0:0:
292,320,87172,5,8,1:0:0:0:
256,192,87253,12,12,88469,1:0:0:0:
300,92,93659,5,8,1:0:0:0:
300,92,93821,1,8,1:0:0:0:
300,92,93983,2,0,B|316:125|300:165|300:165|284:201|300:237,1,150,8|8,1:0|1:0,0:0:0:0:
288,280,94632,1,2,0:0:0:0:
204,316,94956,5,8,1:0:0:0:
204,316,95118,1,8,1:0:0:0:
204,316,95280,2,0,B|188:283|204:243|204:243|220:207|204:171,1,150,8|8,1:0|1:0,0:0:0:0:
216,128,95929,2,0,L|205:61,1,50,2|2,0:0|0:0,0:0:0:0:
200,36,96253,5,12,1:0:0:0:
20,120,96902,1,12,1:0:0:0:
180,236,97550,2,0,L|279:221,2,100,12|12|12,1:0|1:0|1:0,0:0:0:0:
92,248,98523,1,2,0:0:0:0:
256,192,98848,12,12,100794,1:0:0:0:
252,80,101442,6,0,L|185:69,1,50,12|0,1:0|0:0,0:0:0:0:
168,100,101767,1,2,0:0:0:0:
168,100,101929,2,0,L|69:85,2,100,0|0|0,0:0|0:0|0:0,0:0:0:0:
202,71,102740,5,8,1:0:0:0:
284,128,103064,1,2,0:0:0:0:
380,96,103388,2,0,L|429:104,1,50,8|0,1:0|0:0,0:0:0:0:
472,112,103713,1,2,0:0:0:0:
416,196,104037,6,0,L|405:263,1,50,8|0,1:0|0:0,0:0:0:0:
436,280,104362,1,2,0:0:0:0:
436,280,104524,2,0,L|421:379,2,100,0|0|0,0:0|0:0|0:0,0:0:0:0:
407,246,105335,5,8,1:0:0:0:
316,288,105659,1,2,0:0:0:0:
236,228,105983,1,8,1:0:0:0:
145,270,106307,1,2,0:0:0:0:
65,210,106632,6,0,L|76:143,1,50,8|0,1:0|0:0,0:0:0:0:
45,126,106957,1,2,0:0:0:0:
45,126,107119,2,0,L|60:27,2,100,0|0|0,0:0|0:0|0:0,0:0:0:0:
74,160,107929,5,8,1:0:0:0:
152,100,108253,2,0,L|201:108,1,50,2|0,0:0|0:0,0:0:0:0:
244,116,108578,1,8,1:0:0:0:
328,60,108902,1,2,0:0:0:0:
412,116,109226,6,0,L|396:220,1,100,8|2,1:0|0:0,0:0:0:0:
356,236,109713,2,0,L|371:137,1,100,0|0,0:0|0:0,0:0:0:0:
376,92,110199,1,2,0:0:0:0:
472,60,110523,6,0,L|456:164,2,100,8|2|2,1:0|0:0|0:0,0:0:0:0:
376,92,111496,1,2,0:0:0:0:
280,124,111821,6,0,L|269:191,1,50,12|0,1:0|0:0,0:0:0:0:
300,208,112145,1,2,0:0:0:0:
300,208,112307,2,0,L|285:307,2,100,0|0|0,0:0|0:0|0:0,0:0:0:0:
271,174,113118,5,8,1:0:0:0:
176,140,113442,1,2,0:0:0:0:
84,176,113767,2,0,L|75:225,1,50,8|0,1:0|0:0,0:0:0:0:
68,268,114091,1,2,0:0:0:0:
44,364,114415,6,0,L|111:375,1,50,8|0,1:0|0:0,0:0:0:0:
128,344,114739,1,2,0:0:0:0:
128,344,114902,2,0,L|227:359,2,100,0|0|0,0:0|0:0|0:0,0:0:0:0:
94,373,115712,5,8,1:0:0:0:
56,280,116037,1,2,0:0:0:0:
124,208,116361,1,8,1:0:0:0:
86,115,116686,1,2,0:0:0:0:
154,43,117009,6,0,L|221:54,1,50,8|8,1:0|1:0,0:0:0:0:
248,56,117334,2,0,L|297:47,1,50,2|8,0:0|1:0,0:0:0:0:
348,40,117659,2,0,L|333:139,1,100,8|2,1:0|0:0,0:0:0:0:
376,228,118307,6,0,L|309:239,1,50,8|8,1:0|1:0,0:0:0:0:
282,241,118632,2,0,L|233:232,1,50,2|8,0:0|1:0,0:0:0:0:
182,225,118957,2,0,L|197:324,1,100,8|0,1:0|0:0,0:0:0:0:
284,376,119605,5,12,1:0:0:0:
284,376,119767,1,8,1:0:0:0:
408,296,120253,1,12,1:0:0:0:
408,296,120415,1,8,1:0:0:0:
256,192,120902,12,12,122199,1:0:0:0:
