osu file format v14

[General]
AudioFilename: Ryu - We're so Happy.mp3
AudioLeadIn: 0
PreviewTime: 56037
Countdown: 0
SampleSet: Normal
StackLeniency: 0.3
Mode: 0
LetterboxInBreaks: 0
WidescreenStoryboard: 1

[Editor]
DistanceSpacing: 0.8
BeatDivisor: 4
GridSize: 4
TimelineZoom: 2.1

[Metadata]
Title:We're so Happy
TitleUnicode:We're so Happy
Artist:Ryu*
ArtistUnicode:Ryu☆
Creator:Yauxo
Version:captin's Extra
Source:jubeat saucer
Tags:Lyawi Milan- appleeaterx captin1 Kyshiro Mayumi Morinaga jukebeat ミライダガッキ FutureTomTom
BeatmapID:1098377
BeatmapSetID:456072

[Difficulty]
HPDrainRate:6
CircleSize:4.2
OverallDifficulty:9
ApproachRate:9.3
SliderMultiplier:1.8
SliderTickRate:1

[Events]
//Background and Video events
0,0,"063 - sAUF0cD.jpg",0,0
//Break Periods
2,88669,91807
//Storyboard Layer 0 (Background)
//Storyboard Layer 1 (Fail)
//Storyboard Layer 2 (Pass)
//Storyboard Layer 3 (Foreground)
//Storyboard Sound Samples

[TimingPoints]
1551,324.324324324324,4,2,1,30,1,0
13145,-100,4,2,1,5,0,0
13226,-100,4,1,1,50,0,0
22307,-100,4,2,1,50,0,0
23605,-100,4,1,1,50,0,0
31388,-117.647058823529,4,1,1,40,0,0
32686,-200,4,1,1,50,0,0
33902,-200,4,1,1,5,0,0
33983,-108.695652173913,4,2,1,50,0,0
44361,-108.695652173913,4,1,1,50,0,0
52145,-100,4,1,1,45,0,0
56037,-100,4,1,1,50,0,0
56361,-100,4,1,1,50,0,0
56402,-100,4,1,1,5,0,0
56686,-100,4,1,1,50,0,0
56726,-100,4,1,1,5,0,0
57010,-100,4,1,1,50,0,0
57172,-100,4,1,1,30,0,0
57334,-100,4,1,1,50,0,1
76834,-100,4,1,1,20,0,1
77118,-100,4,1,1,50,0,1
77159,-100,4,1,1,5,0,1
77442,-100,4,1,1,50,0,1
77483,-100,4,1,1,5,0,1
77767,-100,4,1,1,50,0,1
77807,-100,4,1,1,5,0,1
78091,-100,4,1,1,50,0,0
88064,-100,4,1,1,5,0,0
88145,-100,4,1,1,50,0,0
88388,-100,4,1,1,5,0,0
88469,-100,4,1,1,50,0,0
92361,-100,4,2,1,50,0,0
92402,-100,4,2,1,10,0,0
92686,-100,4,2,1,20,0,0
93010,-100,4,2,1,30,0,0
93334,-100,4,2,1,40,0,0
93659,-108.695652173913,4,1,1,50,0,0
96253,-100,4,1,1,50,0,0
101442,-100,4,1,1,50,0,1
121794,-100,4,1,1,5,0,1
121875,-100,4,1,1,50,0,1
122118,-100,4,1,1,5,0,1
122199,-100,4,1,1,50,0,0

[Colours]
Combo1 : 159,234,226
Combo2 : 245,197,237
Combo3 : 168,207,255
Combo4 : 250,156,170

[HitObjects]
256,192,11929,12,0,13145,0:0:0:0:
162,231,13226,6,0,L|149:329,1,90,12|0,1:0|0:0,0:0:0:0:
249,165,13550,1,2,0:0:0:0:
54,214,13713,1,0,0:0:0:0:
235,341,13875,1,8,1:0:0:0:
242,137,14037,1,0,0:0:0:0:
148,249,14199,1,2,0:0:0:0:
335,305,14361,1,0,0:0:0:0:
335,305,14442,1,0,0:0:0:0:
335,305,14523,6,0,L|344:203,1,90,8|0,1:0|0:0,0:0:0:0:
247,102,14848,1,2,0:0:0:0:
446,183,15010,2,0,B|350:211|363:162|269:181,1,180,0|0,0:0|0:0,0:0:0:0:
181,337,15496,1,2,0:0:0:0:
129,131,15659,1,0,0:0:0:0:
291,212,15821,6,0,P|331:206|381:195,1,90,8|0,1:0|0:0,0:0:0:0:
364,321,16145,1,2,0:0:0:0:
452,158,16307,2,0,L|442:65,1,90,0|8,0:0|1:0,0:0:0:0:
229,137,16632,1,0,0:0:0:0:
229,137,16713,1,0,0:0:0:0:
229,137,16794,1,2,0:0:0:0:
372,279,16956,1,0,0:0:0:0:
371,85,17118,6,0,L|277:75,1,90,8|0,1:0|0:0,0:0:0:0:
70,176,17442,2,0,L|164:186,1,90,2|0,0:0|0:0,0:0:0:0:
291,299,17767,1,8,1:0:0:0:
208,101,17929,1,0,0:0:0:0:
139,335,18091,1,2,0:0:0:0:
290,216,18253,1,0,0:0:0:0:
119,76,18415,6,0,P|127:128|139:172,1,90,8|0,1:0|0:0,0:0:0:0:
269,239,18740,1,2,0:0:0:0:
59,173,18902,1,0,0:0:0:0:
189,30,19064,1,8,1:0:0:0:
228,235,19226,1,0,0:0:0:0:
56,139,19388,1,2,0:0:0:0:
184,139,19550,1,0,0:0:0:0:
184,139,19632,1,0,0:0:0:0:
184,139,19713,5,8,1:0:0:0:
116,320,19875,2,0,L|123:212,1,90,0|2,0:0|0:0,0:0:0:0:
281,111,20199,2,0,B|287:184|287:184|277:216|277:216|285:305,1,180,0|0,0:0|0:0,0:0:0:0:
417,349,20686,1,2,0:0:0:0:
209,332,20848,1,0,0:0:0:0:
360,161,21010,6,0,P|391:193|397:242,1,90,8|0,1:0|0:0,0:0:0:0:
185,353,21334,1,2,0:0:0:0:
323,226,21496,2,0,L|316:332,1,90,0|8,0:0|1:0,0:0:0:0:
111,337,21821,1,0,0:0:0:0:
287,208,21983,1,2,0:0:0:0:
313,348,22145,1,0,0:0:0:0:
181,211,22307,6,0,B|165:176|169:142|195:114|195:114|227:74|225:32|201:-1|150:2|126:35|127:68|151:86,1,315,2|0,2:0|0:0,0:0:0:0:
238,136,22956,2,0,L|376:127,1,135,2|0,2:0|0:0,0:0:0:0:
400,195,23280,2,0,P|445:148|432:84,1,135,2|0,2:0|0:0,0:0:0:0:
363,53,23605,5,12,1:0:0:0:
319,296,23767,1,0,0:0:0:0:
477,171,23929,1,2,0:0:0:0:
299,122,24091,2,0,L|311:222,1,90,0|0,0:0|0:0,0:0:0:0:
276,371,24415,1,0,0:0:0:0:
404,232,24578,1,2,0:0:0:0:
225,173,24740,1,0,0:0:0:0:
225,173,24821,1,0,0:0:0:0:
225,173,24902,6,0,L|122:160,1,90,8|0,1:0|0:0,0:0:0:0:
31,101,25226,1,2,0:0:0:0:
101,297,25388,2,0,B|128:200|80:209|116:109,1,180,0|0,0:0|0:0,0:0:0:0:
167,53,25875,1,2,0:0:0:0:
241,260,26037,1,0,0:0:0:0:
388,173,26199,6,0,L|292:186,1,90,8|0,1:0|0:0,0:0:0:0:
251,353,26523,1,2,0:0:0:0:
442,226,26686,2,0,P|460:194|450:134,1,90,0|8,0:0|1:0,0:0:0:0:
362,74,27010,1,0,0:0:0:0:
345,291,27172,1,2,0:0:0:0:
487,140,27334,1,0,0:0:0:0:
487,140,27415,1,0,0:0:0:0:
487,140,27496,5,8,1:0:0:0:
332,78,27659,2,0,L|234:88,1,90,0|2,0:0|0:0,0:0:0:0:
78,242,27983,2,0,B|61:202|61:202|72:139,1,90,0|8,0:0|1:0,0:0:0:0:
291,197,28307,2,0,B|308:237|308:237|297:300,1,90,0|2,0:0|0:0,0:0:0:0:
114,313,28632,1,0,0:0:0:0:
258,125,28794,5,8,1:0:0:0:
284,355,28956,1,0,0:0:0:0:
117,231,29118,2,0,L|221:243,1,90,2|0,0:0|0:0,0:0:0:0:
448,275,29442,1,8,1:0:0:0:
292,208,29605,1,0,0:0:0:0:
367,369,29767,2,0,L|359:270,1,90,2|0,0:0|0:0,0:0:0:0:
342,51,30091,5,8,1:0:0:0:
410,232,30253,2,0,B|365:238|365:238|320:215,1,90,0|2,0:0|0:0,0:0:0:0:
144,305,30578,2,0,B|161:263|161:263|204:235,1,90,0|8,0:0|1:0,0:0:0:0:
213,38,30902,2,0,B|241:74|241:74|243:125,1,90,0|2,0:0|0:0,0:0:0:0:
249,309,31226,1,0,0:0:0:0:
104,196,31388,5,2,2:0:0:0:
104,196,31550,2,0,L|184:207,1,76.5000014591217,0|0,0:0|0:0,0:0:0:0:
408,188,31875,1,0,0:0:0:0:
338,132,32037,1,0,0:0:0:0:
258,172,32199,1,0,0:0:0:0:
249,257,32361,1,0,0:0:0:0:
251,283,32442,1,0,0:0:0:0:
253,309,32523,1,0,0:0:0:0:
255,335,32605,1,0,0:0:0:0:
256,192,32686,12,0,33902,2:0:0:0:
115,131,33983,5,4,1:0:0:0:
197,145,34145,1,2,0:0:0:0:
251,206,34307,1,2,0:0:0:0:
333,220,34469,1,2,0:0:0:0:
115,131,34794,5,2,0:0:0:0:
251,206,35118,1,2,0:0:0:0:
107,48,35442,1,2,0:0:0:0:
43,252,35767,1,2,0:0:0:0:
251,206,36091,5,2,0:0:0:0:
115,131,36253,1,2,0:0:0:0:
339,339,36578,5,2,0:0:0:0:
355,257,36740,1,2,0:0:0:0:
425,213,36902,1,2,0:0:0:0:
441,131,37064,1,2,0:0:0:0:
339,339,37388,5,2,0:0:0:0:
425,213,37713,1,2,0:0:0:0:
251,342,38037,1,2,0:0:0:0:
226,126,38361,1,2,0:0:0:0:
292,179,38523,5,2,2:0:0:0:
276,193,38604,1,2,2:0:0:0:
259,203,38685,1,2,2:0:0:0:
239,208,38766,1,2,2:0:0:0:
218,209,38847,1,2,2:0:0:0:
198,205,38928,1,0,0:0:0:0:
179,196,39009,1,0,0:0:0:0:
163,182,39090,1,0,0:0:0:0:
151,166,39172,5,2,2:0:0:0:
166,84,39334,1,2,0:0:0:0:
84,94,39496,1,2,0:0:0:0:
69,177,39658,1,2,0:0:0:0:
166,84,39983,5,2,0:0:0:0:
52,259,40307,1,2,0:0:0:0:
261,271,40632,1,2,0:0:0:0:
166,84,40956,1,2,0:0:0:0:
52,259,41280,5,2,0:0:0:0:
151,166,41442,1,2,0:0:0:0:
374,128,41767,5,2,0:0:0:0:
293,107,41929,1,2,0:0:0:0:
243,172,42091,1,2,0:0:0:0:
324,193,42253,1,2,0:0:0:0:
424,59,42578,5,2,0:0:0:0:
212,83,42902,1,2,0:0:0:0:
324,193,43064,6,0,L|331:239,3,41.3999986102295,2|0|0|0,2:0|0:0|0:0|0:0,0:0:0:0:
276,281,43388,2,0,L|283:327,3,41.3999986102295,2|0|0|0,2:0|0:0|0:0|0:0,0:0:0:0:
213,360,43713,1,2,2:0:0:0:
198,345,43794,1,0,0:0:0:0:
180,334,43875,1,2,2:0:0:0:
160,326,43956,1,0,0:0:0:0:
139,322,44037,1,2,2:0:0:0:
118,322,44118,1,2,2:0:0:0:
97,325,44199,1,2,2:0:0:0:
78,333,44280,1,0,0:0:0:0:
59,342,44361,5,8,1:0:0:0:
142,106,44523,1,8,1:0:0:0:
243,271,44686,1,8,1:0:0:0:
243,271,44767,1,8,1:0:0:0:
26,187,44929,2,0,L|120:177,1,82.7999972204591,8|8,1:0|1:0,0:0:0:0:
132,197,45172,1,8,1:0:0:0:
318,110,45334,2,0,P|336:66|345:27,1,82.7999972204591,2|0,0:0|2:0,0:0:0:0:
218,145,45659,5,8,1:0:0:0:
301,360,45821,1,8,1:0:0:0:
115,241,45983,1,8,1:0:0:0:
141,256,46064,2,0,L|252:250,1,82.7999972204591,8|8,1:0|1:0,0:0:0:0:
409,306,46388,1,8,1:0:0:0:
409,306,46469,1,8,1:0:0:0:
336,374,46632,2,0,P|316:324|305:277,1,82.7999972204591,2|0,0:0|2:0,0:0:0:0:
333,53,46956,5,8,1:0:0:0:
467,227,47118,1,8,1:0:0:0:
273,177,47280,1,8,1:0:0:0:
293,172,47361,1,8,1:0:0:0:
481,114,47523,2,0,L|470:209,1,82.7999972204591,8|8,1:0|1:0,0:0:0:0:
467,227,47767,1,8,1:0:0:0:
273,177,47929,2,0,L|221:169,1,41.3999986102295,2|0,0:0|2:0,0:0:0:0:
147,201,48091,2,0,L|95:193,1,41.3999986102295,2|0,0:0|2:0,0:0:0:0:
24,232,48253,5,8,1:0:0:0:
169,52,48415,1,8,1:0:0:0:
174,279,48578,1,8,1:0:0:0:
174,299,48659,1,8,1:0:0:0:
30,95,48821,1,8,1:0:0:0:
242,167,48983,1,8,1:0:0:0:
262,165,49064,1,8,1:0:0:0:
431,58,49226,2,0,L|424:104,1,41.3999986102295,2|0,0:0|2:0,0:0:0:0:
381,251,49388,2,0,L|374:205,1,41.3999986102295,2|0,0:0|2:0,0:0:0:0:
346,35,49550,5,8,1:0:0:0:
481,211,49713,1,8,1:0:0:0:
223,129,49875,2,0,L|332:123,1,82.7999972204591,8|8,1:0|1:0,0:0:0:0:
500,217,50199,1,12,1:0:0:0:
324,352,50362,1,8,1:0:0:0:
406,94,50524,2,0,L|412:203,1,82.7999972204591,8|8,1:0|1:0,0:0:0:0:
318,371,50848,5,12,1:0:0:0:
183,195,51010,1,8,1:0:0:0:
441,277,51172,2,0,L|332:283,1,82.7999972204591,8|8,1:0|1:0,0:0:0:0:
164,189,51496,1,12,1:0:0:0:
340,54,51659,1,8,1:0:0:0:
258,312,51821,2,0,L|252:203,1,82.7999972204591,8|8,1:0|1:0,0:0:0:0:
100,86,52145,5,12,1:0:0:0:
129,66,52226,1,0,0:0:0:0:
164,61,52307,1,8,1:0:0:0:
197,74,52388,1,0,0:0:0:0:
221,99,52469,2,0,L|236:153,3,45,8|0|8|0,1:0|0:0|1:0|0:0,0:0:0:0:
212,219,52794,5,12,1:0:0:0:
239,241,52875,1,0,0:0:0:0:
274,248,52956,1,8,1:0:0:0:
309,245,53037,1,0,0:0:0:0:
338,225,53118,2,0,L|358:172,3,45,8|0|8|0,1:0|0:0|1:0|0:0,0:0:0:0:
418,94,53442,5,8,1:0:0:0:
424,129,53523,1,0,0:0:0:0:
431,164,53605,1,8,1:0:0:0:
438,199,53686,1,0,0:0:0:0:
414,226,53767,1,8,1:0:0:0:
420,261,53848,1,0,0:0:0:0:
427,296,53930,1,8,1:0:0:0:
434,331,54011,1,0,0:0:0:0:
440,365,54091,5,8,1:0:0:0:
404,345,54172,1,0,0:0:0:0:
365,333,54253,1,8,1:0:0:0:
324,330,54334,1,0,0:0:0:0:
285,343,54415,1,8,1:0:0:0:
248,361,54496,1,8,1:0:0:0:
207,358,54578,1,12,1:0:0:0:
170,340,54659,1,0,0:0:0:0:
242,63,56037,6,0,L|246:89,4,22.5,8|8|8|8|8,1:0|1:0|1:0|1:0|1:0,0:0:0:0:
114,162,56361,2,0,L|251:171,1,135,8|0,1:0|2:0,0:0:0:0:
409,168,56686,2,0,L|272:159,1,135,8|0,1:0|2:0,0:0:0:0:
284,337,57010,2,0,P|299:295|284:240,1,90,10|8,0:0|0:0,0:0:0:0:
157,75,57334,5,12,1:0:0:0:
219,292,57496,1,0,0:0:0:0:
341,108,57659,1,2,0:0:0:0:
81,222,57821,1,0,0:0:0:0:
116,218,57902,1,0,0:0:0:0:
151,215,57983,1,8,1:0:0:0:
250,46,58145,1,0,0:0:0:0:
51,195,58307,2,0,L|156:183,1,90,2|0,0:0|0:0,0:0:0:0:
341,108,58632,5,8,1:0:0:0:
293,302,58794,2,0,P|267:259|273:211,1,90,0|2,0:0|0:0,0:0:0:0:
392,47,59118,2,0,P|418:90|412:138,1,90,0|8,0:0|1:0,0:0:0:0:
219,153,59442,1,0,0:0:0:0:
479,175,59605,2,0,L|495:266,1,90,2|0,0:0|0:0,0:0:0:0:
297,365,59929,5,8,1:0:0:0:
321,139,60091,1,0,0:0:0:0:
512,280,60253,1,2,0:0:0:0:
278,279,60415,1,0,0:0:0:0:
273,243,60496,1,0,0:0:0:0:
268,206,60578,1,8,1:0:0:0:
455,347,60740,1,0,0:0:0:0:
248,308,60902,2,0,L|235:206,1,90,2|0,0:0|0:0,0:0:0:0:
38,104,61226,5,8,1:0:0:0:
171,252,61388,2,0,B|191:212|191:212|185:156,1,90,0|2,0:0|0:0,0:0:0:0:
324,11,61713,2,0,B|304:51|304:51|310:107,1,90,0|8,0:0|1:0,0:0:0:0:
338,288,62037,1,0,0:0:0:0:
138,241,62199,2,0,L|128:340,1,90,2|0,0:0|0:0,0:0:0:0:
321,187,62523,5,8,1:0:0:0:
85,170,62686,1,0,0:0:0:0:
256,306,62848,1,2,0:0:0:0:
261,72,63010,1,0,0:0:0:0:
225,76,63091,1,0,0:0:0:0:
189,81,63172,1,8,1:0:0:0:
80,254,63334,1,0,0:0:0:0:
255,113,63496,2,0,L|156:126,1,90,2|0,0:0|0:0,0:0:0:0:
37,331,63821,5,8,1:0:0:0:
98,102,63983,2,0,P|122:142|115:191,1,90,0|2,0:0|0:0,0:0:0:0:
270,332,64307,2,0,P|246:292|253:243,1,90,0|8,0:0|1:0,0:0:0:0:
331,94,64632,1,0,0:0:0:0:
407,294,64794,2,0,L|293:273,1,90,2|0,0:0|0:0,0:0:0:0:
173,240,65118,5,8,1:0:0:0:
395,173,65280,1,0,0:0:0:0:
242,46,65442,1,2,0:0:0:0:
282,268,65605,1,0,0:0:0:0:
286,232,65686,1,0,0:0:0:0:
291,196,65767,1,8,1:0:0:0:
342,16,65929,1,0,0:0:0:0:
320,270,66091,2,0,L|329:178,1,90,2|0,0:0|0:0,0:0:0:0:
412,99,66415,5,8,1:0:0:0:
194,160,66578,1,0,0:0:0:0:
452,184,66740,2,0,B|403:165|378:178|378:178|359:155|359:155|328:172|283:169,1,180,2|2,0:0|0:0,0:0:0:0:
30,112,67226,1,0,0:0:0:0:
52,115,67307,1,0,0:0:0:0:
74,118,67388,1,2,0:0:0:0:
96,121,67469,1,0,0:0:0:0:
118,124,67550,1,0,0:0:0:0:
140,127,67632,1,0,2:0:0:0:
162,130,67713,5,12,1:0:0:0:
336,24,67875,1,0,0:0:0:0:
304,265,68037,1,2,0:0:0:0:
159,93,68199,1,0,0:0:0:0:
194,89,68280,1,0,0:0:0:0:
229,85,68361,1,8,1:0:0:0:
423,121,68523,1,0,0:0:0:0:
151,129,68686,2,0,L|252:118,1,90,2|0,0:0|0:0,0:0:0:0:
368,316,69010,5,8,1:0:0:0:
210,190,69172,2,0,P|257:166|313:175,1,90,0|2,0:0|0:0,0:0:0:0:
512,258,69496,2,0,P|467:257|428:235,1,90,0|8,0:0|1:0,0:0:0:0:
287,61,69821,1,0,0:0:0:0:
508,231,69983,2,0,L|499:330,1,90,2|0,0:0|0:0,0:0:0:0:
296,329,70307,5,8,1:0:0:0:
369,100,70469,1,0,0:0:0:0:
210,190,70632,1,2,0:0:0:0:
394,319,70794,1,0,0:0:0:0:
389,283,70875,1,0,0:0:0:0:
384,247,70956,1,8,1:0:0:0:
213,106,71118,1,0,0:0:0:0:
356,337,71280,2,0,L|345:240,1,90,2|0,0:0|0:0,0:0:0:0:
321,34,71605,5,8,1:0:0:0:
115,188,71767,2,0,B|154:208|154:208|210:204,1,90,0|2,0:0|0:0,0:0:0:0:
392,92,72091,2,0,B|353:72|353:72|297:76,1,90,0|8,0:0|1:0,0:0:0:0:
205,288,72415,1,0,0:0:0:0:
463,149,72578,2,0,L|474:56,1,90,2|0,0:0|0:0,0:0:0:0:
193,103,72902,5,8,1:0:0:0:
389,116,73064,1,0,0:0:0:0:
174,78,73226,1,2,0:0:0:0:
408,135,73388,1,0,0:0:0:0:
415,170,73469,1,0,0:0:0:0:
422,205,73550,1,8,1:0:0:0:
156,51,73713,1,0,0:0:0:0:
441,152,73875,2,0,L|462:242,1,90,2|0,0:0|0:0,0:0:0:0:
332,350,74199,5,8,1:0:0:0:
295,108,74361,1,0,0:0:0:0:
490,312,74523,2,0,B|445:319|445:319|403:296,1,90,2|0,0:0|0:0,0:0:0:0:
340,44,74848,2,0,B|368:79|368:79|369:127,1,90,8|0,1:0|0:0,0:0:0:0:
183,308,75172,2,0,B|199:265|199:265|240:240,1,90,2|0,0:0|0:0,0:0:0:0:
441,254,75496,6,0,L|344:238,1,90,12|0,1:0|0:0,0:0:0:0:
131,207,75821,1,2,0:0:0:0:
297,340,75983,1,0,0:0:0:0:
336,96,76145,2,0,P|298:73|241:76,1,90,12|0,1:0|0:0,0:0:0:0:
181,332,76469,1,2,0:0:0:0:
276,149,76632,1,0,0:0:0:0:
66,253,76794,6,0,L|28:248,4,22.5,8|0|8|0|8,1:0|0:0|1:0|0:0|1:0,0:0:0:0:
178,360,77118,2,0,L|166:222,1,135,0|0,0:0|2:0,0:0:0:0:
138,74,77442,2,0,L|149:213,1,135,2|0,0:0|2:0,0:0:0:0:
316,245,77767,2,0,P|286:216|224:211,1,90,2|0,0:0|0:0,0:0:0:0:
93,330,78091,5,12,1:0:0:0:
240,207,78253,1,2,2:0:0:0:
250,172,78334,2,0,L|234:74,1,90,0|0,0:0|0:0,0:0:0:0:
410,113,78659,2,0,L|272:88,1,135,0|2,0:0|2:0,0:0:0:0:
147,195,79064,1,2,0:0:0:0:
351,202,79226,1,2,2:0:0:0:
260,14,79388,5,8,1:0:0:0:
177,211,79550,1,0,0:0:0:0:
177,211,79632,1,0,0:0:0:0:
79,124,79794,1,0,0:0:0:0:
232,94,79956,1,0,0:0:0:0:
183,249,80118,2,0,L|176:348,1,90,0|0,0:0|0:0,0:0:0:0:
264,308,80361,1,2,0:0:0:0:
284,290,80442,1,0,0:0:0:0:
294,265,80523,1,2,2:0:0:0:
293,237,80605,1,0,0:0:0:0:
284,211,80686,5,8,1:0:0:0:
412,114,80848,1,0,0:0:0:0:
391,143,80929,2,0,L|380:239,1,90,0|0,0:0|0:0,0:0:0:0:
510,264,81253,2,0,L|357:278,1,135,0|2,0:0|2:0,0:0:0:0:
216,250,81659,1,2,0:0:0:0:
319,86,81821,1,2,2:0:0:0:
327,338,81983,5,8,1:0:0:0:
161,313,82145,1,2,2:0:0:0:
125,319,82226,2,0,L|59:328,1,45,0|2,0:0|0:0,0:0:0:0:
0,241,82388,2,0,L|66:250,1,45,0|2,0:0|2:0,0:0:0:0:
103,181,82550,1,0,0:0:0:0:
41,47,82713,1,0,0:0:0:0:
220,47,82875,1,0,0:0:0:0:
192,68,82956,2,0,L|188:162,1,90,2|0,0:0|0:0,0:0:0:0:
277,350,83280,5,8,1:0:0:0:
463,210,83442,1,0,0:0:0:0:
463,210,83523,2,0,P|420:190|376:197,1,90,0|0,0:0|0:0,0:0:0:0:
330,274,83767,1,2,0:0:0:0:
164,212,83929,1,8,1:0:0:0:
159,176,84010,1,8,1:0:0:0:
154,140,84091,1,8,1:0:0:0:
150,104,84172,1,8,1:0:0:0:
136,93,84253,1,2,0:0:0:0:
172,88,84334,1,8,1:0:0:0:
208,83,84415,1,2,0:0:0:0:
244,79,84496,1,8,1:0:0:0:
262,63,84578,5,12,1:0:0:0:
309,285,84740,1,0,0:0:0:0:
309,285,84821,1,0,0:0:0:0:
309,285,84902,1,8,1:0:0:0:
96,204,85064,1,8,1:0:0:0:
269,155,85226,2,0,L|265:208,1,45,8|8,1:0|1:0,0:0:0:0:
206,326,85388,2,0,L|210:273,1,45,8|8,1:0|1:0,0:0:0:0:
177,186,85550,1,2,0:0:0:0:
181,149,85632,1,8,1:0:0:0:
185,113,85713,1,2,0:0:0:0:
190,77,85794,1,8,1:0:0:0:
195,41,85875,5,0,0:0:0:0:
29,209,86037,2,0,P|99:155|177:186,1,180,12|0,1:0|0:0,0:0:0:0:
317,343,86523,1,12,1:0:0:0:
483,175,86685,2,0,P|413:229|335:198,1,180,12|0,1:0|0:0,0:0:0:0:
258,70,87172,5,8,1:0:0:0:
254,105,87253,1,8,1:0:0:0:
250,140,87334,1,8,1:0:0:0:
246,175,87415,1,8,1:0:0:0:
266,204,87496,1,2,0:0:0:0:
262,239,87577,1,8,1:0:0:0:
258,274,87658,1,8,1:0:0:0:
254,309,87739,1,8,1:0:0:0:
248,344,87821,6,0,B|203:364|203:364|110:355,1,135,2|0,0:0|0:0,0:0:0:0:
330,344,88145,2,0,B|375:324|375:324|468:333,1,135,2|0,0:0|0:0,0:0:0:0:
248,344,88469,5,12,1:0:0:0:
256,192,92361,12,0,93578,0:0:0:0:
265,242,93659,5,8,1:0:0:0:
228,53,93821,1,8,1:0:0:0:
401,177,93983,1,8,1:0:0:0:
401,177,94064,1,8,1:0:0:0:
237,252,94226,2,0,L|247:147,1,82.7999972204591,8|8,1:0|1:0,0:0:0:0:
234,142,94469,1,8,1:0:0:0:
388,56,94632,2,0,P|347:61|315:86,1,82.7999972204591,2|0,0:0|2:0,0:0:0:0:
281,343,94956,5,8,1:0:0:0:
125,247,95118,1,8,1:0:0:0:
335,164,95280,1,8,1:0:0:0:
316,191,95361,2,0,L|323:289,1,82.7999972204591,0|0,0:0|0:0,0:0:0:0:
180,348,95686,1,8,1:0:0:0:
180,348,95767,1,8,1:0:0:0:
249,144,95929,2,0,L|242:91,1,41.3999986102295,2|0,0:0|2:0,0:0:0:0:
171,208,96091,2,0,L|164:261,1,41.3999986102295,2|0,0:0|2:0,0:0:0:0:
328,352,96253,5,12,1:0:0:0:
76,260,96415,1,0,0:0:0:0:
259,86,96578,2,0,L|246:186,1,90
252,355,96902,1,12,1:0:0:0:
0,263,97064,1,0,0:0:0:0:
183,88,97227,2,0,L|170:188,1,90
146,354,97550,5,12,1:0:0:0:
146,354,97632,1,0,0:0:0:0:
146,354,97713,2,0,L|139:288,1,45,2|0,2:0|0:0,0:0:0:0:
282,150,97875,1,12,1:0:0:0:
282,150,97957,1,0,0:0:0:0:
282,150,98038,2,0,L|275:216,1,45,2|0,2:0|0:0,0:0:0:0:
365,353,98199,2,0,P|416:362|457:337,1,90,12|2,1:0|2:0,0:0:0:0:
174,207,98523,2,0,P|123:198|82:223,1,90,2|2,0:0|2:0,0:0:0:0:
307,291,98848,6,0,L|310:237,1,45,12|0,1:0|2:0,0:0:0:0:
237,128,99010,2,0,L|240:74,1,45,8|0,1:0|2:0,0:0:0:0:
467,234,99172,2,0,L|320:218,1,135,2|0,2:0|2:0,0:0:0:0:
236,256,99496,5,12,1:0:0:0:
199,252,99578,1,0,0:0:0:0:
163,248,99659,1,8,1:0:0:0:
5,340,99821,2,0,P|68:355|127:291,1,135,2|0,2:0|2:0,0:0:0:0:
101,190,100145,5,12,1:0:0:0:
106,154,100226,1,8,1:0:0:0:
111,118,100307,2,0,L|119:58,1,45,8|8,1:0|1:0,0:0:0:0:
171,175,100469,1,12,1:0:0:0:
176,139,100550,1,8,1:0:0:0:
181,103,100631,2,0,L|189:43,1,45,8|8,1:0|1:0,0:0:0:0:
245,161,100794,5,12,1:0:0:0:
456,135,100956,1,0,0:0:0:0:
172,210,101118,2,0,L|155:310,1,90,2|0,0:0|2:0,0:0:0:0:
352,341,101442,5,12,1:0:0:0:
301,79,101605,1,0,0:0:0:0:
301,79,101686,1,0,0:0:0:0:
301,79,101767,1,2,0:0:0:0:
173,313,101929,2,0,B|220:323|220:323|283:295,1,90,0|8,0:0|0:0,0:0:0:0:
446,206,102253,2,0,L|331:193,1,90,0|2,0:0|0:0,0:0:0:0:
279,87,102578,1,0,0:0:0:0:
275,318,102740,5,8,1:0:0:0:
67,277,102902,1,0,0:0:0:0:
67,277,102983,1,0,0:0:0:0:
67,277,103064,2,0,L|59:177,1,90,2|0,0:0|0:0,0:0:0:0:
208,117,103388,2,0,L|216:217,1,90,8|0,0:0|0:0,0:0:0:0:
254,348,103632,1,0,0:0:0:0:
282,326,103713,1,2,0:0:0:0:
284,290,103794,1,0,0:0:0:0:
287,254,103875,1,2,0:2:0:0:
290,218,103956,1,0,0:0:0:0:
293,182,104037,5,8,1:0:0:0:
481,129,104199,1,0,0:0:0:0:
481,129,104280,1,0,0:0:0:0:
481,129,104361,1,2,0:0:0:0:
419,285,104523,2,0,P|394:244|399:199,1,90,0|8,0:0|0:0,0:0:0:0:
492,15,104848,2,0,L|483:104,1,90,0|2,0:0|0:0,0:0:0:0:
290,218,105172,1,0,0:0:0:0:
463,348,105334,5,8,0:0:0:0:
377,124,105496,1,0,0:0:0:0:
377,124,105578,1,0,0:0:0:0:
377,124,105659,2,0,L|279:114,1,90,2|0,0:0|0:0,0:0:0:0:
226,195,105983,2,0,L|324:205,1,90,8|0,0:0|0:0,0:0:0:0:
420,240,106226,1,0,0:0:0:0:
385,245,106307,1,2,0:0:0:0:
196,294,106469,1,0,0:0:0:0:
339,218,106632,5,8,1:0:0:0:
130,241,106794,1,0,0:0:0:0:
130,241,106875,1,0,0:0:0:0:
130,241,106956,1,2,0:0:0:0:
193,31,107118,2,0,L|183:124,1,90,0|8,0:0|0:0,0:0:0:0:
289,235,107442,2,0,P|309:186|281:123,1,90,0|2,0:0|0:0,0:0:0:0:
73,73,107767,1,0,0:0:0:0:
92,325,107929,5,8,1:0:0:0:
179,166,108091,1,0,0:0:0:0:
179,166,108172,1,0,0:0:0:0:
179,166,108253,2,0,L|169:73,1,90,2|0,0:0|0:0,0:0:0:0:
289,267,108578,2,0,L|299:360,1,90,8|0,0:0|0:0,0:0:0:0:
368,302,108821,1,0,0:0:0:0:
397,282,108902,1,2,0:0:0:0:
395,246,108983,1,0,0:0:0:0:
393,210,109064,1,0,0:0:0:0:
391,174,109145,1,0,0:0:0:0:
389,138,109226,5,8,1:0:0:0:
201,90,109388,2,0,L|205:145,1,45
127,343,109632,1,0,0:0:0:0:
67,263,109794,2,0,B|109:242|109:242|206:255,1,135,0|0,0:0|0:0,0:0:0:0:
390,190,110199,2,0,P|337:180|301:197,1,90,2|0,0:0|0:0,0:0:0:0:
341,341,110523,6,0,B|358:298|358:298|351:245,1,90,8|0,1:0|0:0,0:0:0:0:
306,112,110848,1,2,0:0:0:0:
137,200,111010,1,0,0:0:0:0:
137,200,111091,1,0,0:0:0:0:
137,200,111172,1,2,0:0:0:0:
284,285,111334,2,0,L|279:227,1,45,0|0,0:0|0:0,0:0:0:0:
266,91,111496,1,2,0:0:0:0:
218,343,111659,1,0,0:0:0:0:
430,224,111821,5,12,1:0:0:0:
225,174,111983,1,0,0:0:0:0:
231,209,112064,1,0,0:0:0:0:
236,244,112145,1,2,0:0:0:0:
461,152,112307,2,0,B|414:148|414:148|370:172,1,90,0|8,0:0|0:0,0:0:0:0:
180,311,112632,2,0,L|296:329,1,90,0|2,0:0|0:0,0:0:0:0:
367,140,112956,1,0,0:0:0:0:
177,110,113118,5,8,1:0:0:0:
288,352,113280,1,0,0:0:0:0:
288,352,113361,1,0,0:0:0:0:
288,352,113442,2,0,L|302:255,1,90,2|0,0:0|0:0,0:0:0:0:
141,121,113767,2,0,L|127:218,1,90,8|0,0:0|0:0,0:0:0:0:
23,327,114010,1,0,0:0:0:0:
48,301,114091,1,2,0:0:0:0:
83,295,114172,1,0,0:0:0:0:
118,290,114253,1,2,0:2:0:0:
153,285,114334,1,0,0:0:0:0:
188,280,114415,5,8,1:0:0:0:
393,181,114578,1,0,0:0:0:0:
358,171,114659,1,0,0:0:0:0:
323,161,114740,1,2,0:0:0:0:
350,367,114902,2,0,L|337:263,1,90,0|8,0:0|0:0,0:0:0:0:
206,52,115226,2,0,P|186:93|193:139,1,90,0|2,0:0|0:0,0:0:0:0:
362,261,115550,1,0,0:0:0:0:
389,47,115713,5,8,1:0:0:0:
268,113,115875,1,0,0:0:0:0:
268,113,115956,1,0,0:0:0:0:
268,113,116037,2,0,L|276:209,1,90,2|0,0:0|0:0,0:0:0:0:
78,261,116361,2,0,L|70:165,1,90,8|0,0:0|0:0,0:0:0:0:
96,63,116605,1,0,0:0:0:0:
99,98,116686,1,2,0:0:0:0:
113,277,116848,1,2,2:0:0:0:
359,192,117010,5,8,1:0:0:0:
174,168,117172,1,8,1:0:0:0:
380,165,117334,1,2,0:0:0:0:
155,193,117496,1,8,1:0:0:0:
357,279,117659,1,8,1:0:0:0:
392,272,117740,1,8,1:0:0:0:
427,265,117821,1,8,1:0:0:0:
462,258,117902,1,8,1:0:0:0:
480,263,117983,1,2,0:0:0:0:
473,228,118064,1,8,1:0:0:0:
466,193,118145,1,2,0:0:0:0:
459,158,118226,1,8,1:0:0:0:
469,135,118307,5,8,1:0:0:0:
436,355,118469,1,8,1:0:0:0:
280,270,118632,1,2,0:0:0:0:
492,250,118794,1,8,1:0:0:0:
359,314,118956,2,0,L|362:267,1,45,8|8,1:0|1:0,0:0:0:0:
322,54,119118,2,0,L|319:101,1,45,8|8,1:0|1:0,0:0:0:0:
284,188,119280,1,2,0:0:0:0:
319,183,119361,1,8,1:0:0:0:
354,178,119442,1,2,0:0:0:0:
389,173,119523,1,8,1:0:0:0:
420,192,119605,5,12,1:0:0:0:
244,368,119767,2,0,B|256:305|256:305|244:254|244:254|256:192,1,180,8|0,1:0|0:0,0:0:0:0:
92,192,120253,1,12,1:0:0:0:
267,15,120415,2,0,B|255:78|255:78|267:129|267:129|256:192,1,180,8|0,1:0|0:0,0:0:0:0:
442,272,120902,5,12,1:0:0:0:
418,244,120983,1,8,1:0:0:0:
384,229,121064,1,8,1:0:0:0:
348,229,121145,1,8,1:0:0:0:
316,245,121226,1,12,1:0:0:0:
290,270,121307,1,8,1:0:0:0:
255,279,121388,1,8,1:0:0:0:
220,269,121469,1,8,1:0:0:0:
192,245,121550,6,0,B|177:202|177:202|198:91,1,135,2|0,0:0|0:0,0:0:0:0:
92,210,121875,2,0,B|107:253|107:253|86:364,1,135,2|0,0:0|0:0,0:0:0:0:
9,179,122199,5,12,1:0:0:0:
